<?xml version="1.0" standalone="no"?>
<!DOCTYPE svg PUBLIC "-//W3C//DTD SVG 1.1//EN" "http://www.w3.org/Graphics/SVG/1.1/DTD/svg11.dtd" >
<svg xmlns="http://www.w3.org/2000/svg">
<metadata></metadata>
<defs>
<font id="mallory_blackregular" horiz-adv-x="1228" >
<font-face units-per-em="2048" ascent="1638" descent="-410" />
<missing-glyph horiz-adv-x="452" />
<glyph unicode="&#xfb01;" horiz-adv-x="1558" d="M47 768v293h158v63q0 201 111.5 312.5t310.5 111.5q72 0 130 -9t128 -32l37 -282l-7 -4q-53 20 -94 29.5t-84 9.5q-74 0 -115.5 -38t-41.5 -104v-57h317v-293h-307v-768h-385v768h-158zM1018 1391q0 90 64.5 149t162.5 59q96 0 161 -59t65 -149t-64.5 -150.5 t-161.5 -60.5q-96 0 -161.5 60t-65.5 151zM1051 0v1061h387v-1061h-387z" />
<glyph unicode="&#xfb02;" horiz-adv-x="1558" d="M47 768v293h158v63q0 201 111.5 312.5t310.5 111.5q72 0 130 -9t128 -32l37 -282l-7 -4q-53 20 -94 29.5t-84 9.5q-74 0 -115.5 -38t-41.5 -104v-57h317v-293h-307v-768h-385v768h-158zM1051 0v1460l387 90v-1550h-387z" />
<glyph horiz-adv-x="0" />
<glyph horiz-adv-x="0" />
<glyph horiz-adv-x="682" />
<glyph unicode="&#xd;" horiz-adv-x="681" />
<glyph unicode=" "  horiz-adv-x="452" />
<glyph unicode="&#x09;" horiz-adv-x="452" />
<glyph unicode="&#xa0;" horiz-adv-x="452" />
<glyph unicode="!" horiz-adv-x="622" d="M74 1331v103h473v-103l-148 -792h-174zM94 197q0 90 63.5 153.5t153.5 63.5q92 0 155.5 -63.5t63.5 -153.5t-63.5 -153.5t-155.5 -63.5q-90 0 -153.5 63t-63.5 154z" />
<glyph unicode="&#x22;" horiz-adv-x="1157" d="M66 838l127 596h425l-382 -639zM584 838l129 596h426l-385 -639z" />
<glyph unicode="#" horiz-adv-x="1456" d="M49 256v340h254l59 242h-210v340h292l64 260h250l-64 -260h303l64 260h250l-64 -260h160v-340h-242l-59 -242h199v-340h-281l-63 -260h-250l63 260h-303l-63 -260h-250l63 260h-172zM551 590h303l64 254h-304z" />
<glyph unicode="$" horiz-adv-x="1226" d="M49 498l4 2q150 -88 286 -134.5t247 -46.5q78 0 118.5 26t40.5 73q0 49 -46 78.5t-175 62.5q-262 70 -360 169t-98 269q0 184 134 302t367 135l21 221h274l-22 -238q66 -12 129 -32.5t118 -49.5v-362h-4q-98 59 -229 100t-231 41q-66 0 -102 -23.5t-36 -66.5 q0 -47 43 -74.5t172 -62.5q268 -72 366.5 -171.5t98.5 -277.5q0 -180 -125 -295.5t-342 -140.5l-22 -252h-275l25 258q-86 12 -167 40t-157 71z" />
<glyph unicode="%" horiz-adv-x="1873" d="M53 1040q0 184 108.5 303t274.5 119q168 0 276.5 -117t108.5 -301q0 -186 -109.5 -303.5t-279.5 -117.5q-164 0 -271.5 117.5t-107.5 299.5zM311 1044q0 -88 35 -139t94 -51q57 0 91 51t34 137q0 90 -35 142.5t-94 52.5q-57 0 -91 -53.5t-34 -139.5zM330 -4l528 770 l434 672h252l-532 -770l-434 -672h-248zM1053 389q0 184 108.5 303t274.5 119q168 0 276.5 -116.5t108.5 -301.5q0 -186 -109.5 -304t-279.5 -118q-164 0 -271.5 118t-107.5 300zM1309 393q0 -86 36 -138t95 -52q57 0 91 51t34 137q0 88 -35 141.5t-94 53.5q-57 0 -92 -53.5 t-35 -139.5z" />
<glyph unicode="&#x26;" horiz-adv-x="1538" d="M49 365q0 129 83 228t253 171q-61 94 -89 169t-28 148q0 162 126 270.5t319 108.5q188 0 308 -100t120 -254q0 -113 -80 -209t-250 -186q31 -39 69 -82t87 -97q37 41 78.5 93.5t95.5 122.5h362v-7q-92 -123 -177 -224t-163 -183q86 -82 174 -163t183 -165v-6h-428 q-18 16 -38 34.5t-59 53.5q-23 20 -34 30.5t-19 18.5q-115 -80 -225.5 -118.5t-224.5 -38.5q-203 0 -323 105t-120 280zM424 393q0 -59 41 -98t106 -39q41 0 85 17.5t94 52.5q-63 63 -113.5 119.5t-93.5 109.5q-61 -41 -90 -80t-29 -82zM598 1065q0 -41 19.5 -84t64.5 -104 q82 45 123 92t41 98q0 53 -35 88t-88 35q-57 0 -91 -35t-34 -90z" />
<glyph unicode="'" horiz-adv-x="653" d="M66 838l127 596h440l-395 -639z" />
<glyph unicode="(" horiz-adv-x="942" d="M125 625q0 285 162 506t526 421l94 -106q-217 -213 -307 -403.5t-90 -417.5t90 -418t307 -404l-94 -106q-365 201 -526.5 422t-161.5 506z" />
<glyph unicode=")" horiz-adv-x="942" d="M35 -197q217 213 307 404t90 418t-90 417.5t-307 403.5l94 106q365 -201 526.5 -422t161.5 -505q0 -285 -161.5 -506t-526.5 -422z" />
<glyph unicode="*" horiz-adv-x="1122" d="M63 936l125 381l277 -275l-16 -51zM133 739l346 185l41 -33l-61 -383zM360 1442h400l-172 -348h-53zM600 891l43 33l344 -185l-325 -231zM657 1042l275 275l127 -381l-387 55z" />
<glyph unicode="+" d="M72 559v315h377v373h331v-373h377v-315h-377v-373h-331v373h-377z" />
<glyph unicode="," horiz-adv-x="544" d="M-53 -276q115 156 140.5 263t25.5 339v65h366q0 -244 -77.5 -391.5t-356.5 -372.5z" />
<glyph unicode="-" horiz-adv-x="829" d="M90 403v340h649v-340h-649z" />
<glyph unicode="." horiz-adv-x="544" d="M47 203q0 92 65.5 158.5t159.5 66.5q92 0 158 -66.5t66 -158.5t-65 -157.5t-159 -65.5t-159.5 65.5t-65.5 157.5z" />
<glyph unicode="/" horiz-adv-x="1019" d="M-18 -266l718 1782h277l-719 -1782h-276z" />
<glyph unicode="0" horiz-adv-x="1445" d="M82 715q0 328 181 537.5t462 209.5q283 0 461 -205.5t178 -537.5q0 -330 -181.5 -539t-461.5 -209q-287 0 -463 205t-176 539zM473 719q0 -184 67.5 -290.5t184.5 -106.5q113 0 179.5 106.5t66.5 286.5q0 182 -67.5 289.5t-182.5 107.5t-181.5 -106.5t-66.5 -286.5z" />
<glyph unicode="1" horiz-adv-x="954" d="M76 672v415l690 381l31 -12v-1456h-400v852z" />
<glyph unicode="2" horiz-adv-x="1222" d="M68 215l501 530q72 78 99.5 126.5t27.5 95.5q0 57 -37.5 93t-103.5 36q-94 0 -199.5 -63.5t-234.5 -196.5h-4l-27 407q115 109 245 161t283 52q219 0 347.5 -116.5t128.5 -307.5q0 -119 -51.5 -219t-196.5 -250l-209 -223l532 6l-106 -346h-975z" />
<glyph unicode="3" horiz-adv-x="1171" d="M72 465l4 2q115 -78 230.5 -122t209.5 -44q82 0 132 34t50 89q0 70 -86 118t-333 124v106q74 31 128 55.5t95 44.5q96 47 134 79t38 75q0 49 -42 76.5t-116 27.5q-88 0 -190.5 -40.5t-216.5 -120.5h-5v344q104 70 228.5 105.5t255.5 35.5q221 0 352 -100.5t131 -268.5 q0 -111 -67.5 -196.5t-200.5 -145.5q143 -49 216 -138t73 -216q0 -182 -148.5 -297t-376.5 -115q-131 0 -238.5 28t-215.5 91z" />
<glyph unicode="4" horiz-adv-x="1355" d="M20 369l621 1075h457v-887h213v-293h-213v-264h-375v264h-688zM444 557h285v539z" />
<glyph unicode="5" horiz-adv-x="1216" d="M100 403q129 -55 227.5 -79.5t190.5 -24.5q100 0 160.5 46t60.5 126q0 84 -65.5 128t-192.5 44q-74 0 -151.5 -12.5t-175.5 -38.5l-23 10l51 832h891v-338h-606l-16 -193q35 6 75.5 9t81.5 3q256 0 395.5 -116.5t139.5 -331.5q0 -223 -161 -357.5t-429 -134.5 q-115 0 -221.5 21.5t-200.5 62.5z" />
<glyph unicode="6" horiz-adv-x="1304" d="M74 510q0 139 57 276.5t221 366.5l199 281h461l-369 -465q35 6 65.5 8t59.5 2q209 0 342 -126t133 -339q0 -236 -166 -389.5t-426 -153.5q-266 0 -421.5 148.5t-155.5 390.5zM463 512q0 -96 53 -156.5t141 -60.5q86 0 142.5 56.5t56.5 142.5q0 92 -60.5 142t-168.5 50 q-31 0 -63 -2t-60 -6q-20 -45 -30.5 -86t-10.5 -80z" />
<glyph unicode="7" horiz-adv-x="1251" d="M66 1434h1155l10 -17l-649 -1417h-416l522 1087h-582z" />
<glyph unicode="8" horiz-adv-x="1333" d="M78 381q0 121 64.5 210t189.5 140q-102 49 -156.5 133t-54.5 195q0 180 148.5 289.5t398.5 109.5t398 -108.5t148 -290.5q0 -109 -54 -193t-156 -135q123 -49 187 -139t64 -211q0 -184 -161.5 -295t-427.5 -111q-272 0 -430 109t-158 297zM475 430q0 -76 53.5 -124 t141.5 -48q86 0 137 47t51 125q0 72 -55 121t-137 49q-80 0 -135.5 -49t-55.5 -121zM500 1018q0 -74 47 -119t123 -45q74 0 120 46t46 118q0 70 -47 114t-123 44t-121 -43t-45 -115z" />
<glyph unicode="9" horiz-adv-x="1304" d="M61 911q0 240 165 395.5t425 155.5q266 0 422 -147.5t156 -390.5q0 -139 -57.5 -276.5t-221.5 -366.5l-196 -281h-463l352 440q-25 -4 -46.5 -5t-45.5 -1q-221 0 -355.5 127t-134.5 350zM449 930q0 -98 59 -149.5t170 -51.5q27 0 56.5 2t60.5 4q27 53 37 95t10 92 q0 96 -54.5 156.5t-142.5 60.5q-86 0 -141 -58.5t-55 -150.5z" />
<glyph unicode=":" horiz-adv-x="565" d="M59 203q0 92 65.5 158.5t158.5 66.5q94 0 159.5 -66.5t65.5 -158.5t-65.5 -157.5t-159.5 -65.5q-92 0 -158 65.5t-66 157.5zM59 856q0 92 65.5 158.5t158.5 66.5q94 0 159.5 -66.5t65.5 -158.5t-65.5 -157.5t-159.5 -65.5q-92 0 -158 65.5t-66 157.5z" />
<glyph unicode=";" horiz-adv-x="565" d="M-49 -276q113 154 138.5 260t25.5 342v65h366q0 -244 -77.5 -391.5t-356.5 -372.5zM66 856q0 92 65.5 157.5t159.5 65.5t158.5 -65.5t64.5 -157.5q0 -94 -64.5 -159.5t-158.5 -65.5t-159.5 65.5t-65.5 159.5z" />
<glyph unicode="&#x3c;" d="M104 594v246l1006 450v-336l-586 -235l586 -232v-342z" />
<glyph unicode="=" d="M84 367v270h1061v-270h-1061zM84 797v270h1061v-270h-1061z" />
<glyph unicode="&#x3e;" d="M119 145v336l586 236l-586 231v342l1005 -448v-246z" />
<glyph unicode="?" horiz-adv-x="1032" d="M66 942v365q115 78 225 112.5t239 34.5q205 0 327 -99.5t122 -262.5q0 -119 -51 -193t-211 -156q-92 -49 -125 -76.5t-33 -62.5q0 -14 4 -28.5t12 -36.5h-204q-57 47 -83 91t-26 97q0 66 50 118t182 113q74 37 96 56.5t22 48.5q0 31 -28.5 48t-81.5 17q-98 0 -206 -46 t-226 -140h-4zM244 197q0 90 63.5 153.5t153.5 63.5t153.5 -63.5t63.5 -153.5t-63.5 -153.5t-153.5 -63.5t-153.5 63t-63.5 154z" />
<glyph unicode="@" horiz-adv-x="2084" d="M78 414q0 213 87 416.5t245 363.5t359.5 246t420.5 86q365 0 590 -210t225 -548q0 -293 -165 -479.5t-415 -186.5q-123 0 -197.5 45.5t-92.5 131.5q-109 -98 -188 -137.5t-169 -39.5q-125 0 -199.5 91.5t-74.5 244.5q0 252 177 434.5t435 182.5q74 0 145.5 -19.5 t135.5 -56.5l86 59h133l-150 -616q-6 -20 -9 -42t-3 -42q0 -45 31 -72.5t84 -27.5q143 0 253.5 153.5t110.5 372.5q0 317 -203.5 506.5t-543.5 189.5q-203 0 -390.5 -82t-334.5 -231q-147 -150 -228 -341.5t-81 -387.5q0 -344 214 -537.5t595 -193.5q166 0 311 26.5 t287 81.5v-71q-150 -53 -294.5 -78t-308.5 -25q-408 0 -643 212t-235 581zM827 504q0 -59 33 -92t92 -33q39 0 84 15.5t103 49.5l80 322q-25 10 -50.5 14t-54.5 4q-121 0 -204 -82.5t-83 -197.5z" />
<glyph unicode="A" horiz-adv-x="1695" d="M18 0l605 1436h458l594 -1436h-440l-96 246h-596l-97 -246h-428zM657 567h369l-184 465z" />
<glyph unicode="B" horiz-adv-x="1349" d="M133 0v1434h598q236 0 368 -101.5t132 -279.5q0 -94 -50.5 -174t-146.5 -134q121 -49 183.5 -132.5t62.5 -198.5q0 -190 -147.5 -302t-393.5 -112h-606zM522 303h166q88 0 138.5 38t50.5 103q0 72 -48.5 109t-144.5 37h-162v-287zM522 854h144q82 0 129 38t47 103 q0 63 -44 98t-124 35h-152v-274z" />
<glyph unicode="C" horiz-adv-x="1411" d="M72 715q0 317 214 529t537 212q137 0 258 -39t215 -114v-422h-6q-98 94 -206.5 145t-215.5 51q-162 0 -266 -101.5t-104 -256.5q0 -164 104.5 -264.5t269.5 -100.5q115 0 227.5 46t217.5 137l6 -5l-51 -419q-106 -70 -220 -103t-249 -33q-317 0 -524 207t-207 531z" />
<glyph unicode="D" horiz-adv-x="1589" d="M133 0v1434h545q399 0 619.5 -188.5t220.5 -526.5q0 -332 -224.5 -525.5t-615.5 -193.5h-545zM547 356h131q195 0 305.5 95.5t110.5 263.5q0 174 -110 268t-310 94h-127v-721z" />
<glyph unicode="E" horiz-adv-x="1245" d="M133 0v1434h977l55 -347h-624v-219h514v-297h-514v-225h630l-55 -346h-983z" />
<glyph unicode="F" horiz-adv-x="1189" d="M133 0v1434h1014l-55 -355h-545v-268h477v-326h-477v-485h-414z" />
<glyph unicode="G" horiz-adv-x="1560" d="M72 700q0 342 228 549t603 207q133 0 253 -24.5t243 -79.5v-389q-137 66 -250 94t-221 28q-190 0 -310 -104t-120 -274q0 -176 109.5 -276.5t299.5 -100.5q45 0 83 4t73 12v197h-268v266h639v-684q-152 -72 -302.5 -108.5t-297.5 -36.5q-342 0 -552 196.5t-210 523.5z " />
<glyph unicode="H" horiz-adv-x="1654" d="M133 0v1434h414v-521h559v521h416v-1434h-416v535h-559v-535h-414z" />
<glyph unicode="I" horiz-adv-x="694" d="M139 0v1434h414v-1434h-414z" />
<glyph unicode="J" horiz-adv-x="1042" d="M39 440l4 4q72 -47 136 -69.5t130 -22.5q90 0 143.5 53.5t53.5 147.5v881h414v-965q0 -227 -135.5 -357t-368.5 -130q-90 0 -171 19t-155 58z" />
<glyph unicode="K" horiz-adv-x="1542" d="M133 0v1434h414v-547h39l450 547h496v-4l-596 -687l606 -739v-4h-510l-448 571h-37v-571h-414z" />
<glyph unicode="L" horiz-adv-x="1165" d="M133 0v1434h414v-1063h557v-371h-971z" />
<glyph unicode="M" horiz-adv-x="2099" d="M133 0v1434h557l361 -717l358 717h557v-1434h-401v936l-502 -956h-29l-504 950v-930h-397z" />
<glyph unicode="N" horiz-adv-x="1683" d="M133 0v1434h406l604 -693l-4 693h411v-1438h-307l-704 805l6 -801h-412z" />
<glyph unicode="O" horiz-adv-x="1687" d="M72 715q0 317 221 532t553 215q330 0 550 -214t220 -529q0 -319 -221 -533.5t-553 -214.5t-551 213t-219 531zM494 719q0 -160 99 -267.5t251 -107.5q150 0 250 106.5t100 264.5q0 160 -101 267.5t-253 107.5q-150 0 -248 -106.5t-98 -264.5z" />
<glyph unicode="P" horiz-adv-x="1312" d="M133 0v1434h518q295 0 457 -130t162 -370q0 -238 -163 -376t-437 -138h-123v-420h-414zM541 735h98q109 0 168 49.5t59 139.5q0 86 -59.5 133t-165.5 47h-100v-369z" />
<glyph unicode="Q" horiz-adv-x="1687" d="M72 713q0 317 221 533t553 216q330 0 550 -209t220 -516q0 -225 -117 -400t-321 -259q39 -45 86 -64.5t112 -19.5q51 0 101.5 12t101.5 39l6 -6l-106 -305q-45 -18 -109.5 -28.5t-130.5 -10.5q-176 0 -293 69.5t-223 229.5q-289 37 -470 236.5t-181 482.5zM494 719 q0 -160 99 -267.5t251 -107.5q150 0 250 106.5t100 264.5q0 160 -101.5 267.5t-252.5 107.5q-150 0 -248 -106.5t-98 -264.5z" />
<glyph unicode="R" horiz-adv-x="1413" d="M133 0v1434h555q285 0 434.5 -118t149.5 -341q0 -135 -68.5 -243.5t-195.5 -172.5l444 -559h-487l-373 487h-45v-487h-414zM541 766h114q96 0 152.5 48t56.5 130q0 78 -54.5 123t-150.5 45h-118v-346z" />
<glyph unicode="S" horiz-adv-x="1193" d="M57 512l6 4q121 -92 264.5 -150.5t247.5 -58.5q74 0 112 24.5t38 74.5q0 45 -44 75.5t-177 77.5q-236 80 -331 185.5t-95 265.5q0 203 146.5 325.5t391.5 122.5q123 0 234 -25.5t203 -76.5v-369h-4q-100 59 -221 99t-214 40q-63 0 -97 -23.5t-34 -64.5q0 -43 43 -72.5 t172 -76.5q242 -82 337 -185.5t95 -271.5q0 -211 -149.5 -334t-402.5 -123q-131 0 -253 35t-219 99z" />
<glyph unicode="T" horiz-adv-x="1503" d="M63 1063v371h1377v-371h-482v-1063h-413v1063h-482z" />
<glyph unicode="U" horiz-adv-x="1607" d="M121 659v775h414v-783q0 -145 71.5 -225t200.5 -80q131 0 201.5 80t70.5 227v781h408v-775q0 -330 -177 -506t-507 -176t-506 176.5t-176 505.5z" />
<glyph unicode="V" horiz-adv-x="1658" d="M20 1434h455l363 -910l366 910h434l-626 -1448h-371z" />
<glyph unicode="W" horiz-adv-x="2334" d="M49 1434h443l237 -885l430 903h31l424 -903l244 885h430l-443 -1444h-385l-295 628l-297 -628h-387z" />
<glyph unicode="X" horiz-adv-x="1597" d="M20 0l527 721l-516 713h489l283 -398l274 398h482l-510 -699l534 -735h-489l-301 422l-291 -422h-482z" />
<glyph unicode="Y" horiz-adv-x="1492" d="M0 1434h477l281 -502l280 502h455l-539 -877v-557h-413v557z" />
<glyph unicode="Z" horiz-adv-x="1484" d="M33 27l708 1050h-635v357h1307l10 -27l-710 -1051h717l-109 -356h-1278z" />
<glyph unicode="[" horiz-adv-x="905" d="M152 -266v1782h667l35 -209h-344v-1364h344l-35 -209h-667z" />
<glyph unicode="\" horiz-adv-x="1019" d="M41 1516h276l719 -1782h-276z" />
<glyph unicode="]" horiz-adv-x="905" d="M51 -57h344v1364h-344l33 209h668v-1782h-668z" />
<glyph unicode="^" d="M43 686l451 776h241l451 -776h-355l-223 406l-219 -406h-346z" />
<glyph unicode="_" horiz-adv-x="1339" d="M-6 -143h1352v-219h-1352v219z" />
<glyph unicode="`" horiz-adv-x="1024" d="M-4 1606v4h444l178 -398h-186z" />
<glyph unicode="a" horiz-adv-x="1191" d="M59 266q0 172 164 257t492 87q-8 86 -57.5 128t-143.5 42q-82 0 -172 -31.5t-180 -91.5l-8 7l51 323q90 47 188.5 70.5t208.5 23.5q246 0 372 -123.5t126 -367.5v-563l-369 -39v143q-96 -78 -183 -113.5t-181 -35.5q-139 0 -223.5 77.5t-84.5 206.5zM401 311 q0 -41 30 -63.5t83 -22.5q41 0 90 12.5t113 38.5v177q-162 -12 -239 -46.5t-77 -95.5z" />
<glyph unicode="b" horiz-adv-x="1310" d="M115 -6v1466l387 90v-604q70 70 143.5 101.5t163.5 31.5q195 0 319.5 -146.5t124.5 -377.5q0 -250 -165.5 -409.5t-419.5 -159.5q-72 0 -145.5 14t-155.5 43l-226 -49h-26zM502 319q29 -10 61.5 -15t69.5 -5q111 0 180.5 66.5t69.5 175.5q0 102 -60.5 163.5t-160.5 61.5 q-39 0 -78 -9t-82 -28v-410z" />
<glyph unicode="c" horiz-adv-x="1054" d="M55 532q0 242 160 396.5t410 154.5q96 0 181 -23.5t163 -70.5v-356l-6 -2q-74 53 -152 81.5t-147 28.5q-104 0 -165 -57t-61 -156q0 -94 59.5 -151.5t157.5 -57.5q80 0 168 29t154 76l6 -4l-39 -352q-76 -45 -163 -68t-183 -23q-242 0 -392.5 152t-150.5 403z" />
<glyph unicode="d" horiz-adv-x="1320" d="M57 504q0 246 141.5 408.5t354.5 162.5q70 0 137.5 -23.5t128.5 -70.5v479l387 90v-1550h-375v147q-74 -88 -154.5 -127.5t-180.5 -39.5q-186 0 -312.5 149.5t-126.5 374.5zM428 526q0 -104 57.5 -166.5t153.5 -62.5q45 0 88 12.5t92 40.5v369q-47 23 -88 33t-82 10 q-98 0 -159.5 -66t-61.5 -170z" />
<glyph unicode="e" horiz-adv-x="1177" d="M55 535q0 236 156 395.5t391 159.5q242 0 380 -153t138 -407q0 -23 -2 -49t-4 -39h-694q27 -86 102.5 -132t190.5 -46q92 0 184 20.5t201 67.5l6 -4l-94 -293q-96 -41 -182.5 -58t-194.5 -17q-262 0 -420 151.5t-158 403.5zM422 639h348q-8 88 -53 139t-117 51t-120 -51 t-58 -139z" />
<glyph unicode="f" horiz-adv-x="929" d="M47 768v293h158v63q0 201 111.5 312.5t310.5 111.5q72 0 130 -9t128 -32l37 -282l-7 -4q-53 20 -94 29.5t-84 9.5q-74 0 -115.5 -38t-41.5 -104v-57h317v-293h-307v-768h-385v768h-158z" />
<glyph unicode="g" horiz-adv-x="1320" d="M57 551q0 236 160 379t414 143q76 0 154.5 -13t168.5 -42l226 49h26v-877q0 -274 -165.5 -429.5t-452.5 -155.5q-115 0 -218.5 22.5t-203.5 69.5l-57 326l8 6q133 -68 226 -93.5t198 -25.5q139 0 211.5 62.5t72.5 181.5v53q-74 -66 -151.5 -96.5t-169.5 -30.5 q-195 0 -321 132t-126 339zM428 557q0 -92 57.5 -145.5t151.5 -53.5q47 0 92 12.5t96 39.5v327q-43 16 -83 23.5t-85 7.5q-102 0 -165.5 -58.5t-63.5 -152.5z" />
<glyph unicode="h" horiz-adv-x="1306" d="M115 0v1460l387 90v-661q80 104 165 150t191 46q162 0 254 -106.5t92 -296.5v-682h-387v586q0 80 -36.5 122t-106.5 42q-45 0 -84 -13.5t-88 -44.5v-692h-387z" />
<glyph unicode="i" horiz-adv-x="630" d="M88 1391q0 90 64.5 149t162.5 59q96 0 161 -59t65 -149t-64.5 -150.5t-161.5 -60.5q-96 0 -161.5 60t-65.5 151zM121 0v1061h387v-1061h-387z" />
<glyph unicode="j" horiz-adv-x="630" d="M-129 -115q20 -6 40.5 -9t43.5 -3q82 0 125 42t43 124v1022h389v-1000q0 -219 -113.5 -334.5t-324.5 -115.5q-41 0 -77 4t-63 10zM92 1391q0 90 64.5 149t160.5 59t161 -59t65 -149t-64.5 -150.5t-161.5 -60.5q-96 0 -160.5 60t-64.5 151z" />
<glyph unicode="k" horiz-adv-x="1253" d="M115 0v1460l387 90v-899h37l268 410h428v-4l-354 -504l379 -549v-4h-453l-266 418h-39v-418h-387z" />
<glyph unicode="l" horiz-adv-x="630" d="M121 0v1460l387 90v-1550h-387z" />
<glyph unicode="m" horiz-adv-x="1964" d="M115 0v1034l374 39v-184q78 102 162 149t191 47q111 0 189.5 -52t115.5 -150q84 106 171 154t195 48q162 0 255.5 -107.5t93.5 -295.5v-682h-387v586q0 80 -36 122t-104 42q-39 0 -74.5 -11.5t-78.5 -36.5v-702h-387v586q0 80 -36 122t-104 42q-39 0 -74.5 -11.5 t-78.5 -36.5v-702h-387z" />
<glyph unicode="n" horiz-adv-x="1306" d="M115 0v1034l374 39v-201q84 113 171.5 163t197.5 50q162 0 254 -106.5t92 -296.5v-682h-387v586q0 80 -36.5 122t-106.5 42q-45 0 -84 -13.5t-88 -44.5v-692h-387z" />
<glyph unicode="o" horiz-adv-x="1273" d="M55 530q0 233 165 396.5t417 163.5q254 0 419 -161t165 -397t-166 -398.5t-418 -162.5q-254 0 -418 162t-164 397zM424 530q0 -100 60.5 -165.5t152.5 -65.5t152.5 66.5t60.5 166.5t-60.5 166t-152.5 66t-152.5 -66.5t-60.5 -167.5z" />
<glyph unicode="p" horiz-adv-x="1320" d="M115 -383v1417l374 39v-162q74 88 155 129t181 41q186 0 312.5 -149.5t126.5 -374.5q0 -246 -141.5 -408.5t-354.5 -162.5q-72 0 -138.5 24.5t-127.5 71.5v-465h-387zM502 342q47 -23 88 -33t82 -10q98 0 159.5 65.5t61.5 170.5q0 106 -57.5 167.5t-153.5 61.5 q-45 0 -88 -12.5t-92 -40.5v-369z" />
<glyph unicode="q" horiz-adv-x="1310" d="M57 506q0 250 167 409.5t421 159.5q72 0 145.5 -14t153.5 -43l225 49h27v-1450h-387v498q-70 -70 -143.5 -101.5t-163.5 -31.5q-193 0 -319 147t-126 377zM428 520q0 -102 60.5 -163.5t160.5 -61.5q39 0 78 9t82 28v409q-29 10 -61.5 15.5t-69.5 5.5q-111 0 -180.5 -66.5 t-69.5 -175.5z" />
<glyph unicode="r" horiz-adv-x="952" d="M115 0v1034l374 39v-282q100 156 177 221t163 65q16 0 30.5 -2t35.5 -6l23 -403q-18 4 -39 5t-50 1q-80 0 -158.5 -21.5t-168.5 -68.5v-582h-387z" />
<glyph unicode="s" horiz-adv-x="1048" d="M55 399l8 4q119 -76 242 -117.5t230 -41.5q51 0 78.5 15t27.5 42q0 31 -40 51.5t-159 53.5q-209 57 -290.5 136t-81.5 203q0 152 126 245t339 93q106 0 200 -21.5t189 -68.5v-299l-6 -2q-94 57 -199 92t-189 35q-51 0 -78.5 -13t-27.5 -40t32.5 -44t159.5 -50 q213 -59 296 -138t83 -212q0 -156 -129 -250.5t-346 -94.5q-115 0 -217 27t-205 82z" />
<glyph unicode="t" horiz-adv-x="991" d="M45 768v293h150v221l383 78v-299h342v-293h-342v-322q0 -72 38.5 -109.5t112.5 -37.5q45 0 90 16.5t103 55.5l6 -4l-54 -316q-61 -37 -136.5 -55.5t-159.5 -18.5q-193 0 -288 108t-95 323v360h-150z" />
<glyph unicode="u" horiz-adv-x="1306" d="M100 379v682h389v-586q0 -80 37 -121t107 -41q43 0 82 12.5t88 41.5v694h389v-1061h-375v188q-84 -113 -171 -163t-197 -50q-162 0 -255.5 107.5t-93.5 296.5z" />
<glyph unicode="v" horiz-adv-x="1314" d="M14 1061h422l223 -600l230 600h416l-492 -1084h-324z" />
<glyph unicode="w" horiz-adv-x="1824" d="M20 1061h406l164 -580l315 594h27l307 -590l170 576h397l-358 -1073h-322l-217 432l-221 -432h-321z" />
<glyph unicode="x" horiz-adv-x="1290" d="M20 0l379 545l-360 516h432l182 -281l181 281h415l-358 -522l381 -539h-430l-203 305l-201 -305h-418z" />
<glyph unicode="y" horiz-adv-x="1267" d="M14 1061h418l219 -592l195 592h409l-381 -998q-88 -233 -220.5 -342.5t-325.5 -109.5q-47 0 -92.5 7t-92.5 24l-73 344l4 4q41 -20 83 -30.5t89 -10.5q72 0 120 22.5t85 69.5z" />
<glyph unicode="z" horiz-adv-x="1153" d="M33 25l483 741h-412v295h990l8 -25l-484 -741h492l-78 -295h-991z" />
<glyph unicode="{" horiz-adv-x="1124" d="M51 561v127l193 39q90 18 126 45t36 76q0 20 -9.5 50t-42.5 99q-43 92 -57 142.5t-14 91.5q0 133 108.5 209t298.5 76h350l33 -209h-256q-74 0 -111.5 -28t-37.5 -81q0 -18 7 -45t34 -90q35 -86 46 -131t11 -82q0 -80 -55.5 -134t-180.5 -91q125 -37 180.5 -91.5 t55.5 -134.5q0 -37 -11.5 -82t-45.5 -131q-27 -63 -34 -89.5t-7 -45.5q0 -53 37.5 -80.5t111.5 -27.5h256l-33 -209h-350q-190 0 -298.5 75.5t-108.5 208.5q0 41 14 91.5t57 142.5q33 70 42.5 99.5t9.5 49.5q0 49 -36 76t-126 45z" />
<glyph unicode="|" horiz-adv-x="804" d="M272 -266v1782h260v-1782h-260z" />
<glyph unicode="}" horiz-adv-x="1124" d="M51 -57h256q74 0 112 27.5t38 80.5q0 18 -7.5 45t-33.5 90q-35 86 -46.5 131t-11.5 82q0 80 55.5 134.5t180.5 91.5q-125 37 -180.5 91t-55.5 134q0 37 11.5 82t46.5 131q27 63 34 90t7 45q0 53 -38 81t-112 28h-256l33 209h350q190 0 299 -76t109 -209q0 -41 -14.5 -91 t-57.5 -143q-33 -70 -42 -99.5t-9 -49.5q0 -49 36 -76t126 -45l192 -39v-127l-192 -39q-90 -18 -126 -44.5t-36 -76.5q0 -20 9 -49.5t42 -99.5q43 -92 57.5 -142.5t14.5 -91.5q0 -133 -108.5 -208.5t-299.5 -75.5h-350z" />
<glyph unicode="~" d="M55 530q111 281 177.5 371t154.5 90q39 0 97.5 -24.5t181.5 -100.5q86 -53 118.5 -68.5t51.5 -15.5q35 0 66.5 40t94.5 167l177 -86q-111 -281 -177.5 -371t-154.5 -90q-39 0 -97.5 25t-181.5 102q-86 53 -118.5 68.5t-51.5 15.5q-35 0 -66.5 -40t-95.5 -167z" />
<glyph unicode="&#xa1;" horiz-adv-x="622" d="M74 0v102l149 793h174l150 -793v-102h-473zM92 1237q0 90 63.5 153.5t153.5 63.5t153.5 -63.5t63.5 -153.5t-63.5 -153.5t-153.5 -63.5t-153.5 63.5t-63.5 153.5z" />
<glyph unicode="&#xa2;" horiz-adv-x="1069" d="M61 711q0 201 120 344t323 184l20 201h277l-23 -199q45 -8 87 -24.5t110 -51.5v-344h-4q-92 59 -153.5 80t-131.5 21q-109 0 -175.5 -57.5t-66.5 -151.5t64.5 -150.5t169.5 -56.5q84 0 155.5 24.5t147.5 79.5l4 -2l-37 -348q-66 -37 -132 -57.5t-142 -26.5l-19 -182h-274 l22 215q-160 57 -251 189t-91 313z" />
<glyph unicode="&#xa3;" horiz-adv-x="1247" d="M88 522v221l188 11q-74 113 -98 176t-24 135q0 170 148.5 280.5t391.5 110.5q121 0 228.5 -23.5t224.5 -78.5l31 -367h-7q-115 66 -217 98.5t-190 32.5q-80 0 -123 -33.5t-43 -95.5q0 -35 17.5 -72.5t78.5 -128.5l375 27v-223l-303 -14q-4 -57 -38.5 -119.5 t-100.5 -132.5l575 12l-90 -338h-1003l-17 207q174 158 212 214t44 124z" />
<glyph unicode="&#xa5;" horiz-adv-x="1427" d="M23 1434h475l225 -482l225 482h457l-373 -666h262v-207h-379v-96h379v-209h-379v-256h-403v256h-379v209h379v96h-379v207h262z" />
<glyph unicode="&#xa7;" horiz-adv-x="1466" d="M61 530q0 102 66 182.5t195 133.5q-45 49 -68 107.5t-23 127.5q0 168 139.5 272.5t368.5 104.5q129 0 244 -23.5t225 -74.5v-340h-4q-131 63 -241.5 94t-200.5 31q-61 0 -96 -22.5t-35 -59.5q0 -39 56 -68.5t204 -66.5q279 -74 396.5 -167t117.5 -229q0 -104 -65.5 -184 t-194.5 -133q45 -49 67.5 -106t22.5 -127q0 -168 -139.5 -272.5t-368.5 -104.5q-127 0 -236.5 22.5t-228.5 75.5l-45 358l4 5q139 -72 264 -111t220 -39q61 0 96 22.5t35 59.5q0 39 -54.5 67.5t-206.5 69.5q-281 76 -397.5 168t-116.5 227zM428 594q0 -59 68.5 -99 t273.5 -96q53 -14 95 -28.5t77 -28.5q49 27 72.5 57.5t23.5 69.5q0 59 -70.5 99t-271.5 96q-49 14 -92 27.5t-80 27.5q-49 -27 -72.5 -56.5t-23.5 -68.5z" />
<glyph unicode="&#xa8;" horiz-adv-x="1024" d="M66 1393q0 84 57 139t143 55t143.5 -55t57.5 -139q0 -82 -57.5 -137.5t-143.5 -55.5t-143 55.5t-57 137.5zM557 1393q0 84 57.5 139t143.5 55t143 -55t57 -139q0 -82 -57 -137.5t-143 -55.5t-143.5 55.5t-57.5 137.5z" />
<glyph unicode="&#xa9;" horiz-adv-x="1822" d="M86 715q0 164 63.5 313.5t180.5 263.5q117 113 268.5 174.5t314.5 61.5q166 0 315.5 -60.5t266.5 -173.5t179.5 -262t62.5 -313t-63.5 -313.5t-180.5 -264.5q-117 -113 -268.5 -174t-315.5 -61q-166 0 -315 60t-266 173t-179.5 262.5t-62.5 313.5zM154 719 q0 -313 222 -530.5t537 -217.5t535.5 216t220.5 528q0 313 -222.5 530t-537.5 217t-535 -216t-220 -527zM434 713q0 215 147.5 350t385.5 135q90 0 170 -24.5t151 -75.5v-273h-4q-74 61 -149.5 93t-147.5 32q-113 0 -183.5 -65.5t-70.5 -167.5q0 -106 70.5 -172t183.5 -66 q82 0 162 28t151 83l3 -4l-33 -267q-72 -43 -151 -64.5t-165 -21.5q-229 0 -374.5 133.5t-145.5 346.5z" />
<glyph unicode="&#xaa;" horiz-adv-x="1071" d="M115 369v198h809v-198h-809zM117 883q0 125 117.5 181t367.5 58q-8 59 -42 88t-99 29q-57 0 -125 -19.5t-137 -58.5l-6 2l36 230q74 33 148 48t155 15q182 0 274.5 -88t92.5 -260v-412h-285v90q-70 -53 -136 -77.5t-134 -24.5q-100 0 -163.5 55.5t-63.5 143.5zM377 922 q0 -31 22.5 -47.5t67.5 -16.5q29 0 63.5 8t73.5 23v123q-115 -4 -171 -26.5t-56 -63.5z" />
<glyph unicode="&#xab;" horiz-adv-x="1423" d="M47 498v65l576 520l125 -84l-271 -467l271 -471l-125 -84zM657 498v65l576 520l125 -84l-271 -467l271 -471l-125 -84z" />
<glyph unicode="&#xad;" horiz-adv-x="829" d="M90 403v340h649v-340h-649z" />
<glyph unicode="&#xae;" horiz-adv-x="1171" d="M78 983q0 209 148.5 354.5t359.5 145.5q213 0 360.5 -143.5t147.5 -352.5t-148.5 -354.5t-359.5 -145.5q-213 0 -360.5 143.5t-147.5 352.5zM135 985q0 -190 130 -317t323 -127q188 0 317 128t129 316q0 190 -129 317.5t-321 127.5q-190 0 -319.5 -128t-129.5 -317z M350 713v573h234q127 0 195.5 -50t68.5 -142q0 -55 -26.5 -98.5t-78.5 -69.5l162 -213h-213l-131 180h-26v-180h-185zM532 1008h39q41 0 64.5 19.5t23.5 51.5q0 35 -22.5 54.5t-63.5 19.5h-41v-145z" />
<glyph unicode="&#xaf;" horiz-adv-x="1024" d="M100 1249v232h824v-232h-824z" />
<glyph unicode="&#xb0;" horiz-adv-x="1099" d="M61 1008q0 199 139.5 326.5t350.5 127.5q209 0 348 -128t139 -324q0 -199 -138 -326t-351 -127q-211 0 -349.5 127t-138.5 324zM360 1012q0 -90 54.5 -149.5t138.5 -59.5q80 0 131 58.5t51 150.5t-52 151.5t-134 59.5t-135.5 -60.5t-53.5 -150.5z" />
<glyph unicode="&#xb1;" d="M90 0v268h1049v-268h-1049zM100 778v305h353v351h323v-351h352v-305h-352v-350h-323v350h-353z" />
<glyph unicode="&#xb4;" horiz-adv-x="1024" d="M406 1212l178 398h444v-4l-436 -394h-186z" />
<glyph unicode="&#xb5;" horiz-adv-x="1320" d="M115 -383v1444h387v-592q0 -80 36.5 -122t108.5 -42q43 0 82 12.5t88 40.5v703h387v-1061h-264l-55 133q-55 -72 -111.5 -105.5t-120.5 -33.5q-63 0 -115.5 26.5t-105.5 85.5l41 -403v-86h-358z" />
<glyph unicode="&#xb6;" horiz-adv-x="1540" d="M49 891q0 252 191.5 397.5t519.5 145.5h629v-1434h-306v1108h-143v-1108h-211v399h-72q-281 0 -444.5 131.5t-163.5 360.5zM403 854q0 -121 84 -189.5t230 -68.5h12v512q-152 0 -239 -67.5t-87 -186.5z" />
<glyph unicode="&#xb7;" horiz-adv-x="567" d="M59 573q0 94 65.5 160t160.5 66q94 0 158.5 -65.5t64.5 -160.5q0 -92 -64.5 -157.5t-158.5 -65.5t-160 65.5t-66 157.5z" />
<glyph unicode="&#xb8;" horiz-adv-x="1024" d="M188 -297l9 6q66 -16 115.5 -23.5t99.5 -7.5q57 0 87.5 15.5t30.5 46.5q0 29 -30.5 42t-93.5 13q-27 0 -53.5 -1t-63.5 -5l-8 8l155 219h203l-86 -110q127 -8 189.5 -49t62.5 -117q0 -88 -95.5 -144.5t-254.5 -56.5q-57 0 -109.5 6t-103.5 21z" />
<glyph unicode="&#xba;" horiz-adv-x="1058" d="M82 1073q0 166 128 275.5t320 109.5q195 0 321 -108.5t126 -274.5q0 -168 -126 -275.5t-325 -107.5q-195 0 -319.5 107.5t-124.5 273.5zM123 369v198h811v-198h-811zM362 1075q0 -76 46.5 -123t121.5 -47q74 0 119 48t45 122q0 78 -44 124t-120 46q-78 0 -123 -46 t-45 -124z" />
<glyph unicode="&#xbb;" horiz-adv-x="1423" d="M63 59l273 467l-273 471l127 84l576 -520v-63l-576 -523zM674 59l272 467l-272 471l127 84l575 -520v-63l-575 -523z" />
<glyph unicode="&#xbc;" horiz-adv-x="1765" d="M49 956v262l457 238l16 -8v-879h-270v496zM279 -4l520 752l451 690h176l-520 -752l-451 -690h-176zM921 221l365 649h326v-532h131v-182h-131v-156h-256v156h-426zM1198 338h162v324z" />
<glyph unicode="&#xbd;" horiz-adv-x="1820" d="M49 956v262l457 238l16 -8v-879h-270v496zM279 -4l520 752l451 690h176l-520 -752l-451 -690h-176zM1089 141l295 303q43 45 60.5 76t17.5 60q0 33 -19.5 51t-54.5 18q-55 0 -119.5 -37t-146.5 -116h-2l-17 256q72 66 153 96.5t179 30.5q139 0 219 -71t80 -187 q0 -74 -32.5 -137.5t-112.5 -143.5l-121 -125l311 2l-67 -217h-607z" />
<glyph unicode="&#xbe;" horiz-adv-x="1828" d="M45 856l4 2q72 -45 146.5 -72t132.5 -27q47 0 73.5 17.5t26.5 50.5q0 41 -53 68.5t-203 68.5v74q156 61 200 87t44 60q0 27 -23.5 42.5t-64.5 15.5q-55 0 -121 -24.5t-139 -74.5h-2v216q66 41 145.5 63.5t165.5 22.5q141 0 226 -60.5t85 -161.5q0 -70 -43 -121t-129 -85 q90 -31 136 -84t46 -129q0 -113 -94 -181.5t-239 -68.5q-80 0 -151 17t-142 54zM342 -4l520 752l451 690h176l-520 -752l-451 -690h-176zM983 221l365 649h326v-532h131v-182h-131v-156h-256v156h-426zM1260 338h162v324z" />
<glyph unicode="&#xbf;" horiz-adv-x="1032" d="M53 342q0 117 51.5 190.5t210.5 155.5q92 49 125 78t33 61q0 16 -3 30.5t-13 35.5h205q57 -47 82.5 -91t25.5 -97q0 -66 -50 -118t-181 -114q-72 -33 -95.5 -53.5t-23.5 -48.5q0 -31 28.5 -48.5t81.5 -17.5q98 0 206 46t227 141l4 -3v-362q-113 -80 -223.5 -115 t-241.5 -35q-205 0 -327 99.5t-122 265.5zM352 1235q0 90 64.5 154.5t154.5 64.5t153.5 -64.5t63.5 -154.5q0 -88 -63 -152.5t-154 -64.5q-90 0 -154.5 64.5t-64.5 152.5z" />
<glyph unicode="&#xc0;" horiz-adv-x="1695" d="M18 0l605 1436h458l594 -1436h-440l-96 246h-596l-97 -246h-428zM326 1898v5h469l172 -344h-213zM657 567h369l-184 465z" />
<glyph unicode="&#xc1;" horiz-adv-x="1695" d="M18 0l605 1436h458l594 -1436h-440l-96 246h-596l-97 -246h-428zM657 567h369l-184 465zM733 1559l172 344h469v-5l-428 -339h-213z" />
<glyph unicode="&#xc2;" horiz-adv-x="1695" d="M18 0l605 1436h458l594 -1436h-440l-96 246h-596l-97 -246h-428zM399 1559v4l275 340h352l275 -340v-4h-222l-229 135l-231 -135h-220zM657 567h369l-184 465z" />
<glyph unicode="&#xc3;" horiz-adv-x="1695" d="M18 0l605 1436h458l594 -1436h-440l-96 246h-596l-97 -246h-428zM395 1651q113 156 177.5 210t144.5 54q29 0 66.5 -11.5t115.5 -48.5q61 -29 88 -38t45 -9q33 0 60.5 18.5t103.5 92.5l137 -111q-115 -156 -179 -209t-144 -53q-29 0 -66 11.5t-112 48.5q-63 29 -91 38 t-47 9q-33 0 -60.5 -18.5t-100.5 -92.5zM657 567h369l-184 465z" />
<glyph unicode="&#xc4;" horiz-adv-x="1695" d="M18 0l605 1436h458l594 -1436h-440l-96 246h-596l-97 -246h-428zM401 1743q0 84 58.5 139t144.5 55t143.5 -55t57.5 -139t-57.5 -139.5t-143.5 -55.5t-144.5 55.5t-58.5 139.5zM657 567h369l-184 465zM895 1743q0 84 57.5 139t143.5 55t144.5 -55t58.5 -139t-58.5 -139.5 t-144.5 -55.5t-143.5 55.5t-57.5 139.5z" />
<glyph unicode="&#xc5;" horiz-adv-x="1695" d="M18 0l578 1376q-20 31 -30.5 67t-10.5 73q0 117 86 197.5t209 80.5q125 0 210 -81t85 -197q0 -37 -10.5 -72t-28.5 -68l569 -1376h-440l-96 246h-596l-97 -246h-428zM657 567h369l-182 469zM692 1516q0 -63 46 -106.5t112 -43.5t112 43.5t46 106.5t-45 107t-113 44 t-113 -44t-45 -107z" />
<glyph unicode="&#xc6;" horiz-adv-x="2170" d="M-6 0l827 1434h1213l55 -347h-623v-219h514v-297h-514v-225h629l-55 -346h-981v246h-500l-143 -246h-422zM745 567h314v547z" />
<glyph unicode="&#xc7;" horiz-adv-x="1411" d="M72 715q0 317 214 529t537 212q137 0 258 -39t215 -114v-422h-6q-98 94 -206.5 145t-215.5 51q-162 0 -266 -101.5t-104 -256.5q0 -164 104.5 -264.5t269.5 -100.5q115 0 227.5 46t217.5 137l6 -5l-51 -419q-86 -57 -176 -89t-193 -42l-67 -86q127 -8 189 -49t62 -117 q0 -88 -95 -144.5t-255 -56.5q-57 0 -109.5 6t-103.5 21l-53 137l8 6q66 -16 116 -23.5t99 -7.5q57 0 88 15.5t31 46.5q0 29 -30.5 42t-94.5 13q-27 0 -53.5 -1t-63.5 -5l-8 8l139 197q-281 33 -455.5 234.5t-174.5 496.5z" />
<glyph unicode="&#xc8;" horiz-adv-x="1245" d="M125 1898v5h469l172 -344h-213zM133 0v1434h977l55 -347h-624v-219h514v-297h-514v-225h630l-55 -346h-983z" />
<glyph unicode="&#xc9;" horiz-adv-x="1245" d="M133 0v1434h977l55 -347h-624v-219h514v-297h-514v-225h630l-55 -346h-983zM532 1559l172 344h469v-5l-428 -339h-213z" />
<glyph unicode="&#xca;" horiz-adv-x="1245" d="M133 0v1434h977l55 -347h-624v-219h514v-297h-514v-225h630l-55 -346h-983zM198 1559v4l275 340h352l275 -340v-4h-222l-229 135l-231 -135h-220z" />
<glyph unicode="&#xcb;" horiz-adv-x="1245" d="M133 0v1434h977l55 -347h-624v-219h514v-297h-514v-225h630l-55 -346h-983zM200 1743q0 84 58.5 139t144.5 55t143.5 -55t57.5 -139t-57.5 -139.5t-143.5 -55.5t-144.5 55.5t-58.5 139.5zM694 1743q0 84 57.5 139t143.5 55t144.5 -55t58.5 -139t-58.5 -139.5 t-144.5 -55.5t-143.5 55.5t-57.5 139.5z" />
<glyph unicode="&#xcc;" horiz-adv-x="694" d="M-178 1898v5h469l172 -344h-213zM139 0v1434h414v-1434h-414z" />
<glyph unicode="&#xcd;" horiz-adv-x="694" d="M139 0v1434h414v-1434h-414zM229 1559l172 344h469v-5l-428 -339h-213z" />
<glyph unicode="&#xce;" horiz-adv-x="694" d="M-105 1559v4l275 340h352l275 -340v-4h-222l-229 135l-231 -135h-220zM139 0v1434h414v-1434h-414z" />
<glyph unicode="&#xcf;" horiz-adv-x="694" d="M-103 1743q0 84 58.5 139t144.5 55t143.5 -55t57.5 -139t-57.5 -139.5t-143.5 -55.5t-144.5 55.5t-58.5 139.5zM139 0v1434h414v-1434h-414zM391 1743q0 84 57.5 139t143.5 55t144.5 -55t58.5 -139t-58.5 -139.5t-144.5 -55.5t-143.5 55.5t-57.5 139.5z" />
<glyph unicode="&#xd0;" horiz-adv-x="1642" d="M33 582v282h155v570h545q399 0 618.5 -188.5t219.5 -526.5q0 -332 -224.5 -525.5t-613.5 -193.5h-545v582h-155zM598 356h133q195 0 306.5 95.5t111.5 263.5q0 174 -109.5 268t-310.5 94h-131v-227h254v-256h-254v-238z" />
<glyph unicode="&#xd1;" horiz-adv-x="1683" d="M133 0v1434h406l604 -693l-4 693h411v-1438h-307l-704 805l6 -801h-412zM387 1651q113 156 177.5 210t144.5 54q29 0 66.5 -11.5t115.5 -48.5q61 -29 88 -38t45 -9q33 0 60.5 18.5t103.5 92.5l137 -111q-115 -156 -179 -209t-144 -53q-29 0 -66 11.5t-112 48.5 q-63 29 -91 38t-47 9q-33 0 -60.5 -18.5t-100.5 -92.5z" />
<glyph unicode="&#xd2;" horiz-adv-x="1687" d="M72 715q0 317 221 532t553 215q330 0 550 -214t220 -529q0 -319 -221 -533.5t-553 -214.5t-551 213t-219 531zM320 1908v5h469l172 -344h-213zM494 719q0 -160 99 -267.5t251 -107.5q150 0 250 106.5t100 264.5q0 160 -101 267.5t-253 107.5q-150 0 -248 -106.5 t-98 -264.5z" />
<glyph unicode="&#xd3;" horiz-adv-x="1687" d="M72 715q0 317 221 532t553 215q330 0 550 -214t220 -529q0 -319 -221 -533.5t-553 -214.5t-551 213t-219 531zM494 719q0 -160 99 -267.5t251 -107.5q150 0 250 106.5t100 264.5q0 160 -101 267.5t-253 107.5q-150 0 -248 -106.5t-98 -264.5zM727 1569l172 344h469v-5 l-428 -339h-213z" />
<glyph unicode="&#xd4;" horiz-adv-x="1687" d="M72 715q0 317 221 532t553 215q330 0 550 -214t220 -529q0 -319 -221 -533.5t-553 -214.5t-551 213t-219 531zM393 1569v4l275 340h352l275 -340v-4h-222l-229 135l-231 -135h-220zM494 719q0 -160 99 -267.5t251 -107.5q150 0 250 106.5t100 264.5q0 160 -101 267.5 t-253 107.5q-150 0 -248 -106.5t-98 -264.5z" />
<glyph unicode="&#xd5;" horiz-adv-x="1687" d="M72 715q0 317 221 532t553 215q330 0 550 -214t220 -529q0 -319 -221 -533.5t-553 -214.5t-551 213t-219 531zM389 1661q113 156 177.5 210t144.5 54q29 0 66.5 -11.5t115.5 -48.5q61 -29 88 -38t45 -9q33 0 60.5 18.5t103.5 92.5l137 -111q-115 -156 -179 -209t-144 -53 q-29 0 -66 11.5t-112 48.5q-63 29 -91 38t-47 9q-33 0 -60.5 -18.5t-100.5 -92.5zM494 719q0 -160 99 -267.5t251 -107.5q150 0 250 106.5t100 264.5q0 160 -101 267.5t-253 107.5q-150 0 -248 -106.5t-98 -264.5z" />
<glyph unicode="&#xd6;" horiz-adv-x="1687" d="M72 715q0 317 221 532t553 215q330 0 550 -214t220 -529q0 -319 -221 -533.5t-553 -214.5t-551 213t-219 531zM395 1753q0 84 58.5 139t144.5 55t143.5 -55t57.5 -139t-57.5 -139.5t-143.5 -55.5t-144.5 55.5t-58.5 139.5zM494 719q0 -160 99 -267.5t251 -107.5 q150 0 250 106.5t100 264.5q0 160 -101 267.5t-253 107.5q-150 0 -248 -106.5t-98 -264.5zM889 1753q0 84 57.5 139t143.5 55t144.5 -55t58.5 -139t-58.5 -139.5t-144.5 -55.5t-143.5 55.5t-57.5 139.5z" />
<glyph unicode="&#xd7;" d="M80 403l311 312l-311 311l231 229l305 -313l308 313l225 -225l-313 -309l313 -311l-231 -232l-306 316l-307 -316z" />
<glyph unicode="&#xd8;" horiz-adv-x="1687" d="M31 -88l237 295q-96 102 -146 232t-50 276q0 317 221 532t553 215q102 0 197.5 -22.5t179.5 -67.5l125 150h309l-240 -297q96 -102 147.5 -232.5t51.5 -273.5q0 -319 -221 -533.5t-553 -214.5q-102 0 -197.5 22.5t-181.5 67.5l-123 -149h-309zM479 711q0 -55 12.5 -106.5 t36.5 -96.5l453 573q-33 10 -65.5 16.5t-67.5 6.5q-160 0 -264.5 -111.5t-104.5 -281.5zM707 352q31 -10 64.5 -16t68.5 -6q160 0 264 111.5t104 281.5q0 55 -12 106.5t-37 96.5z" />
<glyph unicode="&#xd9;" horiz-adv-x="1607" d="M121 659v775h414v-783q0 -145 71.5 -225t200.5 -80q131 0 201.5 80t70.5 227v781h408v-775q0 -330 -177 -506t-507 -176t-506 176.5t-176 505.5zM279 1898v5h469l172 -344h-213z" />
<glyph unicode="&#xda;" horiz-adv-x="1607" d="M121 659v775h414v-783q0 -145 71.5 -225t200.5 -80q131 0 201.5 80t70.5 227v781h408v-775q0 -330 -177 -506t-507 -176t-506 176.5t-176 505.5zM686 1559l172 344h469v-5l-428 -339h-213z" />
<glyph unicode="&#xdb;" horiz-adv-x="1607" d="M121 659v775h414v-783q0 -145 71.5 -225t200.5 -80q131 0 201.5 80t70.5 227v781h408v-775q0 -330 -177 -506t-507 -176t-506 176.5t-176 505.5zM352 1559v4l275 340h352l275 -340v-4h-222l-229 135l-231 -135h-220z" />
<glyph unicode="&#xdc;" horiz-adv-x="1607" d="M121 659v775h414v-783q0 -145 71.5 -225t200.5 -80q131 0 201.5 80t70.5 227v781h408v-775q0 -330 -177 -506t-507 -176t-506 176.5t-176 505.5zM354 1743q0 84 58.5 139t144.5 55t143.5 -55t57.5 -139t-57.5 -139.5t-143.5 -55.5t-144.5 55.5t-58.5 139.5zM848 1743 q0 84 57.5 139t143.5 55t144.5 -55t58.5 -139t-58.5 -139.5t-144.5 -55.5t-143.5 55.5t-57.5 139.5z" />
<glyph unicode="&#xdd;" horiz-adv-x="1492" d="M0 1434h477l281 -502l280 502h455l-539 -877v-557h-413v557zM631 1559l172 344h469v-5l-428 -339h-213z" />
<glyph unicode="&#xde;" horiz-adv-x="1339" d="M133 0v1434h414v-213h147q274 0 431 -130.5t157 -359.5t-162 -363.5t-436 -134.5h-137v-233h-414zM541 547h112q109 0 168.5 48t59.5 134q0 84 -57.5 130t-164.5 46h-118v-358z" />
<glyph unicode="&#xdf;" horiz-adv-x="1490" d="M47 768v293h158q10 231 155.5 359t405.5 128q231 0 372.5 -111.5t141.5 -291.5q0 -102 -43 -184t-137 -154q178 -78 252.5 -177.5t74.5 -246.5q0 -178 -125.5 -288.5t-330.5 -110.5q-70 0 -125 8t-113 28l-39 314l6 4q55 -29 102.5 -42t94.5 -13q63 0 103 36.5t40 98.5 q0 84 -75.5 148.5t-239.5 117.5l-23 84q106 88 153.5 164t47.5 151q0 72 -40 114t-109 42q-76 0 -120 -53t-44 -139v-1047h-385v768h-158z" />
<glyph unicode="&#xe0;" horiz-adv-x="1191" d="M59 266q0 172 164 257t492 87q-8 86 -57.5 128t-143.5 42q-82 0 -172 -31.5t-180 -91.5l-8 7l51 323q90 47 188.5 70.5t208.5 23.5q246 0 372 -123.5t126 -367.5v-563l-369 -39v143q-96 -78 -183 -113.5t-181 -35.5q-139 0 -223.5 77.5t-84.5 206.5zM113 1606v4h444 l178 -398h-186zM401 311q0 -41 30 -63.5t83 -22.5q41 0 90 12.5t113 38.5v177q-162 -12 -239 -46.5t-77 -95.5z" />
<glyph unicode="&#xe1;" horiz-adv-x="1191" d="M59 266q0 172 164 257t492 87q-8 86 -57.5 128t-143.5 42q-82 0 -172 -31.5t-180 -91.5l-8 7l51 323q90 47 188.5 70.5t208.5 23.5q246 0 372 -123.5t126 -367.5v-563l-369 -39v143q-96 -78 -183 -113.5t-181 -35.5q-139 0 -223.5 77.5t-84.5 206.5zM401 311 q0 -41 30 -63.5t83 -22.5q41 0 90 12.5t113 38.5v177q-162 -12 -239 -46.5t-77 -95.5zM523 1212l178 398h444v-4l-436 -394h-186z" />
<glyph unicode="&#xe2;" horiz-adv-x="1191" d="M59 266q0 172 164 257t492 87q-8 86 -57.5 128t-143.5 42q-82 0 -172 -31.5t-180 -91.5l-8 7l51 323q90 47 188.5 70.5t208.5 23.5q246 0 372 -123.5t126 -367.5v-563l-369 -39v143q-96 -78 -183 -113.5t-181 -35.5q-139 0 -223.5 77.5t-84.5 206.5zM193 1212v5l274 393 h324l274 -393v-5h-200l-236 162l-238 -162h-198zM401 311q0 -41 30 -63.5t83 -22.5q41 0 90 12.5t113 38.5v177q-162 -12 -239 -46.5t-77 -95.5z" />
<glyph unicode="&#xe3;" horiz-adv-x="1191" d="M59 266q0 172 164 257t492 87q-8 86 -57.5 128t-143.5 42q-82 0 -172 -31.5t-180 -91.5l-8 7l51 323q90 47 188.5 70.5t208.5 23.5q246 0 372 -123.5t126 -367.5v-563l-369 -39v143q-96 -78 -183 -113.5t-181 -35.5q-139 0 -223.5 77.5t-84.5 206.5zM170 1292 q98 176 160.5 240.5t142.5 64.5q25 0 60.5 -13t111.5 -54q68 -37 95.5 -47t44.5 -10q25 0 48 18t101 111l154 -101q-98 -176 -160.5 -239.5t-142.5 -63.5q-25 0 -61 13.5t-111 54.5q-68 35 -95.5 45t-44.5 10q-25 0 -48 -17.5t-101 -109.5zM401 311q0 -41 30 -63.5t83 -22.5 q41 0 90 12.5t113 38.5v177q-162 -12 -239 -46.5t-77 -95.5z" />
<glyph unicode="&#xe4;" horiz-adv-x="1191" d="M59 266q0 172 164 257t492 87q-8 86 -57.5 128t-143.5 42q-82 0 -172 -31.5t-180 -91.5l-8 7l51 323q90 47 188.5 70.5t208.5 23.5q246 0 372 -123.5t126 -367.5v-563l-369 -39v143q-96 -78 -183 -113.5t-181 -35.5q-139 0 -223.5 77.5t-84.5 206.5zM183 1393 q0 84 57 139t143 55t143.5 -55t57.5 -139q0 -82 -57.5 -137.5t-143.5 -55.5t-143 55.5t-57 137.5zM401 311q0 -41 30 -63.5t83 -22.5q41 0 90 12.5t113 38.5v177q-162 -12 -239 -46.5t-77 -95.5zM674 1393q0 84 57.5 139t143.5 55t143 -55t57 -139q0 -82 -57 -137.5 t-143 -55.5t-143.5 55.5t-57.5 137.5z" />
<glyph unicode="&#xe5;" horiz-adv-x="1191" d="M59 266q0 172 164 257t492 87q-8 86 -57.5 128t-143.5 42q-82 0 -172 -31.5t-180 -91.5l-8 7l51 323q90 47 188.5 70.5t208.5 23.5q246 0 372 -123.5t126 -367.5v-563l-369 -39v143q-96 -78 -183 -113.5t-181 -35.5q-139 0 -223.5 77.5t-84.5 206.5zM348 1468 q0 115 82 196t199 81t199 -81t82 -196q0 -117 -82 -197.5t-199 -80.5t-199 81t-82 197zM401 311q0 -41 30 -63.5t83 -22.5q41 0 90 12.5t113 38.5v177q-162 -12 -239 -46.5t-77 -95.5zM486 1468q0 -63 41 -107t102 -44t102 44t41 107t-41 106.5t-102 43.5t-102 -43t-41 -107 z" />
<glyph unicode="&#xe6;" horiz-adv-x="1843" d="M59 266q0 170 163 256t493 88q-8 86 -57.5 128t-143.5 42q-82 0 -172 -31.5t-180 -91.5l-8 7l51 323q90 47 186 70.5t203 23.5q109 0 193.5 -29.5t144.5 -86.5q70 61 159 93t187 32q238 0 373 -152t135 -408q0 -12 -2 -36.5t-4 -51.5h-707q29 -86 108 -132t195 -46 q92 0 184.5 20.5t200.5 67.5l6 -4l-92 -293q-96 -41 -182 -58t-197 -17q-137 0 -250.5 46t-191.5 132q-127 -90 -242.5 -133t-238.5 -43q-143 0 -228.5 76.5t-85.5 207.5zM401 311q0 -41 30 -63.5t83 -22.5q51 0 112.5 20.5t135.5 63.5q-12 37 -21.5 73t-13.5 71 q-166 -10 -246 -44.5t-80 -97.5zM1085 639h349q-8 90 -52 140t-116 50t-121 -51t-60 -139z" />
<glyph unicode="&#xe7;" horiz-adv-x="1054" d="M55 532q0 242 160 396.5t410 154.5q96 0 181 -23.5t163 -70.5v-356l-6 -2q-74 53 -152 81.5t-147 28.5q-104 0 -165 -57t-61 -156q0 -94 59.5 -151.5t157.5 -57.5q80 0 168 29t154 76l6 -4l-39 -352q-57 -33 -122.5 -55.5t-135.5 -30.5l-68 -86q127 -8 189.5 -49 t62.5 -117q0 -88 -95 -144.5t-255 -56.5q-57 0 -109.5 6t-103.5 21l-53 137l8 6q66 -16 116 -23.5t99 -7.5q57 0 88 15.5t31 46.5q0 29 -30.5 42t-94.5 13q-27 0 -53.5 -1t-63.5 -5l-8 8l141 201q-199 35 -315.5 180t-116.5 364z" />
<glyph unicode="&#xe8;" horiz-adv-x="1177" d="M55 535q0 236 156 395.5t391 159.5q242 0 380 -153t138 -407q0 -23 -2 -49t-4 -39h-694q27 -86 102.5 -132t190.5 -46q92 0 184 20.5t201 67.5l6 -4l-94 -293q-96 -41 -182.5 -58t-194.5 -17q-262 0 -420 151.5t-158 403.5zM98 1616v4h444l178 -398h-186zM422 639h348 q-8 88 -53 139t-117 51t-120 -51t-58 -139z" />
<glyph unicode="&#xe9;" horiz-adv-x="1177" d="M55 535q0 236 156 395.5t391 159.5q242 0 380 -153t138 -407q0 -23 -2 -49t-4 -39h-694q27 -86 102.5 -132t190.5 -46q92 0 184 20.5t201 67.5l6 -4l-94 -293q-96 -41 -182.5 -58t-194.5 -17q-262 0 -420 151.5t-158 403.5zM422 639h348q-8 88 -53 139t-117 51t-120 -51 t-58 -139zM508 1222l178 398h444v-4l-436 -394h-186z" />
<glyph unicode="&#xea;" horiz-adv-x="1177" d="M55 535q0 236 156 395.5t391 159.5q242 0 380 -153t138 -407q0 -23 -2 -49t-4 -39h-694q27 -86 102.5 -132t190.5 -46q92 0 184 20.5t201 67.5l6 -4l-94 -293q-96 -41 -182.5 -58t-194.5 -17q-262 0 -420 151.5t-158 403.5zM178 1222v5l274 393h324l274 -393v-5h-200 l-236 162l-238 -162h-198zM422 639h348q-8 88 -53 139t-117 51t-120 -51t-58 -139z" />
<glyph unicode="&#xeb;" horiz-adv-x="1177" d="M55 535q0 236 156 395.5t391 159.5q242 0 380 -153t138 -407q0 -23 -2 -49t-4 -39h-694q27 -86 102.5 -132t190.5 -46q92 0 184 20.5t201 67.5l6 -4l-94 -293q-96 -41 -182.5 -58t-194.5 -17q-262 0 -420 151.5t-158 403.5zM168 1403q0 84 57 139t143 55t143.5 -55 t57.5 -139q0 -82 -57.5 -137.5t-143.5 -55.5t-143 55.5t-57 137.5zM422 639h348q-8 88 -53 139t-117 51t-120 -51t-58 -139zM659 1403q0 84 57.5 139t143.5 55t143 -55t57 -139q0 -82 -57 -137.5t-143 -55.5t-143.5 55.5t-57.5 137.5z" />
<glyph unicode="&#xec;" horiz-adv-x="630" d="M-201 1606v4h444l178 -398h-186zM121 0v1061h387v-1061h-387z" />
<glyph unicode="&#xed;" horiz-adv-x="630" d="M121 0v1061h387v-1061h-387zM209 1212l178 398h444v-4l-436 -394h-186z" />
<glyph unicode="&#xee;" horiz-adv-x="630" d="M-121 1212v5l274 393h324l274 -393v-5h-200l-236 162l-238 -162h-198zM121 0v1061h387v-1061h-387z" />
<glyph unicode="&#xef;" horiz-adv-x="630" d="M-131 1393q0 84 57 139t143 55t143.5 -55t57.5 -139q0 -82 -57.5 -137.5t-143.5 -55.5t-143 55.5t-57 137.5zM121 0v1061h387v-1061h-387zM360 1393q0 84 57.5 139t143.5 55t143 -55t57 -139q0 -82 -57 -137.5t-143 -55.5t-143.5 55.5t-57.5 137.5z" />
<glyph unicode="&#xf0;" horiz-adv-x="1265" d="M66 496q0 211 140 351t347 140q68 0 127 -14.5t117 -42.5q-35 59 -88.5 117.5t-128.5 119.5l-158 -110l-100 121l129 88q-41 29 -82 56.5t-82 55.5l252 172q45 -29 85 -56.5t76 -55.5l156 112l100 -120l-133 -93q188 -168 279.5 -352t91.5 -401q0 -143 -41 -256 t-123 -195t-186.5 -122t-233.5 -40q-236 0 -390 151.5t-154 373.5zM434 500q0 -88 54.5 -144.5t138.5 -56.5q86 0 141 57.5t55 145.5t-54 144t-140 56t-140.5 -56t-54.5 -146z" />
<glyph unicode="&#xf1;" horiz-adv-x="1306" d="M115 0v1034l374 39v-201q84 113 171.5 163t197.5 50q162 0 254 -106.5t92 -296.5v-682h-387v586q0 80 -36.5 122t-106.5 42q-45 0 -84 -13.5t-88 -44.5v-692h-387zM203 1292q98 176 160.5 240.5t142.5 64.5q25 0 60.5 -13t111.5 -54q68 -37 95.5 -47t44.5 -10q25 0 48 18 t101 111l154 -101q-98 -176 -160.5 -239.5t-142.5 -63.5q-25 0 -61 13.5t-111 54.5q-68 35 -95.5 45t-44.5 10q-25 0 -48 -17.5t-101 -109.5z" />
<glyph unicode="&#xf2;" horiz-adv-x="1273" d="M55 530q0 233 165 396.5t417 163.5q254 0 419 -161t165 -397t-166 -398.5t-418 -162.5q-254 0 -418 162t-164 397zM121 1616v4h444l178 -398h-186zM424 530q0 -100 60.5 -165.5t152.5 -65.5t152.5 66.5t60.5 166.5t-60.5 166t-152.5 66t-152.5 -66.5t-60.5 -167.5z" />
<glyph unicode="&#xf3;" horiz-adv-x="1273" d="M55 530q0 233 165 396.5t417 163.5q254 0 419 -161t165 -397t-166 -398.5t-418 -162.5q-254 0 -418 162t-164 397zM424 530q0 -100 60.5 -165.5t152.5 -65.5t152.5 66.5t60.5 166.5t-60.5 166t-152.5 66t-152.5 -66.5t-60.5 -167.5zM531 1222l178 398h444v-4l-436 -394 h-186z" />
<glyph unicode="&#xf4;" horiz-adv-x="1273" d="M55 530q0 233 165 396.5t417 163.5q254 0 419 -161t165 -397t-166 -398.5t-418 -162.5q-254 0 -418 162t-164 397zM201 1222v5l274 393h324l274 -393v-5h-200l-236 162l-238 -162h-198zM424 530q0 -100 60.5 -165.5t152.5 -65.5t152.5 66.5t60.5 166.5t-60.5 166 t-152.5 66t-152.5 -66.5t-60.5 -167.5z" />
<glyph unicode="&#xf5;" horiz-adv-x="1273" d="M55 530q0 233 165 396.5t417 163.5q254 0 419 -161t165 -397t-166 -398.5t-418 -162.5q-254 0 -418 162t-164 397zM178 1302q98 176 160.5 240.5t142.5 64.5q25 0 60.5 -13t111.5 -54q68 -37 95.5 -47t44.5 -10q25 0 48 18t101 111l154 -101q-98 -176 -160.5 -239.5 t-142.5 -63.5q-25 0 -61 13.5t-111 54.5q-68 35 -95.5 45t-44.5 10q-25 0 -48 -17.5t-101 -109.5zM424 530q0 -100 60.5 -165.5t152.5 -65.5t152.5 66.5t60.5 166.5t-60.5 166t-152.5 66t-152.5 -66.5t-60.5 -167.5z" />
<glyph unicode="&#xf6;" horiz-adv-x="1273" d="M55 530q0 233 165 396.5t417 163.5q254 0 419 -161t165 -397t-166 -398.5t-418 -162.5q-254 0 -418 162t-164 397zM191 1403q0 84 57 139t143 55t143.5 -55t57.5 -139q0 -82 -57.5 -137.5t-143.5 -55.5t-143 55.5t-57 137.5zM424 530q0 -100 60.5 -165.5t152.5 -65.5 t152.5 66.5t60.5 166.5t-60.5 166t-152.5 66t-152.5 -66.5t-60.5 -167.5zM682 1403q0 84 57.5 139t143.5 55t143 -55t57 -139q0 -82 -57 -137.5t-143 -55.5t-143.5 55.5t-57.5 137.5z" />
<glyph unicode="&#xf7;" d="M72 569v295l542 -16l543 16v-295l-543 17zM416 276q0 80 59.5 139.5t138.5 59.5q82 0 140.5 -58.5t58.5 -140.5t-57.5 -140t-141.5 -58q-82 0 -140 58.5t-58 139.5zM416 1157q0 80 59.5 139.5t138.5 59.5q82 0 140.5 -58.5t58.5 -140.5t-57.5 -140.5t-141.5 -58.5 q-82 0 -140 58.5t-58 140.5z" />
<glyph unicode="&#xf8;" horiz-adv-x="1273" d="M16 -74l185 228q-70 76 -108 174t-38 202q0 233 165 396.5t417 163.5q78 0 148.5 -16.5t132.5 -47.5l86 109h256l-185 -226q70 -76 108 -174.5t38 -202.5q0 -236 -166 -398.5t-418 -162.5q-78 0 -148.5 16.5t-132.5 47.5l-86 -109h-254zM408 524q0 -31 7 -61.5t21 -56.5 l281 356q-16 6 -35 9t-39 3q-104 0 -169.5 -69.5t-65.5 -180.5zM557 299q16 -6 35 -9t39 -3q104 0 169.5 70.5t65.5 181.5q0 31 -7 59.5t-19 56.5z" />
<glyph unicode="&#xf9;" horiz-adv-x="1306" d="M100 379v682h389v-586q0 -80 37 -121t107 -41q43 0 82 12.5t88 41.5v694h389v-1061h-375v188q-84 -113 -171 -163t-197 -50q-162 0 -255.5 107.5t-93.5 296.5zM131 1606v4h444l178 -398h-186z" />
<glyph unicode="&#xfa;" horiz-adv-x="1306" d="M100 379v682h389v-586q0 -80 37 -121t107 -41q43 0 82 12.5t88 41.5v694h389v-1061h-375v188q-84 -113 -171 -163t-197 -50q-162 0 -255.5 107.5t-93.5 296.5zM541 1212l178 398h444v-4l-436 -394h-186z" />
<glyph unicode="&#xfb;" horiz-adv-x="1306" d="M100 379v682h389v-586q0 -80 37 -121t107 -41q43 0 82 12.5t88 41.5v694h389v-1061h-375v188q-84 -113 -171 -163t-197 -50q-162 0 -255.5 107.5t-93.5 296.5zM211 1212v5l274 393h324l274 -393v-5h-200l-236 162l-238 -162h-198z" />
<glyph unicode="&#xfc;" horiz-adv-x="1306" d="M100 379v682h389v-586q0 -80 37 -121t107 -41q43 0 82 12.5t88 41.5v694h389v-1061h-375v188q-84 -113 -171 -163t-197 -50q-162 0 -255.5 107.5t-93.5 296.5zM201 1393q0 84 57 139t143 55t143.5 -55t57.5 -139q0 -82 -57.5 -137.5t-143.5 -55.5t-143 55.5t-57 137.5z M692 1393q0 84 57.5 139t143.5 55t143 -55t57 -139q0 -82 -57 -137.5t-143 -55.5t-143.5 55.5t-57.5 137.5z" />
<glyph unicode="&#xfd;" horiz-adv-x="1267" d="M14 1061h418l219 -592l195 592h409l-381 -998q-88 -233 -220.5 -342.5t-325.5 -109.5q-47 0 -92.5 7t-92.5 24l-73 344l4 4q41 -20 83 -30.5t89 -10.5q72 0 120 22.5t85 69.5zM541 1212l178 398h444v-4l-436 -394h-186z" />
<glyph unicode="&#xfe;" horiz-adv-x="1320" d="M115 -383v1843l387 90v-624q74 82 151.5 118.5t171.5 36.5q186 0 312.5 -149.5t126.5 -374.5q0 -250 -143.5 -410.5t-364.5 -160.5q-66 0 -129.5 23.5t-124.5 70.5v-463h-387zM502 342q47 -23 88 -33t82 -10q98 0 159.5 65.5t61.5 170.5q0 106 -57.5 167.5t-153.5 61.5 q-45 0 -88 -12.5t-92 -40.5v-369z" />
<glyph unicode="&#xff;" horiz-adv-x="1267" d="M14 1061h418l219 -592l195 592h409l-381 -998q-88 -233 -220.5 -342.5t-325.5 -109.5q-47 0 -92.5 7t-92.5 24l-73 344l4 4q41 -20 83 -30.5t89 -10.5q72 0 120 22.5t85 69.5zM201 1393q0 84 57 139t143 55t143.5 -55t57.5 -139q0 -82 -57.5 -137.5t-143.5 -55.5 t-143 55.5t-57 137.5zM692 1393q0 84 57.5 139t143.5 55t143 -55t57 -139q0 -82 -57 -137.5t-143 -55.5t-143.5 55.5t-57.5 137.5z" />
<glyph unicode="&#x152;" horiz-adv-x="2113" d="M72 715q0 332 224 525.5t613 193.5h1067l56 -347h-623v-219h514v-297h-514v-225h629l-56 -346h-1073q-399 0 -618 188.5t-219 526.5zM494 719q0 -178 113.5 -275.5t320.5 -97.5h73v741h-75q-203 0 -317.5 -98t-114.5 -270z" />
<glyph unicode="&#x153;" horiz-adv-x="1982" d="M55 530q0 236 161 396.5t407 160.5q123 0 228 -43t181 -126q74 84 175.5 128t217.5 44q233 0 365.5 -152t132.5 -408q0 -23 -2 -49t-4 -39h-694q27 -86 102.5 -132t190.5 -46q92 0 184 20.5t201 67.5l6 -4l-92 -293q-94 -41 -178.5 -58t-188.5 -17q-129 0 -235.5 41.5 t-182.5 123.5q-78 -84 -186.5 -129t-237.5 -45q-240 0 -395.5 161t-155.5 398zM424 530q0 -100 60.5 -165.5t152.5 -65.5t152.5 66.5t60.5 166.5t-60.5 166t-152.5 66t-152.5 -66.5t-60.5 -167.5zM1225 639h348q-8 88 -53 139t-117 51t-120 -51t-58 -139z" />
<glyph unicode="&#x178;" horiz-adv-x="1492" d="M0 1434h477l281 -502l280 502h455l-539 -877v-557h-413v557zM299 1743q0 84 58.5 139t144.5 55t143.5 -55t57.5 -139t-57.5 -139.5t-143.5 -55.5t-144.5 55.5t-58.5 139.5zM793 1743q0 84 57.5 139t143.5 55t144.5 -55t58.5 -139t-58.5 -139.5t-144.5 -55.5t-143.5 55.5 t-57.5 139.5z" />
<glyph unicode="&#x2c6;" horiz-adv-x="1024" d="M76 1212v5l274 393h324l274 -393v-5h-200l-236 162l-238 -162h-198z" />
<glyph unicode="&#x2dc;" horiz-adv-x="1024" d="M53 1292q98 176 160.5 240.5t142.5 64.5q25 0 60.5 -13t111.5 -54q68 -37 95.5 -47t44.5 -10q25 0 48 18t101 111l154 -101q-98 -176 -160.5 -239.5t-142.5 -63.5q-25 0 -61 13.5t-111 54.5q-68 35 -95.5 45t-44.5 10q-25 0 -48 -17.5t-101 -109.5z" />
<glyph unicode="&#x2000;" horiz-adv-x="973" />
<glyph unicode="&#x2001;" horiz-adv-x="1947" />
<glyph unicode="&#x2002;" horiz-adv-x="973" />
<glyph unicode="&#x2003;" horiz-adv-x="1947" />
<glyph unicode="&#x2004;" horiz-adv-x="649" />
<glyph unicode="&#x2005;" horiz-adv-x="486" />
<glyph unicode="&#x2006;" horiz-adv-x="324" />
<glyph unicode="&#x2007;" horiz-adv-x="324" />
<glyph unicode="&#x2008;" horiz-adv-x="243" />
<glyph unicode="&#x2009;" horiz-adv-x="389" />
<glyph unicode="&#x200a;" horiz-adv-x="108" />
<glyph unicode="&#x2010;" horiz-adv-x="829" d="M90 403v340h649v-340h-649z" />
<glyph unicode="&#x2011;" horiz-adv-x="829" d="M90 403v340h649v-340h-649z" />
<glyph unicode="&#x2012;" horiz-adv-x="829" d="M90 403v340h649v-340h-649z" />
<glyph unicode="&#x2013;" horiz-adv-x="1157" d="M90 408v331h977v-331h-977z" />
<glyph unicode="&#x2014;" horiz-adv-x="1935" d="M90 408v331h1755v-331h-1755z" />
<glyph unicode="&#x2018;" horiz-adv-x="575" d="M51 987q0 104 88 217t281 248l115 -80q-86 -125 -111 -185.5t-25 -121.5q0 -57 22.5 -113.5t104.5 -197.5h-405q-37 68 -53.5 123t-16.5 110z" />
<glyph unicode="&#x2019;" horiz-adv-x="575" d="M41 815q86 123 110.5 182t24.5 125q0 57 -21.5 114.5t-103.5 197.5h404q37 -68 53 -123.5t16 -110.5q0 -104 -89 -218t-279 -247z" />
<glyph unicode="&#x201a;" horiz-adv-x="557" d="M25 -381q86 123 110.5 182t24.5 125q0 57 -21.5 114.5t-103.5 197.5h404q37 -68 53 -123.5t16 -110.5q0 -104 -89 -218t-279 -247z" />
<glyph unicode="&#x201c;" horiz-adv-x="1079" d="M51 987q0 104 88 217t281 248l100 -68q-86 -129 -110.5 -189.5t-24.5 -123.5q0 -57 21.5 -114.5t105.5 -202.5h-391q-37 68 -53.5 123t-16.5 110zM569 987q0 104 88 217t279 248l102 -68q-84 -123 -109.5 -184t-25.5 -129q0 -57 21.5 -114.5t105.5 -202.5h-391 q-37 68 -53.5 123t-16.5 110z" />
<glyph unicode="&#x201d;" horiz-adv-x="1079" d="M41 815q86 123 110.5 182t24.5 125q0 57 -21.5 114.5t-103.5 197.5h391q37 -70 52.5 -124.5t15.5 -109.5q0 -104 -88 -217t-279 -248zM559 815q88 129 111.5 187.5t23.5 119.5q0 55 -21.5 110.5t-105.5 201.5h391q37 -68 53.5 -123.5t16.5 -110.5q0 -104 -88 -217 t-281 -248z" />
<glyph unicode="&#x201e;" horiz-adv-x="1060" d="M23 -381q86 123 110.5 182t24.5 125q0 57 -21.5 114.5t-103.5 197.5h391q37 -70 52.5 -124.5t15.5 -109.5q0 -104 -88 -217t-279 -248zM541 -381q88 129 111.5 187.5t23.5 119.5q0 55 -21.5 110.5t-105.5 201.5h391q37 -68 53.5 -123.5t16.5 -110.5q0 -104 -88 -217 t-281 -248z" />
<glyph unicode="&#x2022;" horiz-adv-x="1140" d="M172 717q0 166 115.5 282.5t281.5 116.5t283 -116.5t117 -282.5t-117 -283t-283 -117t-281.5 117t-115.5 283z" />
<glyph unicode="&#x2026;" horiz-adv-x="1574" d="M47 201q0 90 65.5 155.5t157.5 65.5t157 -65.5t65 -155.5q0 -92 -65 -156.5t-157 -64.5t-157.5 64.5t-65.5 156.5zM565 201q0 90 65.5 155.5t157.5 65.5t157 -65.5t65 -155.5q0 -92 -65 -156.5t-157 -64.5t-157.5 64.5t-65.5 156.5zM1083 201q0 90 65.5 155.5t158.5 65.5 q92 0 156.5 -65.5t64.5 -155.5q0 -92 -64.5 -156.5t-156.5 -64.5t-158 64.5t-66 156.5z" />
<glyph unicode="&#x202f;" horiz-adv-x="389" />
<glyph unicode="&#x2039;" horiz-adv-x="839" d="M47 498v65l602 520l127 -84l-299 -467l299 -471l-127 -84z" />
<glyph unicode="&#x203a;" horiz-adv-x="839" d="M63 61l299 467l-299 471l127 84l603 -520v-65l-603 -521z" />
<glyph unicode="&#x205f;" horiz-adv-x="486" />
<glyph unicode="&#x20ac;" horiz-adv-x="1406" d="M35 461v207h172v47v34t2 19h-174v207h207q63 227 235 355t414 128q119 0 215 -23.5t192 -78.5v-391h-4q-102 76 -190 109.5t-180 33.5q-104 0 -174 -41t-101 -117h418v-182h-442v-100h442v-183h-420q31 -80 102.5 -119.5t184.5 -39.5q104 0 191 28.5t184 94.5h4l-39 -375 q-82 -51 -176 -75t-209 -24q-256 0 -425 126t-228 360h-201z" />
<glyph unicode="&#x2122;" horiz-adv-x="2066" d="M47 1217v217h750v-217h-254v-590h-242v590h-254zM901 627v807h344l185 -377l180 377h342v-807h-236v518l-278 -531h-23l-278 525v-512h-236z" />
<glyph unicode="&#x25fc;" horiz-adv-x="1064" d="M0 0v1065h1065v-1065h-1065z" />
<glyph unicode="&#xfb03;" horiz-adv-x="2488" d="M47 768v293h158v63q0 201 111.5 312.5t310.5 111.5q72 0 130 -9t128 -32l37 -282l-7 -4q-53 20 -94 29.5t-84 9.5q-74 0 -115.5 -38t-41.5 -104v-57h317v-293h-307v-768h-385v768h-158zM977 768v293h158v63q0 201 111.5 312.5t310.5 111.5q72 0 130 -9t128 -32l37 -282 l-7 -4q-53 20 -94 29.5t-84 9.5q-74 0 -115.5 -38t-41.5 -104v-57h317v-293h-307v-768h-385v768h-158zM1946 1391q0 90 64.5 149t162.5 59q96 0 161 -59t65 -149t-64.5 -150.5t-161.5 -60.5q-96 0 -161.5 60t-65.5 151zM1979 0v1061h387v-1061h-387z" />
<glyph unicode="&#xfb04;" horiz-adv-x="2488" d="M47 768v293h158v63q0 201 111.5 312.5t310.5 111.5q72 0 130 -9t128 -32l37 -282l-7 -4q-53 20 -94 29.5t-84 9.5q-74 0 -115.5 -38t-41.5 -104v-57h317v-293h-307v-768h-385v768h-158zM977 768v293h158v63q0 201 111.5 312.5t310.5 111.5q72 0 130 -9t128 -32l37 -282 l-7 -4q-53 20 -94 29.5t-84 9.5q-74 0 -115.5 -38t-41.5 -104v-57h317v-293h-307v-768h-385v768h-158zM1979 0v1460l387 90v-1550h-387z" />
</font>
</defs>
</svg>
