<?xml version="1.0" standalone="no"?>
<!DOCTYPE svg PUBLIC "-//W3C//DTD SVG 1.1//EN" "http://www.w3.org/Graphics/SVG/1.1/DTD/svg11.dtd" >
<svg xmlns="http://www.w3.org/2000/svg">
<metadata></metadata>
<defs>
<font id="mallory_boldregular" horiz-adv-x="1228" >
<font-face units-per-em="2048" ascent="1638" descent="-410" />
<missing-glyph horiz-adv-x="448" />
<glyph unicode="&#xfb01;" horiz-adv-x="1488" d="M61 805v242h168v102q0 188 104.5 294.5t289.5 106.5q63 0 114 -9t109 -30l35 -249l-7 -5q-55 27 -97 37.5t-85 10.5q-76 0 -119 -42t-43 -116v-100h326v-242h-319v-805h-308v805h-168zM1002 1393q0 76 54 127t134 51t134 -51.5t54 -126.5q0 -76 -54 -127.5t-134 -51.5 t-134 51.5t-54 127.5zM1034 0v1047h310v-1047h-310z" />
<glyph unicode="&#xfb02;" horiz-adv-x="1488" d="M61 805v242h168v102q0 188 104.5 294.5t289.5 106.5q63 0 114 -9t109 -30l35 -249l-7 -5q-55 27 -97 37.5t-85 10.5q-76 0 -119 -42t-43 -116v-100h326v-242h-319v-805h-308v805h-168zM1034 0v1470l310 82v-1552h-310z" />
<glyph horiz-adv-x="0" />
<glyph horiz-adv-x="0" />
<glyph horiz-adv-x="682" />
<glyph unicode="&#xd;" horiz-adv-x="681" />
<glyph unicode=" "  horiz-adv-x="448" />
<glyph unicode="&#x09;" horiz-adv-x="448" />
<glyph unicode="&#xa0;" horiz-adv-x="448" />
<glyph unicode="!" horiz-adv-x="585" d="M106 168q0 78 55.5 133t133.5 55t132 -55t54 -133t-54 -133t-132 -55t-133.5 55t-55.5 133zM111 1286v148h366v-148l-115 -776h-137z" />
<glyph unicode="&#x22;" horiz-adv-x="1060" d="M74 848l143 586h350l-362 -623zM543 848l143 586h352l-362 -623z" />
<glyph unicode="#" horiz-adv-x="1421" d="M53 297v274h260l72 291h-229v275h295l71 301h201l-72 -301h336l72 301h201l-72 -301h178v-275h-244l-69 -291h211v-274h-277l-72 -301h-202l71 301h-333l-72 -301h-203l72 301h-195zM516 567h334l72 299h-336z" />
<glyph unicode="$" horiz-adv-x="1216" d="M68 449l4 2q150 -94 280.5 -142.5t237.5 -48.5q104 0 161.5 38t57.5 108t-56.5 109.5t-215.5 78.5q-252 63 -348.5 161.5t-96.5 264.5q0 180 134 293.5t360 124.5l22 229h217l-22 -246q70 -12 134 -34.5t122 -53.5v-305h-4q-100 63 -223 104.5t-224 41.5q-88 0 -140 -37 t-52 -99q0 -66 53 -103.5t215 -80.5q260 -70 355.5 -166t95.5 -266q0 -180 -127 -293t-346 -131l-27 -283h-217l28 291q-90 12 -174 43t-155 78z" />
<glyph unicode="%" horiz-adv-x="1886" d="M68 1042q0 184 104 302t268 118q162 0 267.5 -116.5t105.5 -298.5q0 -184 -106.5 -302t-270.5 -118q-160 0 -264 116.5t-104 298.5zM289 1047q0 -100 42 -161t111 -61q68 0 109 59.5t41 159.5q0 102 -41 163t-113 61q-68 0 -108.5 -60.5t-40.5 -160.5zM350 -4l522 766 l443 676h221l-526 -766l-441 -676h-219zM1075 387q0 184 104.5 302t266.5 118q164 0 268.5 -116t104.5 -300t-105.5 -302t-269.5 -118q-162 0 -265.5 116t-103.5 300zM1294 391q0 -100 42 -161.5t112 -61.5t110.5 60.5t40.5 158.5q0 102 -41.5 163.5t-111.5 61.5 q-68 0 -110 -60t-42 -161z" />
<glyph unicode="&#x26;" horiz-adv-x="1499" d="M66 358q0 129 82.5 228.5t254.5 177.5q-63 96 -91.5 173t-28.5 150q0 162 118.5 268.5t305.5 106.5q172 0 282.5 -98t110.5 -248q0 -115 -84 -215t-254 -192q43 -51 89 -104.5t99 -108.5q39 43 84 100t115 154h301v-7q-98 -135 -179 -236t-153 -177q51 -51 120 -114.5 t232 -209.5v-6h-360q-33 29 -68.5 61.5t-103.5 96.5q-111 -90 -220.5 -133t-230.5 -43q-190 0 -305.5 104t-115.5 272zM369 381q0 -70 48 -116t124 -46q55 0 112.5 23.5t120.5 74.5q-61 63 -120.5 129t-118.5 138q-86 -53 -126 -101.5t-40 -101.5zM557 1079q0 -47 20.5 -98 t69.5 -123q98 55 148.5 113.5t50.5 118.5q0 63 -39 104t-98 41q-70 0 -111 -43t-41 -113z" />
<glyph unicode="'" horiz-adv-x="600" d="M74 848l143 586h358l-368 -623z" />
<glyph unicode="(" horiz-adv-x="901" d="M135 625q0 276 154.5 498.5t494.5 422.5l78 -88q-221 -201 -321.5 -401.5t-100.5 -431.5t100.5 -432t321.5 -402l-78 -88q-340 201 -494.5 423t-154.5 499z" />
<glyph unicode=")" horiz-adv-x="901" d="M39 -209q219 199 320.5 400t101.5 434t-101.5 434t-320.5 399l78 88q340 -199 494.5 -421t154.5 -500q0 -279 -154.5 -501t-494.5 -421z" />
<glyph unicode="*" horiz-adv-x="1095" d="M74 979l102 309l287 -239l-14 -45zM156 735l319 203l37 -29l-90 -362zM385 1442h326l-140 -348h-47zM586 909l35 29l319 -203l-266 -188zM633 1049l287 239l102 -309l-375 25z" />
<glyph unicode="+" d="M84 588v258h395v393h271v-393h395v-258h-395v-395h-271v395h-395z" />
<glyph unicode="," horiz-adv-x="497" d="M-41 -285q106 145 134 245.5t28 299.5v66h301q0 -217 -68.5 -352t-312.5 -334z" />
<glyph unicode="-" horiz-adv-x="819" d="M109 432v277h602v-277h-602z" />
<glyph unicode="." horiz-adv-x="497" d="M57 172q0 80 56.5 136.5t136.5 56.5t136 -56.5t56 -136.5t-56 -136t-136 -56t-136.5 56t-56.5 136z" />
<glyph unicode="/" horiz-adv-x="987" d="M-16 -266l718 1782h234l-719 -1782h-233z" />
<glyph unicode="0" horiz-adv-x="1421" d="M98 715q0 326 172 536.5t443 210.5q270 0 440 -207.5t170 -535.5t-172 -538t-442 -210q-272 0 -441.5 207t-169.5 537zM414 719q0 -209 82 -337t217 -128q133 0 214 127t81 334t-82 336t-217 129q-133 0 -214 -127t-81 -334z" />
<glyph unicode="1" horiz-adv-x="929" d="M82 768v334l627 362l34 -10v-1454h-317v971z" />
<glyph unicode="2" horiz-adv-x="1206" d="M80 141l502 564q92 109 123.5 169t31.5 123q0 74 -49 121t-127 47q-98 0 -200.5 -64.5t-221.5 -203.5h-4l-31 334q106 115 230.5 170t269.5 55q205 0 327 -113.5t122 -300.5q0 -117 -49.5 -218t-190.5 -257l-258 -293l584 5l-105 -279h-934z" />
<glyph unicode="3" horiz-adv-x="1150" d="M86 412l4 2q117 -84 223.5 -126t206.5 -42q98 0 159.5 45t61.5 119q0 92 -96 148t-342 116v94q238 94 324 150.5t86 132.5q0 61 -49.5 99t-133.5 38q-90 0 -190 -42t-211 -124h-4v295q111 72 220.5 105.5t232.5 33.5q209 0 331.5 -98t122.5 -264q0 -111 -67.5 -198 t-200.5 -148q143 -47 219 -140.5t76 -220.5q0 -178 -145.5 -294t-360.5 -116q-121 0 -219 26t-209 91z" />
<glyph unicode="4" horiz-adv-x="1323" d="M31 371l661 1073h355v-914h221v-239h-221v-291h-299v291h-707zM395 530h357v611z" />
<glyph unicode="5" horiz-adv-x="1204" d="M113 354q123 -59 222 -85.5t191 -26.5q119 0 192 60t73 159q0 102 -74 157.5t-209 55.5q-72 0 -154 -14.5t-176 -45.5l-26 15l53 805h839v-277h-600l-20 -264q35 8 81 13t95 5q240 0 376 -118.5t136 -329.5q0 -217 -154.5 -352.5t-406.5 -135.5q-113 0 -216.5 21.5 t-191.5 64.5z" />
<glyph unicode="6" horiz-adv-x="1275" d="M92 500q0 141 59.5 278t223.5 367l205 289h370l-340 -439q-8 -10 -17 -23.5t-28 -37.5q43 10 87 15t91 5q197 0 326 -125.5t129 -332.5q0 -225 -158.5 -375t-402.5 -150q-250 0 -397.5 144.5t-147.5 384.5zM406 504q0 -121 64.5 -194.5t170.5 -73.5t176 69.5t70 173.5 q0 113 -71 173.5t-200 60.5q-33 0 -71.5 -3t-91.5 -12q-25 -53 -36 -100t-11 -94z" />
<glyph unicode="7" horiz-adv-x="1226" d="M82 1434h1096l14 -23l-664 -1411h-333l563 1155h-635z" />
<glyph unicode="8" horiz-adv-x="1302" d="M94 381q0 119 64.5 209t185.5 141q-100 51 -153.5 136t-53.5 192q0 176 142.5 287.5t373.5 111.5q229 0 370.5 -111.5t141.5 -287.5q0 -106 -53 -191.5t-154 -136.5q121 -51 184.5 -141t63.5 -209q0 -180 -154.5 -293t-402.5 -113q-252 0 -403.5 112t-151.5 294zM412 418 q0 -90 66.5 -146.5t174.5 -56.5q106 0 172 56.5t66 146.5q0 84 -71 141t-171 57t-168.5 -57t-68.5 -141zM442 1032q0 -84 59.5 -139t151.5 -55q90 0 148.5 55t58.5 139q0 82 -58.5 134.5t-152.5 52.5t-150.5 -51.5t-56.5 -135.5z" />
<glyph unicode="9" horiz-adv-x="1275" d="M78 928q0 229 157.5 381.5t403.5 152.5q250 0 397.5 -144t147.5 -384q0 -139 -58.5 -275.5t-224.5 -369.5l-205 -289h-370l340 438q6 8 16 24l10 15q-33 -8 -69.5 -12t-81.5 -4q-205 0 -334 127t-129 340zM389 944q0 -119 68.5 -180.5t201.5 -61.5q39 0 77 3.5t79 9.5 q31 63 43 112.5t12 102.5q0 121 -65.5 194.5t-171.5 73.5q-109 0 -176.5 -70.5t-67.5 -183.5z" />
<glyph unicode=":" horiz-adv-x="528" d="M72 172q0 80 56 136.5t136 56.5t136.5 -56.5t56.5 -136.5t-56.5 -136t-136.5 -56t-136 56t-56 136zM72 874q0 80 56 136.5t136 56.5t136.5 -56.5t56.5 -136.5t-56.5 -136t-136.5 -56t-136 56.5t-56 135.5z" />
<glyph unicode=";" horiz-adv-x="528" d="M-35 -285q106 145 134 245.5t28 299.5v66h301q0 -217 -68.5 -352t-312.5 -334zM78 872q0 80 56 136.5t136 56.5t136.5 -56.5t56.5 -136.5q0 -78 -56.5 -134t-136.5 -56t-136 56.5t-56 133.5z" />
<glyph unicode="&#x3c;" d="M102 635v164l1006 469v-277l-631 -272l631 -268v-283z" />
<glyph unicode="=" d="M100 391v232h1028v-232h-1028zM100 811v231h1028v-231h-1028z" />
<glyph unicode="&#x3e;" d="M121 168v276l631 273l-631 268v283l1005 -467v-166z" />
<glyph unicode="?" horiz-adv-x="1013" d="M76 989v305q104 84 211.5 122t234.5 38q193 0 306.5 -96t113.5 -258q0 -115 -52 -189.5t-206 -154.5q-98 -51 -131 -80t-33 -66q0 -20 6 -41.5t25 -58.5h-168q-61 61 -86 105t-25 96q0 63 47.5 111t178.5 112q90 47 119.5 76.5t29.5 72.5q0 47 -39 75t-106 28 q-100 0 -201.5 -48t-220.5 -151zM264 168q0 78 55.5 133t133.5 55t133 -55t55 -133t-55 -133t-133 -55t-133.5 55t-55.5 133z" />
<glyph unicode="@" horiz-adv-x="2084" d="M80 414q0 213 87 416.5t243 363.5q158 160 359.5 246t420.5 86q365 0 589 -210t224 -548q0 -289 -155.5 -475.5t-395.5 -186.5q-117 0 -191.5 46.5t-91.5 128.5q-109 -94 -190.5 -133t-171.5 -39q-127 0 -203 88t-76 237q0 119 48.5 232.5t134.5 201.5q88 86 199.5 133.5 t236.5 47.5q70 0 134.5 -17.5t121.5 -50.5l86 51h98l-151 -618q-6 -29 -8.5 -47.5t-2.5 -32.5q0 -53 35 -83t96 -30q152 0 263.5 159t111.5 384q0 317 -202.5 506.5t-542.5 189.5q-203 0 -390.5 -82t-334.5 -231q-145 -150 -226 -340.5t-81 -388.5q0 -346 213 -538.5 t594 -192.5q166 0 311 26.5t287 81.5v-71q-150 -53 -294.5 -78t-308.5 -25q-408 0 -642 212t-234 581zM788 481q0 -70 39 -107.5t111 -37.5q51 0 108.5 22.5t127.5 69.5l92 375q-29 12 -59.5 17t-63.5 5q-147 0 -251 -103.5t-104 -240.5z" />
<glyph unicode="A" horiz-adv-x="1665" d="M35 0l629 1438h350l614 -1438h-354l-119 295h-655l-123 -295h-342zM602 559h451l-222 543z" />
<glyph unicode="B" horiz-adv-x="1316" d="M162 0v1434h530q227 0 355.5 -100.5t128.5 -278.5q0 -98 -52.5 -177t-150.5 -130q127 -47 192.5 -133t65.5 -203q0 -188 -146.5 -300t-390.5 -112h-532zM475 254h195q111 0 174 48t63 130q0 88 -63.5 134t-181.5 46h-187v-358zM475 840h166q100 0 159.5 48t59.5 128 q0 78 -55.5 121t-151.5 43h-178v-340z" />
<glyph unicode="C" horiz-adv-x="1437" d="M88 717q0 315 215 528t535 213q135 0 253.5 -42t219.5 -122v-352h-6q-104 102 -218 156.5t-227 54.5q-184 0 -308 -124t-124 -308q0 -195 123 -318.5t307 -123.5q125 0 244 51t231 153l4 -4l-43 -350q-115 -80 -231.5 -117t-249.5 -37q-313 0 -519 208t-206 534z" />
<glyph unicode="D" horiz-adv-x="1595" d="M162 0v1434h518q387 0 606 -189.5t219 -523.5q0 -328 -224 -524.5t-601 -196.5h-518zM494 289h186q223 0 355 115.5t132 312.5q0 201 -130 314.5t-361 113.5h-182v-856z" />
<glyph unicode="E" d="M162 0v1434h909l57 -281h-639v-303h531v-252h-531v-317h646l-58 -281h-915z" />
<glyph unicode="F" horiz-adv-x="1159" d="M162 0v1434h946l-59 -287h-555v-340h489v-270h-489v-537h-332z" />
<glyph unicode="G" horiz-adv-x="1589" d="M88 705q0 334 226.5 541.5t586.5 207.5q139 0 260 -26.5t240 -84.5v-327q-137 74 -254 106.5t-234 32.5q-211 0 -348 -125t-137 -319q0 -203 125 -324t334 -121q68 0 127 10.5t119 30.5v240h-322v237h627v-645q-150 -82 -297.5 -120.5t-302.5 -38.5q-336 0 -543 198.5 t-207 526.5z" />
<glyph unicode="H" horiz-adv-x="1660" d="M162 0v1434h332v-555h675v555h330v-1434h-330v575h-675v-575h-332z" />
<glyph unicode="I" horiz-adv-x="671" d="M170 0v1434h330v-1434h-330z" />
<glyph unicode="J" horiz-adv-x="1001" d="M47 377l6 2q74 -53 137.5 -76.5t124.5 -23.5q96 0 150.5 57t54.5 160v938h330v-1000q0 -211 -123 -331.5t-334 -120.5q-84 0 -156.5 18t-138.5 55z" />
<glyph unicode="K" horiz-adv-x="1490" d="M162 0v1434h332v-574h43l534 574h404v-7l-666 -686l676 -735v-6h-414l-536 600h-41v-600h-332z" />
<glyph unicode="L" horiz-adv-x="1140" d="M162 0v1434h332v-1137h575v-297h-907z" />
<glyph unicode="M" horiz-adv-x="2105" d="M162 0v1434h459l432 -867l430 867h461v-1434h-322v1057l-557 -1077h-29l-559 1071v-1051h-315z" />
<glyph unicode="N" horiz-adv-x="1683" d="M162 0v1434h319l717 -818l-2 818h326v-1440h-211l-828 942l4 -936h-325z" />
<glyph unicode="O" horiz-adv-x="1701" d="M88 715q0 315 219 531t545 216t544 -214t218 -529q0 -317 -219 -532.5t-547 -215.5t-544 213t-216 531zM426 719q0 -190 122 -319.5t302 -129.5q178 0 302 129t124 316q0 188 -125 318t-305 130q-178 0 -299 -128t-121 -316z" />
<glyph unicode="P" horiz-adv-x="1273" d="M162 0v1434h475q272 0 424.5 -126.5t152.5 -353.5q0 -229 -155.5 -364t-417.5 -135h-147v-455h-332zM487 719h138q123 0 193.5 61.5t70.5 167.5q0 98 -69.5 155.5t-190.5 57.5h-142v-442z" />
<glyph unicode="Q" horiz-adv-x="1701" d="M88 715q0 317 219 532t545 215t544 -211t218 -522q0 -236 -126 -418t-343 -264q49 -51 102 -73.5t125 -22.5q47 0 95.5 11t101.5 34l6 -4l-92 -264q-41 -16 -93.5 -24.5t-107.5 -8.5q-166 0 -283.5 66.5t-232.5 222.5q-297 27 -487.5 232.5t-190.5 498.5zM426 719 q0 -190 122 -319.5t302 -129.5q178 0 302 129.5t124 315.5q0 188 -125 318t-305 130q-178 0 -299 -128t-121 -316z" />
<glyph unicode="R" horiz-adv-x="1370" d="M162 0v1434h500q258 0 400 -117t142 -330q0 -137 -74.5 -244.5t-209.5 -167.5l477 -575h-393l-424 520h-86v-520h-332zM487 762h150q109 0 174.5 56t65.5 151q0 90 -64 144t-170 54h-156v-405z" />
<glyph unicode="S" horiz-adv-x="1169" d="M66 465l4 2q121 -96 256 -155.5t241 -59.5q90 0 141.5 37t51.5 102q0 59 -51 100.5t-205 102.5q-225 86 -313.5 186.5t-88.5 251.5q0 193 135.5 309.5t362.5 116.5q117 0 219.5 -25.5t192.5 -78.5v-316h-4q-98 66 -209 105t-205 39q-80 0 -125 -33t-45 -90t48 -97 t204 -104q223 -86 314 -187.5t91 -256.5q0 -201 -141 -320t-377 -119q-123 0 -237.5 35t-210.5 101z" />
<glyph unicode="T" horiz-adv-x="1488" d="M68 1137v297h1353v-297h-512v-1137h-329v1137h-512z" />
<glyph unicode="U" horiz-adv-x="1611" d="M147 649v785h330v-791q0 -176 87 -273.5t245 -97.5t245 97.5t87 277.5v787h323v-785q0 -322 -172 -498t-487 -176q-313 0 -485.5 176.5t-172.5 497.5z" />
<glyph unicode="V" horiz-adv-x="1626" d="M37 1434h364l414 -983l426 983h350l-665 -1457h-238z" />
<glyph unicode="W" horiz-adv-x="2363" d="M57 1434h357l293 -1002l464 1020h33l457 -1022l303 1004h344l-473 -1442h-311l-344 780l-353 -780h-311z" />
<glyph unicode="X" horiz-adv-x="1564" d="M41 0l541 723l-529 711h391l342 -465l338 465h383l-526 -701l547 -733h-391l-361 489l-352 -489h-383z" />
<glyph unicode="Y" horiz-adv-x="1441" d="M10 1434h383l336 -549l336 549h369l-547 -844v-590h-330v588z" />
<glyph unicode="Z" horiz-adv-x="1462" d="M49 29l787 1116h-715v289h1253l15 -29l-789 -1116h799l-107 -289h-1229z" />
<glyph unicode="[" horiz-adv-x="878" d="M178 -266v1782h613l30 -175h-358v-1433h358l-30 -174h-613z" />
<glyph unicode="\" horiz-adv-x="987" d="M51 1516h232l718 -1782h-231z" />
<glyph unicode="]" horiz-adv-x="878" d="M57 -92h359v1433h-359l31 175h612v-1782h-612z" />
<glyph unicode="^" d="M66 686l469 787h159l469 -787h-291l-262 455l-260 -455h-284z" />
<glyph unicode="_" horiz-adv-x="1292" d="M-6 -150h1304v-184h-1304v184z" />
<glyph unicode="`" horiz-adv-x="1024" d="M49 1597v5h371l174 -379h-148z" />
<glyph unicode="a" horiz-adv-x="1179" d="M80 264q0 172 168 257t510 91q-6 100 -59.5 151.5t-153.5 51.5q-82 0 -172 -33.5t-185 -99.5l-6 4l47 281q86 51 180.5 75.5t200.5 24.5q223 0 339 -119t116 -346v-577l-299 -39v157q-102 -82 -195.5 -121.5t-185.5 -39.5q-137 0 -221 76.5t-84 205.5zM362 295 q0 -47 33 -73.5t92 -26.5q53 0 120 21.5t151 64.5v186q-201 -14 -298.5 -55t-97.5 -117z" />
<glyph unicode="b" horiz-adv-x="1290" d="M137 -4v1474l312 82v-632q74 76 151.5 111.5t173.5 35.5q193 0 320 -146.5t127 -369.5q0 -248 -166 -406.5t-416 -158.5q-68 0 -135.5 13t-145.5 40l-194 -43h-27zM449 270q39 -14 80.5 -21t88.5 -7q133 0 217.5 82t84.5 213q0 123 -71 197.5t-185 74.5 q-55 0 -106.5 -15.5t-108.5 -50.5v-473z" />
<glyph unicode="c" horiz-adv-x="1075" d="M70 524q0 238 156.5 392.5t402.5 154.5q98 0 183 -26.5t161 -79.5v-310l-6 -2q-84 72 -163 107t-155 35q-121 0 -196.5 -77t-75.5 -196t73.5 -194.5t190.5 -75.5q84 0 177 36t167 93l6 -4l-37 -301q-80 -49 -169 -75t-181 -26q-238 0 -386 152t-148 397z" />
<glyph unicode="d" horiz-adv-x="1300" d="M70 500q0 242 146 402.5t359 160.5q74 0 143.5 -25.5t135.5 -76.5v509l309 82v-1552h-303v147q-78 -88 -160 -127.5t-180 -39.5q-190 0 -320 148t-130 372zM371 518q0 -125 71.5 -201.5t184.5 -76.5q55 0 109.5 18t117.5 61v429q-53 31 -103.5 44t-105.5 13 q-121 0 -197.5 -80t-76.5 -207z" />
<glyph unicode="e" horiz-adv-x="1165" d="M68 526q0 231 150.5 390t379.5 159t363.5 -150.5t134.5 -396.5q0 -12 -2 -36.5t-4 -51.5h-723q25 -104 106.5 -161.5t208.5 -57.5q94 0 188.5 25.5t194.5 77.5l6 -5l-84 -260q-94 -45 -177 -63.5t-183 -18.5q-254 0 -406.5 149.5t-152.5 399.5zM365 616h442 q-10 109 -67.5 172.5t-147.5 63.5q-92 0 -153.5 -64.5t-73.5 -171.5z" />
<glyph unicode="f" horiz-adv-x="888" d="M61 805v242h168v102q0 188 104.5 294.5t289.5 106.5q63 0 114 -9t109 -30l35 -249l-7 -5q-55 27 -97 37.5t-85 10.5q-76 0 -119 -42t-43 -116v-100h326v-242h-319v-805h-308v805h-168z" />
<glyph unicode="g" horiz-adv-x="1300" d="M70 532q0 236 161.5 382.5t411.5 146.5q70 0 141.5 -12.5t155.5 -40.5l199 43h24v-899q0 -258 -155.5 -404.5t-427.5 -146.5q-111 0 -211.5 22.5t-204.5 71.5l-49 280l6 7q131 -70 229.5 -97.5t204.5 -27.5q141 0 221 71.5t80 202.5v66q-78 -74 -160 -108t-178 -34 q-195 0 -321.5 134.5t-126.5 342.5zM371 541q0 -113 69.5 -181.5t180.5 -68.5q59 0 115.5 18.5t119.5 59.5v407q-53 18 -100 26.5t-97 8.5q-125 0 -206.5 -75.5t-81.5 -194.5z" />
<glyph unicode="h" horiz-adv-x="1277" d="M137 0v1470l312 82v-682q84 106 166.5 153.5t189.5 47.5q162 0 257 -108.5t95 -294.5v-668h-309v604q0 92 -46 143.5t-130 51.5q-57 0 -107.5 -22.5t-115.5 -78.5v-698h-312z" />
<glyph unicode="i" horiz-adv-x="602" d="M113 1393q0 76 54 127t134 51t134 -51.5t54 -126.5q0 -76 -54 -127.5t-134 -51.5t-134 51.5t-54 127.5zM145 0v1047h310v-1047h-310z" />
<glyph unicode="j" horiz-adv-x="602" d="M-104 -156q20 -6 41.5 -9t46.5 -3q82 0 122.5 43t40.5 127v1045h310v-1029q0 -199 -101.5 -305t-287.5 -106q-35 0 -67 4t-58 10zM115 1393q0 78 53 128t135 50q80 0 133 -51.5t53 -126.5q0 -76 -53 -127.5t-133 -51.5t-134 51.5t-54 127.5z" />
<glyph unicode="k" horiz-adv-x="1204" d="M137 0v1470l312 82v-923h45l327 418h353v-5l-410 -499l438 -537v-6h-371l-335 430h-47v-430h-312z" />
<glyph unicode="l" horiz-adv-x="602" d="M145 0v1470l310 82v-1552h-310z" />
<glyph unicode="m" horiz-adv-x="1929" d="M137 0v1022l303 39v-189q80 104 162 151.5t182 47.5q111 0 192 -54t120 -157q84 113 170 162t194 49q160 0 254 -108.5t94 -294.5v-668h-311v604q0 92 -43 143.5t-123 51.5q-53 0 -99 -20.5t-106 -69.5q2 -8 2 -16.5v-24.5v-668h-311v604q0 92 -43 143.5t-123 51.5 q-53 0 -99 -20.5t-103 -69.5v-709h-312z" />
<glyph unicode="n" horiz-adv-x="1277" d="M137 0v1022l303 39v-201q84 111 171 161t194 50q162 0 257 -108.5t95 -294.5v-668h-309v604q0 92 -46 143.5t-130 51.5q-57 0 -107.5 -22.5t-115.5 -78.5v-698h-312z" />
<glyph unicode="o" horiz-adv-x="1267" d="M68 522q0 231 161.5 392t405.5 161q248 0 406.5 -157.5t158.5 -391.5q0 -231 -161.5 -393t-405.5 -162q-248 0 -406.5 159t-158.5 392zM369 522q0 -123 75.5 -204.5t188.5 -81.5q115 0 190.5 82.5t75.5 207.5q0 123 -74.5 204t-189.5 81q-117 0 -191.5 -82t-74.5 -207z " />
<glyph unicode="p" horiz-adv-x="1300" d="M137 -387v1409l303 39v-162q78 88 160 128t180 40q193 0 322 -148.5t129 -371.5q0 -242 -146.5 -402.5t-357.5 -160.5q-76 0 -145.5 25.5t-132.5 76.5v-473h-312zM449 299q53 -31 103 -44t103 -13q121 0 198 79.5t77 206.5q0 125 -72 202t-184 77q-57 0 -110.5 -18.5 t-114.5 -57.5v-432z" />
<glyph unicode="q" horiz-adv-x="1290" d="M70 498q0 248 165.5 406.5t415.5 158.5q68 0 136.5 -13.5t146.5 -39.5l194 41h25v-1438h-309v516q-78 -78 -156 -113.5t-172 -35.5q-193 0 -319.5 147t-126.5 371zM371 512q0 -123 70.5 -197.5t185.5 -74.5q55 0 106 15t111 50v471q-39 14 -81 21.5t-91 7.5 q-131 0 -216 -82t-85 -211z" />
<glyph unicode="r" horiz-adv-x="913" d="M137 0v1022l303 39v-273q109 154 184.5 214.5t159.5 60.5q16 0 30.5 -2t37.5 -6l18 -322q-18 4 -35.5 5t-37.5 1q-84 0 -166 -29.5t-182 -97.5v-612h-312z" />
<glyph unicode="s" horiz-adv-x="1044" d="M68 373l6 4q119 -82 238.5 -126t228.5 -44q66 0 105.5 23.5t39.5 60.5q0 43 -45 67.5t-184 61.5q-205 53 -285 128t-80 195q0 147 120 236.5t320 89.5q98 0 190.5 -22.5t176.5 -67.5v-262l-6 -2q-92 59 -191.5 93t-181.5 34q-66 0 -103.5 -21.5t-37.5 -56.5 q0 -39 43 -62.5t180 -58.5q211 -53 291 -129t80 -207q0 -147 -124 -238.5t-327 -91.5q-113 0 -213 28t-200 87z" />
<glyph unicode="t" horiz-adv-x="962" d="M55 805v242h160v223l305 76v-299h363v-242h-363v-404q0 -80 40 -120.5t118 -40.5q49 0 97 19.5t108 64.5l6 -5l-47 -270q-59 -35 -128 -53.5t-143 -18.5q-174 0 -265 101.5t-91 296.5v430h-160z" />
<glyph unicode="u" horiz-adv-x="1277" d="M121 381v666h311v-603q0 -94 45 -145t129 -51q57 0 108.5 23.5t116.5 78.5v697h310v-1047h-301v188q-84 -111 -170 -161t-197 -50q-162 0 -257 109t-95 295z" />
<glyph unicode="v" horiz-adv-x="1253" d="M25 1047h337l263 -646l276 646h330l-512 -1072h-207z" />
<glyph unicode="w" horiz-adv-x="1816" d="M33 1047h325l201 -662l340 676h31l325 -676l215 662h316l-377 -1059h-256l-248 520l-258 -520h-258z" />
<glyph unicode="x" horiz-adv-x="1230" d="M35 0l389 537l-369 510h351l215 -312l215 312h338l-365 -510l387 -537h-348l-238 340l-237 -340h-338z" />
<glyph unicode="y" horiz-adv-x="1212" d="M27 1047h335l259 -658l235 658h330l-420 -1057q-76 -195 -191.5 -289t-277.5 -94q-49 0 -93 8t-87 27l-60 282l4 4q47 -25 89.5 -36t85.5 -11q84 0 138 39t89 123z" />
<glyph unicode="z" horiz-adv-x="1130" d="M41 29l543 776h-471v242h944l10 -27l-543 -776h551l-71 -244h-953z" />
<glyph unicode="{" horiz-adv-x="1075" d="M57 569v111l176 33q100 18 139.5 46.5t39.5 82.5q0 23 -9.5 53.5t-42.5 97.5q-43 90 -57 138.5t-14 91.5q0 135 106.5 214t292.5 79h299l31 -175h-238q-90 0 -136 -32.5t-46 -98.5q0 -23 8 -53.5t39 -97.5q37 -86 48.5 -131t11.5 -82q0 -80 -52.5 -132t-167.5 -89 q115 -37 167.5 -89.5t52.5 -132.5q0 -37 -11.5 -82t-48.5 -131q-31 -68 -39 -98.5t-8 -52.5q0 -63 47 -97t135 -34h238l-31 -174h-299q-186 0 -292.5 78.5t-106.5 214.5q0 43 14 91t57 138q33 68 42.5 98.5t9.5 53.5q0 53 -39 81.5t-140 47.5z" />
<glyph unicode="|" horiz-adv-x="796" d="M287 -266v1782h223v-1782h-223z" />
<glyph unicode="}" horiz-adv-x="1075" d="M57 -92h238q90 0 136 32.5t46 98.5q0 23 -8 53.5t-37 97.5q-37 86 -48 131.5t-11 81.5q0 80 51 132.5t166 89.5q-115 37 -166 89t-51 132q0 37 11 82t48 131q29 68 37 98.5t8 52.5q0 63 -47 97t-135 34h-238l31 175h301q184 0 291.5 -79t107.5 -214q0 -43 -14 -91.5 t-57 -138.5q-33 -68 -42 -98.5t-9 -52.5q0 -53 38.5 -82t137.5 -47l176 -33v-111l-176 -32q-98 -18 -137 -47t-39 -82q0 -23 9 -53.5t42 -98.5q43 -90 57 -138t14 -91q0 -135 -107.5 -214t-291.5 -79h-301z" />
<glyph unicode="~" d="M80 549q100 244 163.5 329t147.5 85q37 0 93.5 -25t174.5 -98q88 -55 123 -71.5t54 -16.5q35 0 66.5 39.5t96.5 166.5l150 -73q-100 -244 -163.5 -329t-147.5 -85q-37 0 -93.5 24.5t-175.5 100.5q-88 55 -122.5 71.5t-53.5 16.5q-35 0 -66.5 -40t-97.5 -169z" />
<glyph unicode="&#xa1;" horiz-adv-x="585" d="M104 1266q0 78 55.5 133t133.5 55t133 -55.5t55 -132.5q0 -78 -55 -133.5t-133 -55.5t-133.5 55.5t-55.5 133.5zM111 0v147l112 777h137l117 -777v-147h-366z" />
<glyph unicode="&#xa2;" horiz-adv-x="1093" d="M76 713q0 203 129 348t340 176l20 205h217l-20 -205q57 -10 109.5 -31.5t111.5 -60.5v-295h-4q-94 74 -165 101.5t-148 27.5q-127 0 -207 -74t-80 -190q0 -117 78 -190.5t200 -73.5q86 0 170 30.5t166 93.5l4 -2l-34 -292q-76 -45 -150 -69t-154 -28l-20 -192h-217 l22 215q-172 49 -270 184t-98 322z" />
<glyph unicode="&#xa3;" horiz-adv-x="1222" d="M90 561v191l201 8q-61 96 -86 163.5t-25 139.5q0 174 137.5 283.5t366.5 109.5q111 0 212 -24.5t206 -77.5l31 -310h-7q-111 70 -212 105t-191 35q-94 0 -147.5 -45t-53.5 -119q0 -43 20.5 -92t88.5 -152l389 17v-191l-309 -8q2 -16 3 -26.5t1 -20.5q0 -63 -34 -129 t-114 -152l586 6l-70 -272h-970l-13 137q201 190 245 256t44 142q0 18 -1 26t-3 17z" />
<glyph unicode="&#xa5;" horiz-adv-x="1366" d="M33 1434h373l284 -541l285 541h360l-397 -678h291v-172h-387v-125h387v-174h-387v-285h-318v285h-387v174h387v125h-387v172h293z" />
<glyph unicode="&#xa7;" horiz-adv-x="1392" d="M68 539q0 104 69.5 186t202.5 133q-53 45 -78.5 106.5t-25.5 137.5q0 160 129 258t340 98q123 0 233.5 -23.5t208.5 -72.5v-287h-4q-125 63 -230.5 94t-197.5 31q-76 0 -120 -30.5t-44 -79.5q0 -53 55.5 -87t198.5 -75q289 -82 404.5 -174t115.5 -232q0 -104 -69.5 -185 t-202.5 -132q53 -47 78.5 -107.5t25.5 -136.5q0 -160 -129 -259t-340 -99q-123 0 -228.5 24.5t-219.5 79.5l-45 309l4 2q135 -76 255.5 -115.5t223.5 -39.5q76 0 120 29.5t44 80.5t-55.5 85t-198.5 75q-293 84 -406.5 175t-113.5 231zM365 584q0 -70 72.5 -116t291.5 -108 q33 -8 71 -21t81 -30q76 37 111.5 77t35.5 91q0 70 -72.5 116t-291.5 109q-47 12 -83 24.5t-67 27.5q-78 -37 -113.5 -78t-35.5 -92z" />
<glyph unicode="&#xa8;" horiz-adv-x="1024" d="M106 1384q0 72 50.5 120t124.5 48t124 -48t50 -120t-50 -121t-124 -49t-124.5 49.5t-50.5 120.5zM569 1384q0 72 50.5 120t123.5 48q74 0 124.5 -48t50.5 -120t-50.5 -121t-124.5 -49t-124 49.5t-50 120.5z" />
<glyph unicode="&#xa9;" horiz-adv-x="1822" d="M86 715q0 164 63.5 313.5t180.5 263.5q117 113 268.5 174.5t314.5 61.5q166 0 315.5 -60.5t266.5 -173.5t179.5 -262t62.5 -313t-63.5 -313.5t-180.5 -264.5q-117 -113 -268.5 -174t-315.5 -61q-166 0 -315 60t-266 173t-179.5 262.5t-62.5 313.5zM154 719 q0 -313 222 -530.5t537 -217.5t535.5 216t220.5 528q0 313 -222.5 530t-537.5 217t-535 -216t-220 -527zM432 715q0 211 148.5 347t377.5 136q92 0 175.5 -27.5t152.5 -83.5v-225h-4q-78 68 -158 102.5t-155 34.5q-129 0 -215 -79.5t-86 -200.5q0 -127 85 -207t212 -80 q86 0 170 31t161 92l4 -4l-30 -219q-74 -49 -154 -72.5t-172 -23.5q-223 0 -367.5 134t-144.5 345z" />
<glyph unicode="&#xaa;" horiz-adv-x="1050" d="M125 379v168h774v-168h-774zM131 889q0 123 123 181t381 63q-6 70 -43 103.5t-109 33.5q-61 0 -128.5 -22.5t-139.5 -65.5l-6 2l35 200q70 35 140.5 51.5t150.5 16.5q166 0 251.5 -83t85.5 -245v-422h-229v105q-74 -59 -144.5 -88t-142.5 -29q-100 0 -162.5 55.5 t-62.5 143.5zM346 915q0 -35 24.5 -53t71.5 -18q37 0 85 14t108 43v127q-147 -8 -218 -35t-71 -78z" />
<glyph unicode="&#xab;" horiz-adv-x="1361" d="M66 498v53l534 516l105 -66l-289 -475l289 -479l-105 -65zM637 498v53l534 516l105 -66l-289 -475l289 -479l-105 -65z" />
<glyph unicode="&#xad;" horiz-adv-x="819" d="M109 432v277h602v-277h-602z" />
<glyph unicode="&#xae;" horiz-adv-x="1148" d="M88 1001q0 199 142.5 338.5t342.5 139.5q203 0 345.5 -138t142.5 -337t-142.5 -338.5t-345.5 -139.5t-344 138.5t-141 336.5zM145 1001q0 -180 123 -300.5t307 -120.5q180 0 304.5 121.5t124.5 299.5q0 182 -124 304t-309 122q-180 0 -303 -122.5t-123 -303.5zM367 741 v549h206q111 0 171.5 -47t60.5 -133q0 -53 -28.5 -95t-82.5 -65l172 -209h-170l-147 183h-39v-183h-143zM510 1022h49q47 0 72.5 21.5t25.5 58.5t-24.5 58.5t-69.5 21.5h-53v-160z" />
<glyph unicode="&#xaf;" horiz-adv-x="1024" d="M127 1266v196h770v-196h-770z" />
<glyph unicode="&#xb0;" horiz-adv-x="1089" d="M80 1014q0 193 133 320.5t334 127.5q199 0 331 -128t132 -318q0 -193 -133.5 -320t-333.5 -127q-201 0 -332 126t-131 319zM324 1018q0 -104 63.5 -174t159.5 -70q92 0 154.5 69.5t62.5 172.5q0 104 -63.5 175t-157.5 71q-92 0 -155.5 -71t-63.5 -173z" />
<glyph unicode="&#xb1;" d="M94 0v227h1041v-227h-1041zM100 801v252h381v381h267v-381h380v-252h-380v-381h-267v381h-381z" />
<glyph unicode="&#xb4;" horiz-adv-x="1024" d="M430 1223l174 379h371v-5l-397 -374h-148z" />
<glyph unicode="&#xb5;" horiz-adv-x="1294" d="M137 -387v1434h312v-607q0 -94 45 -145t129 -51q57 0 108 22.5t117 77.5v703h309v-1047h-221l-47 158q-66 -86 -129.5 -125t-136.5 -39q-70 0 -127.5 29t-104.5 86l33 -412v-84h-287z" />
<glyph unicode="&#xb6;" horiz-adv-x="1470" d="M63 913q0 240 182.5 380.5t483.5 140.5h574v-1434h-232v1169h-164v-1169h-178v430h-70q-274 0 -435 129t-161 354zM354 881q0 -131 93.5 -209t248.5 -78h33v575h-22q-162 0 -257.5 -76.5t-95.5 -211.5z" />
<glyph unicode="&#xb7;" horiz-adv-x="520" d="M68 569q0 80 56 136.5t136 56.5t136.5 -56.5t56.5 -136.5t-56.5 -136t-136.5 -56t-136 56t-56 136z" />
<glyph unicode="&#xb8;" horiz-adv-x="1024" d="M227 -291l6 6q61 -16 103.5 -23t87.5 -7q53 0 84 16t31 45t-28 42t-87 13q-25 0 -49.5 -1t-55.5 -5l-8 8l140 211h167l-79 -110q113 -6 168 -45t55 -109q0 -82 -83 -133t-222 -51q-47 0 -90 5t-86 17z" />
<glyph unicode="&#xba;" horiz-adv-x="1044" d="M96 1075q0 162 122 271.5t306 109.5q186 0 305 -108.5t119 -272.5t-120.5 -272.5t-307.5 -108.5q-186 0 -305 108.5t-119 272.5zM135 379v168h774v-168h-774zM326 1075q0 -88 55 -143t141 -55t140.5 57t54.5 143t-53.5 141.5t-139.5 55.5q-90 0 -144 -55.5t-54 -143.5z " />
<glyph unicode="&#xbb;" horiz-adv-x="1361" d="M86 45l289 475l-289 479l104 66l535 -516v-53l-535 -516zM659 45l287 475l-287 479l103 66l534 -516v-53l-534 -516z" />
<glyph unicode="&#xbc;" horiz-adv-x="1724" d="M55 1004v221l422 230l21 -7v-870h-224v547zM262 -4l520 752l451 690h172l-520 -752l-451 -690h-172zM904 221l380 641h269v-538h135v-156h-135v-168h-211v168h-430zM1147 324h199v362z" />
<glyph unicode="&#xbd;" horiz-adv-x="1787" d="M55 1004v221l422 230l21 -7v-870h-224v547zM262 -4l520 752l451 690h172l-520 -752l-451 -690h-172zM1081 104l295 322q55 63 74.5 97t19.5 67q0 39 -25.5 63.5t-68.5 24.5q-57 0 -119.5 -38t-138.5 -120h-4l-18 219q68 68 143.5 99.5t167.5 31.5q131 0 209 -68.5 t78 -180.5q0 -72 -32 -134.5t-112 -148.5l-145 -156h338l-66 -182h-579z" />
<glyph unicode="&#xbe;" horiz-adv-x="1794" d="M53 834l4 2q72 -47 142.5 -71.5t128.5 -24.5q57 0 90 23.5t33 64.5q0 47 -55.5 76.5t-211.5 68.5v70q150 55 201 86t51 74q0 33 -27.5 52t-76.5 19q-55 0 -116.5 -24.5t-135.5 -75.5h-4v190q66 41 139.5 61.5t151.5 20.5q133 0 212.5 -58t79.5 -157q0 -68 -43 -119 t-127 -88q90 -29 137.5 -84t47.5 -129q0 -109 -91 -177t-231 -68q-78 0 -143.5 16t-130.5 53zM330 -4l520 752l451 690h172l-520 -752l-451 -690h-172zM971 221l380 641h269v-538h135v-156h-135v-168h-211v168h-430zM1214 324h199v362z" />
<glyph unicode="&#xbf;" horiz-adv-x="1013" d="M72 334q0 113 51 187.5t207 156.5q98 51 132 79.5t34 63.5q0 18 -7.5 40t-25.5 61h170q61 -59 84.5 -103.5t23.5 -95.5q0 -63 -47 -111.5t-178 -113.5q-88 -45 -117.5 -75t-29.5 -73q0 -47 37.5 -74.5t105.5 -27.5q100 0 201.5 47t220.5 149h4v-307q-106 -82 -214 -119.5 t-232 -37.5q-193 0 -306.5 96t-113.5 258zM373 1264q0 78 55 133t133 55t133.5 -55.5t55.5 -132.5q0 -78 -55.5 -133.5t-133.5 -55.5t-133 55.5t-55 133.5z" />
<glyph unicode="&#xc0;" horiz-adv-x="1665" d="M35 0l629 1438h350l614 -1438h-354l-119 295h-655l-123 -295h-342zM365 1884v4h395l168 -321h-168zM602 559h451l-222 543z" />
<glyph unicode="&#xc1;" horiz-adv-x="1665" d="M35 0l629 1438h350l614 -1438h-354l-119 295h-655l-123 -295h-342zM602 559h451l-222 543zM744 1567l168 321h395v-4l-395 -317h-168z" />
<glyph unicode="&#xc2;" horiz-adv-x="1665" d="M35 0l629 1438h350l614 -1438h-354l-119 295h-655l-123 -295h-342zM426 1567v4l267 317h286l267 -317v-4h-177l-233 139l-233 -139h-177zM602 559h451l-222 543z" />
<glyph unicode="&#xc3;" horiz-adv-x="1665" d="M35 0l629 1438h350l614 -1438h-354l-119 295h-655l-123 -295h-342zM408 1645q106 147 163.5 196t127.5 49q27 0 63.5 -12t112.5 -51q63 -31 89 -40t44 -9q31 0 56.5 19.5t99.5 96.5l116 -90q-104 -147 -161.5 -196t-128.5 -49q-29 0 -66 12t-113 49q-61 31 -86.5 40 t-44.5 9q-31 0 -56.5 -18.5t-98.5 -96.5zM602 559h451l-222 543z" />
<glyph unicode="&#xc4;" horiz-adv-x="1665" d="M35 0l629 1438h350l614 -1438h-354l-119 295h-655l-123 -295h-342zM428 1731q0 72 51.5 121t125.5 49t124 -49.5t50 -120.5q0 -74 -50.5 -123t-123.5 -49q-74 0 -125.5 49t-51.5 123zM602 559h451l-222 543zM893 1731q0 72 50 121t124 49t125.5 -49.5t51.5 -120.5 q0 -74 -51.5 -123t-125.5 -49t-124 49t-50 123z" />
<glyph unicode="&#xc5;" horiz-adv-x="1665" d="M35 0l590 1352q-33 37 -49.5 81t-16.5 91q0 111 82 189.5t197 78.5q117 0 197.5 -79t80.5 -189q0 -47 -16.5 -91t-48.5 -81l577 -1352h-354l-119 295h-655l-123 -295h-342zM602 559h451l-222 545zM680 1524q0 -66 45 -111t113 -45t112.5 45t44.5 111t-45 110.5t-112 44.5 q-68 0 -113 -45t-45 -110z" />
<glyph unicode="&#xc6;" horiz-adv-x="2121" d="M4 0l875 1434h1085l57 -281h-639v-303h531v-252h-531v-317h646l-58 -281h-915v295h-531l-182 -295h-338zM684 559h371v612z" />
<glyph unicode="&#xc7;" horiz-adv-x="1437" d="M88 717q0 315 215 528t535 213q135 0 253.5 -42t219.5 -122v-352h-6q-104 102 -218 156.5t-227 54.5q-184 0 -308 -124t-124 -308q0 -195 123 -318.5t307 -123.5q125 0 244 51t231 153l4 -4l-43 -350q-98 -68 -196.5 -104.5t-202.5 -44.5l-61 -86q113 -6 168 -45t55 -109 q0 -82 -83 -133t-222 -51q-47 0 -90.5 5t-86.5 17l-53 121l6 6q61 -16 103.5 -23.5t87.5 -7.5q53 0 84 16.5t31 45.5t-28 42t-87 13q-25 0 -49.5 -1t-55.5 -5l-8 8l123 187q-283 31 -462 234.5t-179 502.5z" />
<glyph unicode="&#xc8;" d="M162 0v1434h909l57 -281h-639v-303h531v-252h-531v-317h646l-58 -281h-915zM170 1884v4h395l168 -321h-168z" />
<glyph unicode="&#xc9;" d="M162 0v1434h909l57 -281h-639v-303h531v-252h-531v-317h646l-58 -281h-915zM549 1567l168 321h395v-4l-395 -317h-168z" />
<glyph unicode="&#xca;" d="M162 0v1434h909l57 -281h-639v-303h531v-252h-531v-317h646l-58 -281h-915zM231 1567v4l267 317h286l267 -317v-4h-177l-233 139l-233 -139h-177z" />
<glyph unicode="&#xcb;" d="M162 0v1434h909l57 -281h-639v-303h531v-252h-531v-317h646l-58 -281h-915zM233 1731q0 72 51.5 121t125.5 49t124 -49.5t50 -120.5q0 -74 -50.5 -123t-123.5 -49q-74 0 -125.5 49t-51.5 123zM698 1731q0 72 50 121t124 49t125.5 -49.5t51.5 -120.5q0 -74 -51.5 -123 t-125.5 -49t-124 49t-50 123z" />
<glyph unicode="&#xcc;" horiz-adv-x="671" d="M-135 1884v4h395l168 -321h-168zM170 0v1434h330v-1434h-330z" />
<glyph unicode="&#xcd;" horiz-adv-x="671" d="M170 0v1434h330v-1434h-330zM244 1567l168 321h395v-4l-395 -317h-168z" />
<glyph unicode="&#xce;" horiz-adv-x="671" d="M-74 1567v4l267 317h286l267 -317v-4h-177l-233 139l-233 -139h-177zM170 0v1434h330v-1434h-330z" />
<glyph unicode="&#xcf;" horiz-adv-x="671" d="M-72 1731q0 72 51.5 121t125.5 49t124 -49.5t50 -120.5q0 -74 -50.5 -123t-123.5 -49q-74 0 -125.5 49t-51.5 123zM170 0v1434h330v-1434h-330zM393 1731q0 72 50 121t124 49t125.5 -49.5t51.5 -120.5q0 -74 -51.5 -123t-125.5 -49t-124 49t-50 123z" />
<glyph unicode="&#xd0;" horiz-adv-x="1644" d="M41 612v228h170v594h518q387 0 606 -189.5t219 -523.5q0 -328 -224 -524.5t-601 -196.5h-518v612h-170zM537 289h192q221 0 354.5 115.5t133.5 312.5q0 201 -130.5 314.5t-361.5 113.5h-188v-311h309v-213h-309v-332z" />
<glyph unicode="&#xd1;" horiz-adv-x="1683" d="M162 0v1434h319l717 -818l-2 818h326v-1440h-211l-828 942l4 -936h-325zM414 1645q106 147 163.5 196t127.5 49q27 0 63.5 -12t112.5 -51q63 -31 89 -40t44 -9q31 0 56.5 19.5t99.5 96.5l116 -90q-104 -147 -161.5 -196t-128.5 -49q-29 0 -66 12t-113 49q-61 31 -86.5 40 t-44.5 9q-31 0 -56.5 -18.5t-98.5 -96.5z" />
<glyph unicode="&#xd2;" horiz-adv-x="1701" d="M88 715q0 315 219 531t545 216t544 -214t218 -529q0 -317 -219 -532.5t-547 -215.5t-544 213t-216 531zM379 1894v4h395l168 -321h-168zM426 719q0 -190 122 -319.5t302 -129.5q178 0 302 129t124 316q0 188 -125 318t-305 130q-178 0 -299 -128t-121 -316z" />
<glyph unicode="&#xd3;" horiz-adv-x="1701" d="M88 715q0 315 219 531t545 216t544 -214t218 -529q0 -317 -219 -532.5t-547 -215.5t-544 213t-216 531zM426 719q0 -190 122 -319.5t302 -129.5q178 0 302 129t124 316q0 188 -125 318t-305 130q-178 0 -299 -128t-121 -316zM758 1577l168 321h395v-4l-395 -317h-168z " />
<glyph unicode="&#xd4;" horiz-adv-x="1701" d="M88 715q0 315 219 531t545 216t544 -214t218 -529q0 -317 -219 -532.5t-547 -215.5t-544 213t-216 531zM426 719q0 -190 122 -319.5t302 -129.5q178 0 302 129t124 316q0 188 -125 318t-305 130q-178 0 -299 -128t-121 -316zM440 1577v4l267 317h286l267 -317v-4h-177 l-233 139l-233 -139h-177z" />
<glyph unicode="&#xd5;" horiz-adv-x="1701" d="M88 715q0 315 219 531t545 216t544 -214t218 -529q0 -317 -219 -532.5t-547 -215.5t-544 213t-216 531zM422 1655q106 147 163.5 196t127.5 49q27 0 63.5 -12t112.5 -51q63 -31 89 -40t44 -9q31 0 56.5 19.5t99.5 96.5l116 -90q-104 -147 -161.5 -196t-128.5 -49 q-29 0 -66 12t-113 49q-61 31 -86.5 40t-44.5 9q-31 0 -56.5 -18.5t-98.5 -96.5zM426 719q0 -190 122 -319.5t302 -129.5q178 0 302 129t124 316q0 188 -125 318t-305 130q-178 0 -299 -128t-121 -316z" />
<glyph unicode="&#xd6;" horiz-adv-x="1701" d="M88 715q0 315 219 531t545 216t544 -214t218 -529q0 -317 -219 -532.5t-547 -215.5t-544 213t-216 531zM426 719q0 -190 122 -319.5t302 -129.5q178 0 302 129t124 316q0 188 -125 318t-305 130q-178 0 -299 -128t-121 -316zM442 1741q0 72 51.5 121t125.5 49t124 -49.5 t50 -120.5q0 -74 -50.5 -123t-123.5 -49q-74 0 -125.5 49t-51.5 123zM907 1741q0 72 50 121t124 49t125.5 -49.5t51.5 -120.5q0 -74 -51.5 -123t-125.5 -49t-124 49t-50 123z" />
<glyph unicode="&#xd7;" d="M104 391l330 326l-330 325l191 189l321 -330l322 330l186 -187l-327 -325l327 -324l-190 -188l-320 330l-323 -330z" />
<glyph unicode="&#xd8;" horiz-adv-x="1701" d="M45 -88l242 293q-96 102 -147.5 234t-51.5 276q0 315 219 531t545 216q106 0 207.5 -26.5t189.5 -77.5l137 164h271l-244 -295q96 -102 148.5 -232.5t52.5 -275.5q0 -317 -219 -532.5t-547 -215.5q-106 0 -206.5 27t-190.5 78l-138 -164h-268zM414 709q0 -76 20.5 -144.5 t59.5 -126.5l561 690q-47 23 -96.5 34.5t-102.5 11.5q-188 0 -315 -133.5t-127 -331.5zM645 305q47 -23 97.5 -34t103.5 -11q188 0 315 133t127 332q0 76 -20.5 144.5t-59.5 125.5z" />
<glyph unicode="&#xd9;" horiz-adv-x="1611" d="M147 649v785h330v-791q0 -176 87 -273.5t245 -97.5t245 97.5t87 277.5v787h323v-785q0 -322 -172 -498t-487 -176q-313 0 -485.5 176.5t-172.5 497.5zM334 1884v4h395l168 -321h-168z" />
<glyph unicode="&#xda;" horiz-adv-x="1611" d="M147 649v785h330v-791q0 -176 87 -273.5t245 -97.5t245 97.5t87 277.5v787h323v-785q0 -322 -172 -498t-487 -176q-313 0 -485.5 176.5t-172.5 497.5zM713 1567l168 321h395v-4l-395 -317h-168z" />
<glyph unicode="&#xdb;" horiz-adv-x="1611" d="M147 649v785h330v-791q0 -176 87 -273.5t245 -97.5t245 97.5t87 277.5v787h323v-785q0 -322 -172 -498t-487 -176q-313 0 -485.5 176.5t-172.5 497.5zM395 1567v4l267 317h286l267 -317v-4h-177l-233 139l-233 -139h-177z" />
<glyph unicode="&#xdc;" horiz-adv-x="1611" d="M147 649v785h330v-791q0 -176 87 -273.5t245 -97.5t245 97.5t87 277.5v787h323v-785q0 -322 -172 -498t-487 -176q-313 0 -485.5 176.5t-172.5 497.5zM397 1731q0 72 51.5 121t125.5 49t124 -49.5t50 -120.5q0 -74 -50.5 -123t-123.5 -49q-74 0 -125.5 49t-51.5 123z M862 1731q0 72 50 121t124 49t125.5 -49.5t51.5 -120.5q0 -74 -51.5 -123t-125.5 -49t-124 49t-50 123z" />
<glyph unicode="&#xdd;" horiz-adv-x="1441" d="M10 1434h383l336 -549l336 549h369l-547 -844v-590h-330v588zM629 1567l168 321h395v-4l-395 -317h-168z" />
<glyph unicode="&#xde;" horiz-adv-x="1304" d="M162 0v1434h332v-234h184q258 0 405.5 -124t147.5 -343t-156.5 -350t-415.5 -131h-165v-252h-332zM487 514h156q123 0 192.5 57.5t69.5 157.5q0 98 -66.5 153.5t-185.5 55.5h-166v-424z" />
<glyph unicode="&#xdf;" horiz-adv-x="1443" d="M61 805v242h168v12q0 231 133.5 361t374.5 130q213 0 343 -110.5t130 -284.5q0 -106 -44 -190t-142 -164q184 -76 263 -174t79 -252q0 -176 -120 -283.5t-316 -107.5q-68 0 -121 8t-117 31l-37 272l7 4q61 -35 115 -51.5t112 -16.5q74 0 121 45.5t47 116.5q0 98 -89 171 t-276 126l-22 76q133 102 184 179t51 165q0 82 -48 132t-128 50q-90 0 -141 -60.5t-51 -160.5v-1071h-308v805h-168z" />
<glyph unicode="&#xe0;" horiz-adv-x="1179" d="M80 264q0 172 168 257t510 91q-6 100 -59.5 151.5t-153.5 51.5q-82 0 -172 -33.5t-185 -99.5l-6 4l47 281q86 51 180.5 75.5t200.5 24.5q223 0 339 -119t116 -346v-577l-299 -39v157q-102 -82 -195.5 -121.5t-185.5 -39.5q-137 0 -221 76.5t-84 205.5zM158 1597v5h371 l174 -379h-148zM362 295q0 -47 33 -73.5t92 -26.5q53 0 120 21.5t151 64.5v186q-201 -14 -298.5 -55t-97.5 -117z" />
<glyph unicode="&#xe1;" horiz-adv-x="1179" d="M80 264q0 172 168 257t510 91q-6 100 -59.5 151.5t-153.5 51.5q-82 0 -172 -33.5t-185 -99.5l-6 4l47 281q86 51 180.5 75.5t200.5 24.5q223 0 339 -119t116 -346v-577l-299 -39v157q-102 -82 -195.5 -121.5t-185.5 -39.5q-137 0 -221 76.5t-84 205.5zM362 295 q0 -47 33 -73.5t92 -26.5q53 0 120 21.5t151 64.5v186q-201 -14 -298.5 -55t-97.5 -117zM539 1223l174 379h371v-5l-397 -374h-148z" />
<glyph unicode="&#xe2;" horiz-adv-x="1179" d="M80 264q0 172 168 257t510 91q-6 100 -59.5 151.5t-153.5 51.5q-82 0 -172 -33.5t-185 -99.5l-6 4l47 281q86 51 180.5 75.5t200.5 24.5q223 0 339 -119t116 -346v-577l-299 -39v157q-102 -82 -195.5 -121.5t-185.5 -39.5q-137 0 -221 76.5t-84 205.5zM220 1223v4 l270 375h262l270 -375v-4h-153l-246 176l-248 -176h-155zM362 295q0 -47 33 -73.5t92 -26.5q53 0 120 21.5t151 64.5v186q-201 -14 -298.5 -55t-97.5 -117z" />
<glyph unicode="&#xe3;" horiz-adv-x="1179" d="M80 264q0 172 168 257t510 91q-6 100 -59.5 151.5t-153.5 51.5q-82 0 -172 -33.5t-185 -99.5l-6 4l47 281q86 51 180.5 75.5t200.5 24.5q223 0 339 -119t116 -346v-577l-299 -39v157q-102 -82 -195.5 -121.5t-185.5 -39.5q-137 0 -221 76.5t-84 205.5zM187 1292 q98 170 154.5 226.5t127.5 56.5q25 0 62 -14.5t115 -57.5q63 -37 88.5 -47t42.5 -10q25 0 48 19.5t99 115.5l131 -84q-100 -172 -156.5 -228.5t-125.5 -56.5q-25 0 -62 14.5t-115 59.5q-63 35 -88.5 46t-42.5 11q-25 0 -48 -19t-99 -116zM362 295q0 -47 33 -73.5t92 -26.5 q53 0 120 21.5t151 64.5v186q-201 -14 -298.5 -55t-97.5 -117z" />
<glyph unicode="&#xe4;" horiz-adv-x="1179" d="M80 264q0 172 168 257t510 91q-6 100 -59.5 151.5t-153.5 51.5q-82 0 -172 -33.5t-185 -99.5l-6 4l47 281q86 51 180.5 75.5t200.5 24.5q223 0 339 -119t116 -346v-577l-299 -39v157q-102 -82 -195.5 -121.5t-185.5 -39.5q-137 0 -221 76.5t-84 205.5zM215 1384 q0 72 50.5 120t124.5 48t124 -48t50 -120t-50 -121t-124 -49t-124.5 49.5t-50.5 120.5zM362 295q0 -47 33 -73.5t92 -26.5q53 0 120 21.5t151 64.5v186q-201 -14 -298.5 -55t-97.5 -117zM678 1384q0 72 50.5 120t123.5 48q74 0 124.5 -48t50.5 -120t-50.5 -121t-124.5 -49 t-124 49.5t-50 120.5z" />
<glyph unicode="&#xe5;" horiz-adv-x="1179" d="M80 264q0 172 168 257t510 91q-6 100 -59.5 151.5t-153.5 51.5q-82 0 -172 -33.5t-185 -99.5l-6 4l47 281q86 51 180.5 75.5t200.5 24.5q223 0 339 -119t116 -346v-577l-299 -39v157q-102 -82 -195.5 -121.5t-185.5 -39.5q-137 0 -221 76.5t-84 205.5zM351 1477 q0 111 78.5 188.5t191.5 77.5t191.5 -78t78.5 -188q0 -111 -78.5 -190t-191.5 -79t-191.5 79t-78.5 190zM362 295q0 -47 33 -73.5t92 -26.5q53 0 120 21.5t151 64.5v186q-201 -14 -298.5 -55t-97.5 -117zM471 1477q0 -66 43.5 -112t106.5 -46t106.5 46t43.5 112t-43.5 110.5 t-106.5 44.5t-106.5 -45t-43.5 -110z" />
<glyph unicode="&#xe6;" horiz-adv-x="1855" d="M80 264q0 172 168 257t510 91q-6 100 -59.5 151.5t-153.5 51.5q-82 0 -172 -33.5t-185 -99.5l-6 4l47 281q86 51 178.5 75.5t196.5 24.5q111 0 195 -34t141 -99q70 70 161 105.5t193 35.5q227 0 358.5 -150.5t131.5 -396.5q0 -23 -2 -49t-4 -39h-729 q25 -104 109.5 -161.5t213.5 -57.5q92 0 188.5 25.5t194.5 77.5l6 -5l-84 -260q-94 -45 -177 -63.5t-183 -18.5q-139 0 -253 49.5t-187 143.5q-129 -98 -245 -143t-235 -45q-145 0 -231 75.5t-86 206.5zM362 295q0 -47 34 -73.5t91 -26.5q61 0 137 28.5t173 87.5 q-14 39 -22.5 78t-10.5 78q-205 -14 -303.5 -55t-98.5 -117zM1055 616h442q-10 109 -67.5 172.5t-147.5 63.5q-92 0 -153.5 -64.5t-73.5 -171.5z" />
<glyph unicode="&#xe7;" horiz-adv-x="1075" d="M70 524q0 238 156.5 392.5t402.5 154.5q98 0 183 -26.5t161 -79.5v-310l-6 -2q-84 72 -163 107t-155 35q-121 0 -196.5 -77t-75.5 -196t73.5 -194.5t190.5 -75.5q84 0 177 36t167 93l6 -4l-37 -301q-68 -39 -138.5 -63.5t-141.5 -32.5l-62 -86q113 -6 168.5 -45 t55.5 -109q0 -82 -83 -133t-223 -51q-47 0 -90 5t-86 17l-53 121l6 6q61 -16 103.5 -23.5t87.5 -7.5q53 0 83.5 16.5t30.5 45.5t-27.5 42t-86.5 13q-25 0 -49.5 -1t-55.5 -5l-8 8l125 189q-201 31 -320.5 177t-119.5 365z" />
<glyph unicode="&#xe8;" horiz-adv-x="1165" d="M68 526q0 231 150.5 390t379.5 159t363.5 -150.5t134.5 -396.5q0 -12 -2 -36.5t-4 -51.5h-723q25 -104 106.5 -161.5t208.5 -57.5q94 0 188.5 25.5t194.5 77.5l6 -5l-84 -260q-94 -45 -177 -63.5t-183 -18.5q-254 0 -406.5 149.5t-152.5 399.5zM143 1607v5h371l174 -379 h-148zM365 616h442q-10 109 -67.5 172.5t-147.5 63.5q-92 0 -153.5 -64.5t-73.5 -171.5z" />
<glyph unicode="&#xe9;" horiz-adv-x="1165" d="M68 526q0 231 150.5 390t379.5 159t363.5 -150.5t134.5 -396.5q0 -12 -2 -36.5t-4 -51.5h-723q25 -104 106.5 -161.5t208.5 -57.5q94 0 188.5 25.5t194.5 77.5l6 -5l-84 -260q-94 -45 -177 -63.5t-183 -18.5q-254 0 -406.5 149.5t-152.5 399.5zM365 616h442 q-10 109 -67.5 172.5t-147.5 63.5q-92 0 -153.5 -64.5t-73.5 -171.5zM524 1233l174 379h371v-5l-397 -374h-148z" />
<glyph unicode="&#xea;" horiz-adv-x="1165" d="M68 526q0 231 150.5 390t379.5 159t363.5 -150.5t134.5 -396.5q0 -12 -2 -36.5t-4 -51.5h-723q25 -104 106.5 -161.5t208.5 -57.5q94 0 188.5 25.5t194.5 77.5l6 -5l-84 -260q-94 -45 -177 -63.5t-183 -18.5q-254 0 -406.5 149.5t-152.5 399.5zM205 1233v4l270 375h262 l270 -375v-4h-153l-246 176l-248 -176h-155zM365 616h442q-10 109 -67.5 172.5t-147.5 63.5q-92 0 -153.5 -64.5t-73.5 -171.5z" />
<glyph unicode="&#xeb;" horiz-adv-x="1165" d="M68 526q0 231 150.5 390t379.5 159t363.5 -150.5t134.5 -396.5q0 -12 -2 -36.5t-4 -51.5h-723q25 -104 106.5 -161.5t208.5 -57.5q94 0 188.5 25.5t194.5 77.5l6 -5l-84 -260q-94 -45 -177 -63.5t-183 -18.5q-254 0 -406.5 149.5t-152.5 399.5zM200 1394q0 72 50.5 120 t124.5 48t124 -48t50 -120t-50 -121t-124 -49t-124.5 49.5t-50.5 120.5zM365 616h442q-10 109 -67.5 172.5t-147.5 63.5q-92 0 -153.5 -64.5t-73.5 -171.5zM663 1394q0 72 50.5 120t123.5 48q74 0 124.5 -48t50.5 -120t-50.5 -121t-124.5 -49t-124 49.5t-50 120.5z" />
<glyph unicode="&#xec;" horiz-adv-x="602" d="M-162 1597v5h371l174 -379h-148zM145 0v1047h310v-1047h-310z" />
<glyph unicode="&#xed;" horiz-adv-x="602" d="M145 0v1047h310v-1047h-310zM219 1223l174 379h371v-5l-397 -374h-148z" />
<glyph unicode="&#xee;" horiz-adv-x="602" d="M-100 1223v4l270 375h262l270 -375v-4h-153l-246 176l-248 -176h-155zM145 0v1047h310v-1047h-310z" />
<glyph unicode="&#xef;" horiz-adv-x="602" d="M-105 1384q0 72 50.5 120t124.5 48t124 -48t50 -120t-50 -121t-124 -49t-124.5 49.5t-50.5 120.5zM145 0v1047h310v-1047h-310zM358 1384q0 72 50.5 120t123.5 48q74 0 124.5 -48t50.5 -120t-50.5 -121t-124.5 -49t-124 49.5t-50 120.5z" />
<glyph unicode="&#xf0;" horiz-adv-x="1251" d="M74 481q0 207 139 348.5t344 141.5q84 0 155.5 -21.5t135.5 -66.5q-39 76 -102.5 148.5t-163.5 154.5l-156 -123l-98 106l139 107q-33 23 -72 50.5t-96 68.5l190 157q49 -33 92.5 -64.5t82.5 -60.5l157 125l99 -106l-144 -111q201 -178 295 -362.5t94 -403.5 q0 -143 -40 -252.5t-124 -193.5q-74 -74 -174 -113t-221 -39q-231 0 -381.5 147.5t-150.5 362.5zM375 483q0 -106 67.5 -176.5t171.5 -70.5q109 0 180.5 72.5t71.5 178.5q0 109 -68.5 177.5t-176.5 68.5q-109 0 -177.5 -69.5t-68.5 -180.5z" />
<glyph unicode="&#xf1;" horiz-adv-x="1277" d="M137 0v1022l303 39v-201q84 111 171 161t194 50q162 0 257 -108.5t95 -294.5v-668h-309v604q0 92 -46 143.5t-130 51.5q-57 0 -107.5 -22.5t-115.5 -78.5v-698h-312zM215 1292q98 170 154.5 226.5t127.5 56.5q25 0 62 -14.5t115 -57.5q63 -37 88.5 -47t42.5 -10 q25 0 48 19.5t99 115.5l131 -84q-100 -172 -156.5 -228.5t-125.5 -56.5q-25 0 -62 14.5t-115 59.5q-63 35 -88.5 46t-42.5 11q-25 0 -48 -19t-99 -116z" />
<glyph unicode="&#xf2;" horiz-adv-x="1267" d="M68 522q0 231 161.5 392t405.5 161q248 0 406.5 -157.5t158.5 -391.5q0 -231 -161.5 -393t-405.5 -162q-248 0 -406.5 159t-158.5 392zM170 1607v5h371l174 -379h-148zM369 522q0 -123 75.5 -204.5t188.5 -81.5q115 0 190.5 82.5t75.5 207.5q0 123 -74.5 204t-189.5 81 q-117 0 -191.5 -82t-74.5 -207z" />
<glyph unicode="&#xf3;" horiz-adv-x="1267" d="M68 522q0 231 161.5 392t405.5 161q248 0 406.5 -157.5t158.5 -391.5q0 -231 -161.5 -393t-405.5 -162q-248 0 -406.5 159t-158.5 392zM369 522q0 -123 75.5 -204.5t188.5 -81.5q115 0 190.5 82.5t75.5 207.5q0 123 -74.5 204t-189.5 81q-117 0 -191.5 -82t-74.5 -207z M551 1233l174 379h371v-5l-397 -374h-148z" />
<glyph unicode="&#xf4;" horiz-adv-x="1267" d="M68 522q0 231 161.5 392t405.5 161q248 0 406.5 -157.5t158.5 -391.5q0 -231 -161.5 -393t-405.5 -162q-248 0 -406.5 159t-158.5 392zM232 1233v4l270 375h262l270 -375v-4h-153l-246 176l-248 -176h-155zM369 522q0 -123 75.5 -204.5t188.5 -81.5q115 0 190.5 82.5 t75.5 207.5q0 123 -74.5 204t-189.5 81q-117 0 -191.5 -82t-74.5 -207z" />
<glyph unicode="&#xf5;" horiz-adv-x="1267" d="M68 522q0 231 161.5 392t405.5 161q248 0 406.5 -157.5t158.5 -391.5q0 -231 -161.5 -393t-405.5 -162q-248 0 -406.5 159t-158.5 392zM199 1302q98 170 154.5 226.5t127.5 56.5q25 0 62 -14.5t115 -57.5q63 -37 88.5 -47t42.5 -10q25 0 48 19.5t99 115.5l131 -84 q-100 -172 -156.5 -228.5t-125.5 -56.5q-25 0 -62 14.5t-115 59.5q-63 35 -88.5 46t-42.5 11q-25 0 -48 -19t-99 -116zM369 522q0 -123 75.5 -204.5t188.5 -81.5q115 0 190.5 82.5t75.5 207.5q0 123 -74.5 204t-189.5 81q-117 0 -191.5 -82t-74.5 -207z" />
<glyph unicode="&#xf6;" horiz-adv-x="1267" d="M68 522q0 231 161.5 392t405.5 161q248 0 406.5 -157.5t158.5 -391.5q0 -231 -161.5 -393t-405.5 -162q-248 0 -406.5 159t-158.5 392zM227 1394q0 72 50.5 120t124.5 48t124 -48t50 -120t-50 -121t-124 -49t-124.5 49.5t-50.5 120.5zM369 522q0 -123 75.5 -204.5 t188.5 -81.5q115 0 190.5 82.5t75.5 207.5q0 123 -74.5 204t-189.5 81q-117 0 -191.5 -82t-74.5 -207zM690 1394q0 72 50.5 120t123.5 48q74 0 124.5 -48t50.5 -120t-50.5 -121t-124.5 -49t-124 49.5t-50 120.5z" />
<glyph unicode="&#xf7;" d="M84 594v246l530 -9l531 9v-246l-531 8zM438 285q0 74 51.5 126t124.5 52q74 0 125.5 -52.5t51.5 -125.5q0 -74 -51.5 -125t-125.5 -51t-125 51t-51 125zM438 1147q0 74 51.5 126t124.5 52q74 0 125.5 -52t51.5 -126t-51.5 -125t-125.5 -51t-125 51t-51 125z" />
<glyph unicode="&#xf8;" horiz-adv-x="1267" d="M29 -80l184 227q-70 76 -107.5 173.5t-37.5 201.5q0 231 161.5 392t405.5 161q78 0 148.5 -17.5t131.5 -49.5l93 118h231l-184 -225q70 -76 107.5 -173.5t37.5 -201.5q0 -231 -161.5 -393t-405.5 -162q-78 0 -148.5 17.5t-132.5 50.5l-94 -119h-229zM356 514 q0 -43 10.5 -83t32.5 -79l353 447q-25 10 -53.5 16t-57.5 6q-127 0 -206 -86t-79 -221zM516 250q25 -12 52.5 -18.5t56.5 -6.5q127 0 206.5 87t79.5 223q0 43 -11 83.5t-32 75.5z" />
<glyph unicode="&#xf9;" horiz-adv-x="1277" d="M121 381v666h311v-603q0 -94 45 -145t129 -51q57 0 108.5 23.5t116.5 78.5v697h310v-1047h-301v188q-84 -111 -170 -161t-197 -50q-162 0 -257 109t-95 295zM170 1597v5h371l174 -379h-148z" />
<glyph unicode="&#xfa;" horiz-adv-x="1277" d="M121 381v666h311v-603q0 -94 45 -145t129 -51q57 0 108.5 23.5t116.5 78.5v697h310v-1047h-301v188q-84 -111 -170 -161t-197 -50q-162 0 -257 109t-95 295zM551 1223l174 379h371v-5l-397 -374h-148z" />
<glyph unicode="&#xfb;" horiz-adv-x="1277" d="M121 381v666h311v-603q0 -94 45 -145t129 -51q57 0 108.5 23.5t116.5 78.5v697h310v-1047h-301v188q-84 -111 -170 -161t-197 -50q-162 0 -257 109t-95 295zM232 1223v4l270 375h262l270 -375v-4h-153l-246 176l-248 -176h-155z" />
<glyph unicode="&#xfc;" horiz-adv-x="1277" d="M121 381v666h311v-603q0 -94 45 -145t129 -51q57 0 108.5 23.5t116.5 78.5v697h310v-1047h-301v188q-84 -111 -170 -161t-197 -50q-162 0 -257 109t-95 295zM227 1384q0 72 50.5 120t124.5 48t124 -48t50 -120t-50 -121t-124 -49t-124.5 49.5t-50.5 120.5zM690 1384 q0 72 50.5 120t123.5 48q74 0 124.5 -48t50.5 -120t-50.5 -121t-124.5 -49t-124 49.5t-50 120.5z" />
<glyph unicode="&#xfd;" horiz-adv-x="1212" d="M27 1047h335l259 -658l235 658h330l-420 -1057q-76 -195 -191.5 -289t-277.5 -94q-49 0 -93 8t-87 27l-60 282l4 4q47 -25 89.5 -36t85.5 -11q84 0 138 39t89 123zM530 1223l174 379h371v-5l-397 -374h-148z" />
<glyph unicode="&#xfe;" horiz-adv-x="1300" d="M137 -387v1857l312 82v-645q78 84 156.5 122t174.5 38q193 0 322 -148.5t129 -371.5q0 -244 -147.5 -403.5t-364.5 -159.5q-72 0 -138.5 24.5t-131.5 75.5v-471h-312zM449 299q53 -31 103 -44t103 -13q121 0 198 79.5t77 206.5q0 125 -72 202t-184 77q-57 0 -110.5 -18.5 t-114.5 -57.5v-432z" />
<glyph unicode="&#xff;" horiz-adv-x="1212" d="M27 1047h335l259 -658l235 658h330l-420 -1057q-76 -195 -191.5 -289t-277.5 -94q-49 0 -93 8t-87 27l-60 282l4 4q47 -25 89.5 -36t85.5 -11q84 0 138 39t89 123zM206 1384q0 72 50.5 120t124.5 48t124 -48t50 -120t-50 -121t-124 -49t-124.5 49.5t-50.5 120.5z M669 1384q0 72 50.5 120t123.5 48q74 0 124.5 -48t50.5 -120t-50.5 -121t-124.5 -49t-124 49.5t-50 120.5z" />
<glyph unicode="&#x152;" horiz-adv-x="2101" d="M88 713q0 328 225.5 524.5t601.5 196.5h1029l59 -281h-641v-303h530v-252h-530v-317h647l-59 -281h-1035q-387 0 -607 189.5t-220 523.5zM426 717q0 -205 133 -319.5t369 -114.5h108v868h-112q-227 0 -362.5 -116.5t-135.5 -317.5z" />
<glyph unicode="&#x153;" horiz-adv-x="1996" d="M68 522q0 231 157.5 392t395.5 161q131 0 239.5 -49t183.5 -143q74 94 176.5 143t223.5 49q223 0 352 -149.5t129 -397.5q0 -23 -2 -49t-4 -39h-721q25 -104 106.5 -161.5t208.5 -57.5q94 0 188.5 25.5t194.5 77.5l7 -5l-82 -260q-92 -45 -173.5 -63.5t-177.5 -18.5 q-137 0 -247.5 48.5t-182.5 140.5q-78 -94 -188.5 -144.5t-241.5 -50.5q-236 0 -389 159t-153 392zM369 522q0 -123 75.5 -204.5t188.5 -81.5q115 0 190.5 82.5t75.5 207.5q0 123 -74.5 204t-189.5 81q-117 0 -191.5 -82t-74.5 -207zM1196 616h442q-10 109 -67.5 172.5 t-147.5 63.5q-92 0 -153.5 -64.5t-73.5 -171.5z" />
<glyph unicode="&#x178;" horiz-adv-x="1441" d="M10 1434h383l336 -549l336 549h369l-547 -844v-590h-330v588zM313 1731q0 72 51.5 121t125.5 49t124 -49.5t50 -120.5q0 -74 -50.5 -123t-123.5 -49q-74 0 -125.5 49t-51.5 123zM778 1731q0 72 50 121t124 49t125.5 -49.5t51.5 -120.5q0 -74 -51.5 -123t-125.5 -49 t-124 49t-50 123z" />
<glyph unicode="&#x2c6;" horiz-adv-x="1024" d="M111 1223v4l270 375h262l270 -375v-4h-153l-246 176l-248 -176h-155z" />
<glyph unicode="&#x2dc;" horiz-adv-x="1024" d="M78 1292q98 170 154.5 226.5t127.5 56.5q25 0 62 -14.5t115 -57.5q63 -37 88.5 -47t42.5 -10q25 0 48 19.5t99 115.5l131 -84q-100 -172 -156.5 -228.5t-125.5 -56.5q-25 0 -62 14.5t-115 59.5q-63 35 -88.5 46t-42.5 11q-25 0 -48 -19t-99 -116z" />
<glyph unicode="&#x2000;" horiz-adv-x="955" />
<glyph unicode="&#x2001;" horiz-adv-x="1911" />
<glyph unicode="&#x2002;" horiz-adv-x="955" />
<glyph unicode="&#x2003;" horiz-adv-x="1911" />
<glyph unicode="&#x2004;" horiz-adv-x="637" />
<glyph unicode="&#x2005;" horiz-adv-x="477" />
<glyph unicode="&#x2006;" horiz-adv-x="318" />
<glyph unicode="&#x2007;" horiz-adv-x="318" />
<glyph unicode="&#x2008;" horiz-adv-x="238" />
<glyph unicode="&#x2009;" horiz-adv-x="382" />
<glyph unicode="&#x200a;" horiz-adv-x="106" />
<glyph unicode="&#x2010;" horiz-adv-x="819" d="M109 432v277h602v-277h-602z" />
<glyph unicode="&#x2011;" horiz-adv-x="819" d="M109 432v277h602v-277h-602z" />
<glyph unicode="&#x2012;" horiz-adv-x="819" d="M109 432v277h602v-277h-602z" />
<glyph unicode="&#x2013;" horiz-adv-x="1146" d="M109 436v269h929v-269h-929z" />
<glyph unicode="&#x2014;" horiz-adv-x="1925" d="M109 436v269h1708v-269h-1708z" />
<glyph unicode="&#x2018;" horiz-adv-x="526" d="M61 1026q0 92 74 191.5t248 234.5l94 -68q-82 -117 -109.5 -179.5t-27.5 -121.5q0 -53 21.5 -105t101.5 -183h-324q-41 68 -59.5 121t-18.5 110z" />
<glyph unicode="&#x2019;" horiz-adv-x="526" d="M49 844q82 115 109.5 178.5t27.5 122.5q0 53 -21.5 105.5t-101.5 183.5h324q41 -68 59.5 -121t18.5 -111q0 -92 -74 -191.5t-248 -234.5z" />
<glyph unicode="&#x201a;" horiz-adv-x="495" d="M22 -352q82 115 109.5 178.5t27.5 122.5q0 53 -21.5 105.5t-101.5 183.5h324q41 -68 59.5 -121t18.5 -111q0 -92 -74 -191.5t-248 -234.5z" />
<glyph unicode="&#x201c;" horiz-adv-x="987" d="M61 1026q0 92 74 191.5t248 234.5l86 -59q-84 -121 -110.5 -184t-26.5 -122q0 -53 20.5 -106t102.5 -186h-316q-41 68 -59.5 121t-18.5 110zM530 1026q0 92 74 191.5t248 234.5l86 -59q-84 -121 -110.5 -184t-26.5 -122q0 -53 20.5 -106t102.5 -186h-316 q-41 63 -59.5 117.5t-18.5 113.5z" />
<glyph unicode="&#x201d;" horiz-adv-x="987" d="M49 844q82 115 109.5 178.5t27.5 122.5q0 53 -21.5 105.5t-101.5 183.5h316q41 -63 59.5 -117.5t18.5 -114.5q0 -92 -74 -191.5t-248 -234.5zM518 844q82 115 109.5 178.5t27.5 122.5q0 53 -21.5 105.5t-101.5 183.5h316q41 -68 59.5 -121t18.5 -111q0 -92 -74 -191.5 t-248 -234.5z" />
<glyph unicode="&#x201e;" horiz-adv-x="956" d="M20 -352q82 115 109.5 178.5t27.5 122.5q0 53 -21.5 105.5t-101.5 183.5h316q41 -63 59.5 -117.5t18.5 -114.5q0 -92 -74 -191.5t-248 -234.5zM489 -352q82 115 109.5 178.5t27.5 122.5q0 53 -21.5 105.5t-101.5 183.5h316q41 -68 59.5 -121t18.5 -111q0 -92 -74 -191.5 t-248 -234.5z" />
<glyph unicode="&#x2022;" horiz-adv-x="1103" d="M188 717q0 150 106.5 256t258.5 106q150 0 256 -106.5t106 -255.5q0 -150 -106 -256.5t-256 -106.5q-152 0 -258.5 106.5t-106.5 256.5z" />
<glyph unicode="&#x2026;" horiz-adv-x="1443" d="M57 168q0 76 54.5 131t132.5 55t133 -55t55 -131q0 -78 -55 -133t-133 -55t-132.5 55t-54.5 133zM535 168q0 76 55 131t133 55t132 -55t54 -131q0 -78 -54 -133t-132 -55t-133 55t-55 133zM1014 168q0 76 54 131t132 55t133.5 -55t55.5 -131q0 -78 -55.5 -133t-133.5 -55 t-132 55t-54 133z" />
<glyph unicode="&#x202f;" horiz-adv-x="382" />
<glyph unicode="&#x2039;" horiz-adv-x="815" d="M66 498v53l559 516l102 -66l-311 -475l311 -479l-102 -65z" />
<glyph unicode="&#x203a;" horiz-adv-x="815" d="M86 47l313 475l-313 479l104 66l560 -516v-53l-560 -516z" />
<glyph unicode="&#x205f;" horiz-adv-x="477" />
<glyph unicode="&#x20ac;" horiz-adv-x="1400" d="M47 481v172h193q-2 10 -2 23.5v38.5v43t2 26h-193v172h219q57 236 223 369t402 133q113 0 206 -23.5t187 -76.5v-320h-4q-109 76 -192.5 107t-172.5 31q-125 0 -207.5 -59.5t-117.5 -174.5h481v-158h-504v-131h504v-157h-483q33 -117 118 -177.5t212 -60.5 q104 0 188 26.5t188 94.5h4l-36 -309q-88 -51 -174 -73t-201 -22q-248 0 -410 131.5t-215 374.5h-215z" />
<glyph unicode="&#x2122;" horiz-adv-x="2070" d="M51 1253v181h742v-181h-271v-626h-200v626h-271zM918 627v807h290l219 -449l220 449h288v-807h-196v575l-303 -590h-23l-301 584v-569h-194z" />
<glyph unicode="&#x25fc;" horiz-adv-x="1044" d="M0 0v1044h1044v-1044h-1044z" />
<glyph unicode="&#xfb03;" horiz-adv-x="2377" d="M61 805v242h168v102q0 188 104.5 294.5t289.5 106.5q63 0 114 -9t109 -30l35 -249l-7 -5q-55 27 -97 37.5t-85 10.5q-76 0 -119 -42t-43 -116v-100h326v-242h-319v-805h-308v805h-168zM950 805v242h168v102q0 188 104.5 294.5t289.5 106.5q63 0 114 -9t109 -30l35 -249 l-7 -5q-55 27 -97 37.5t-85 10.5q-76 0 -119 -42t-43 -116v-100h326v-242h-319v-805h-308v805h-168zM1891 1393q0 76 54 127t134 51t134 -51.5t54 -126.5q0 -76 -54 -127.5t-134 -51.5t-134 51.5t-54 127.5zM1923 0v1047h310v-1047h-310z" />
<glyph unicode="&#xfb04;" horiz-adv-x="2377" d="M61 805v242h168v102q0 188 104.5 294.5t289.5 106.5q63 0 114 -9t109 -30l35 -249l-7 -5q-55 27 -97 37.5t-85 10.5q-76 0 -119 -42t-43 -116v-100h326v-242h-319v-805h-308v805h-168zM950 805v242h168v102q0 188 104.5 294.5t289.5 106.5q63 0 114 -9t109 -30l35 -249 l-7 -5q-55 27 -97 37.5t-85 10.5q-76 0 -119 -42t-43 -116v-100h326v-242h-319v-805h-308v805h-168zM1923 0v1470l310 82v-1552h-310z" />
</font>
</defs>
</svg>
