<?xml version="1.0" standalone="no"?>
<!DOCTYPE svg PUBLIC "-//W3C//DTD SVG 1.1//EN" "http://www.w3.org/Graphics/SVG/1.1/DTD/svg11.dtd" >
<svg xmlns="http://www.w3.org/2000/svg">
<metadata></metadata>
<defs>
<font id="mallory_bolditalic" horiz-adv-x="1228" >
<font-face units-per-em="2048" ascent="1638" descent="-410" />
<missing-glyph horiz-adv-x="448" />
<glyph unicode="&#xfb01;" horiz-adv-x="1482" d="M98 0l201 805h-168l59 242h168l29 114q49 193 169 291t306 98q55 0 104.5 -8t94.5 -24l20 -252l-6 -4q-45 23 -88 33t-92 10q-84 0 -139.5 -46.5t-75.5 -136.5l-18 -75h323l-59 -242h-320l-198 -805h-310zM901 0l260 1047h310l-260 -1047h-310zM1211 1386q0 78 56 131.5 t138 53.5q78 0 130 -49t52 -123q0 -78 -56 -131.5t-138 -53.5q-78 0 -130 49.5t-52 122.5z" />
<glyph unicode="&#xfb02;" horiz-adv-x="1482" d="M98 0l201 805h-168l59 242h168l29 114q49 193 169 291t306 98q55 0 104.5 -8t94.5 -24l20 -252l-6 -4q-45 23 -88 33t-92 10q-84 0 -139.5 -46.5t-75.5 -136.5l-18 -75h323l-59 -242h-320l-198 -805h-310zM901 0l365 1466l332 86l-387 -1552h-310z" />
<glyph horiz-adv-x="0" />
<glyph horiz-adv-x="0" />
<glyph horiz-adv-x="682" />
<glyph unicode="&#xd;" horiz-adv-x="681" />
<glyph unicode=" "  horiz-adv-x="448" />
<glyph unicode="&#x09;" horiz-adv-x="448" />
<glyph unicode="&#xa0;" horiz-adv-x="448" />
<glyph unicode="!" horiz-adv-x="585" d="M71 158q-1 51 35 92q39 45 95.5 49t99.5 -33q39 -35 40 -86t-36 -94q-39 -45 -95 -49t-99 33q-39 37 -40 88zM221 510l78 774l39 150h364l-36 -152l-310 -772h-135z" />
<glyph unicode="&#x22;" horiz-adv-x="1060" d="M156 850l282 584h357l-512 -623zM625 850l282 584h357l-512 -623z" />
<glyph unicode="#" horiz-adv-x="1419" d="M49 297l70 274h229l76 291h-234l70 275h236l77 301h203l-78 -301h353l77 301h203l-78 -301h213l-69 -275h-215l-78 -291h223l-70 -274h-225l-78 -301h-202l77 301h-352l-78 -301h-200l77 301h-227zM549 567h352l78 299h-352z" />
<glyph unicode="$" horiz-adv-x="1210" d="M39 473l4 2q119 -104 255 -159.5t271 -55.5q100 0 161 41t61 109q0 59 -48.5 102t-162.5 88q-186 74 -272.5 172t-86.5 236q0 188 144.5 307t379.5 123l58 229h217l-62 -250q76 -16 151 -45t142 -67l-32 -287l-5 -2q-113 76 -230.5 117t-227.5 41q-98 0 -155.5 -39 t-57.5 -103q0 -57 47 -99t164 -87q186 -74 272 -171t86 -239q0 -190 -137.5 -309t-370.5 -131l-69 -281h-218l76 297q-94 18 -180 52t-156 81z" />
<glyph unicode="%" horiz-adv-x="1957" d="M199 973q0 209 121.5 349t300.5 140q145 0 233 -94t88 -250q0 -209 -122 -350t-300 -141q-145 0 -233 94t-88 252zM291 -4l674 768l573 674h227l-673 -768l-574 -674h-227zM420 987q0 -78 29.5 -120t85.5 -42q76 0 132 83t56 200q0 76 -30.5 118t-86.5 42q-74 0 -130 -82 t-56 -199zM1114 315q0 209 123 350.5t301 141.5q143 0 231.5 -94t88.5 -252q0 -209 -122 -349.5t-300 -140.5q-143 0 -232.5 94.5t-89.5 249.5zM1335 330q0 -78 30 -120t85 -42q76 0 132 83t56 200q0 78 -30.5 119.5t-85.5 41.5q-74 0 -130.5 -83t-56.5 -199z" />
<glyph unicode="&#x26;" horiz-adv-x="1507" d="M35 344q0 154 105.5 265.5t320.5 189.5q-25 68 -38 128t-13 113q0 188 124.5 305t327.5 117q170 0 276.5 -91t106.5 -234q0 -139 -105.5 -245t-326.5 -187q35 -55 72 -111.5t80 -116.5q53 49 114.5 115.5t139.5 157.5h294v-7q-123 -145 -225 -253.5t-190 -188.5 q45 -57 104.5 -127t143.5 -168l-3 -6h-335q-63 74 -83 95.5t-36 39.5q-117 -78 -226.5 -115.5t-226.5 -37.5q-182 0 -291.5 99t-109.5 263zM332 373q0 -72 45 -113t121 -41q57 0 120.5 21.5t133.5 66.5q-63 84 -111.5 157t-87.5 140q-115 -45 -168 -101t-53 -130zM688 1044 q0 -45 9.5 -87t27.5 -87q141 55 204.5 111.5t63.5 130.5q0 57 -36 92t-93 35q-76 0 -126 -55.5t-50 -139.5z" />
<glyph unicode="'" horiz-adv-x="600" d="M156 850l282 584h365l-514 -623z" />
<glyph unicode="(" horiz-adv-x="901" d="M154 477q0 334 218 601t654 468l70 -94q-328 -227 -482.5 -472t-154.5 -534q0 -172 52 -332.5t167 -338.5l-92 -72q-217 182 -324.5 375.5t-107.5 398.5z" />
<glyph unicode=")" horiz-adv-x="901" d="M-143 -203q328 227 482.5 472t154.5 534q0 172 -51.5 331.5t-166.5 340.5l91 71q217 -182 324.5 -375.5t107.5 -398.5q0 -334 -218.5 -601t-654.5 -468z" />
<glyph unicode="*" horiz-adv-x="1112" d="M209 1090l174 276l219 -301l-24 -41zM229 836l357 116l28 -34l-174 -332zM623 1464l315 -80l-221 -303l-43 11zM686 524v375l43 19l260 -273zM766 1022l338 166l24 -328l-356 115z" />
<glyph unicode="+" d="M100 588l64 258h397l101 405h268l-101 -405h396l-66 -258h-395l-102 -414h-269l103 414h-396z" />
<glyph unicode="," horiz-adv-x="497" d="M-242 -281q125 109 184.5 216.5t108.5 304.5l21 86h299q-59 -242 -169 -387t-376 -299z" />
<glyph unicode="-" horiz-adv-x="819" d="M86 432l70 277h600l-68 -277h-602z" />
<glyph unicode="." horiz-adv-x="497" d="M-31 164q0 84 58.5 142.5t140.5 58.5q78 0 131 -53.5t53 -131.5q0 -84 -57 -142t-139 -58q-78 0 -132.5 53t-54.5 131z" />
<glyph unicode="/" horiz-adv-x="987" d="M-217 -266l1157 1782h248l-1155 -1782h-250z" />
<glyph unicode="0" horiz-adv-x="1421" d="M141 555q0 174 46 329.5t135 278.5q102 143 243.5 221t298.5 78q238 0 375 -156.5t137 -426.5q0 -174 -46 -330t-134 -279q-102 -143 -243.5 -221t-299.5 -78q-238 0 -375 157t-137 427zM457 555q0 -145 57 -223t162 -78q152 0 267.5 185.5t115.5 439.5q0 147 -56.5 224 t-162.5 77q-152 0 -267.5 -186.5t-115.5 -438.5z" />
<glyph unicode="1" horiz-adv-x="929" d="M141 762l84 342l717 360l33 -10l-363 -1454h-317l237 958l-387 -198z" />
<glyph unicode="2" horiz-adv-x="1206" d="M-14 0l8 150l641 575q129 121 175 187.5t46 127.5q0 59 -39 92t-110 33q-106 0 -232.5 -67.5t-257.5 -194.5l-4 2l61 367q109 90 233 137t253 47q186 0 301 -100.5t115 -263.5q0 -125 -78 -246t-264 -283l-328 -289l579 5l-174 -279h-925z" />
<glyph unicode="3" horiz-adv-x="1150" d="M53 88v307l4 2q96 -74 199.5 -112.5t202.5 -38.5q113 0 181.5 49t68.5 131q0 84 -86 138t-289 104l20 100q258 74 375 144.5t117 156.5q0 55 -45 87t-125 32q-100 0 -213 -39t-227 -113l-7 2l74 299q111 59 219.5 88t220.5 29q190 0 306 -88t116 -240q0 -135 -92 -237.5 t-272 -169.5q109 -43 168 -126.5t59 -189.5q0 -188 -152.5 -307t-392.5 -119q-125 0 -230.5 27t-199.5 84z" />
<glyph unicode="4" horiz-adv-x="1323" d="M-8 371l919 1073h365l-227 -914h221l-62 -239h-219l-71 -291h-302l74 291h-692zM418 530h338l143 588z" />
<glyph unicode="5" horiz-adv-x="1204" d="M63 78v293l5 2q98 -66 197.5 -98.5t199.5 -32.5q129 0 215 68.5t86 172.5q0 88 -63.5 136.5t-178.5 48.5q-74 0 -150.5 -10.5t-174.5 -32.5l-23 14l250 795h852l-70 -277h-610l-84 -264q33 6 67.5 9t69.5 3q197 2 318 -108.5t121 -296.5q0 -236 -171 -380.5t-454 -144.5 q-109 0 -211 27t-191 76z" />
<glyph unicode="6" horiz-adv-x="1275" d="M92 451q0 158 87 314.5t304 385.5l271 283h405l-450 -443l-24.5 -24.5t-14.5 -16.5q8 2 17 2h28q207 0 338 -122.5t131 -317.5q0 -225 -165 -383t-409 -158q-236 0 -377 130t-141 350zM403 461q0 -102 61.5 -163.5t162.5 -61.5q102 0 173.5 75.5t71.5 177.5 q0 109 -72.5 167.5t-209.5 58.5q-16 0 -38 -1t-65 -3q-45 -70 -64.5 -129.5t-19.5 -120.5z" />
<glyph unicode="7" horiz-adv-x="1226" d="M119 0l786 1155h-680l127 279h1051l8 -29l-940 -1405h-352z" />
<glyph unicode="8" horiz-adv-x="1302" d="M72 365q0 135 90 238.5t252 154.5q-72 47 -110 118.5t-38 157.5q0 186 150.5 305t390.5 119q211 0 342 -106.5t131 -276.5q0 -123 -76 -219t-211 -149q86 -51 133.5 -130.5t47.5 -177.5q0 -193 -160 -309.5t-426 -114.5q-240 2 -378 107.5t-138 282.5zM389 399 q0 -82 61.5 -133t159.5 -51q106 0 177 62.5t71 154.5q0 84 -58.5 134t-158.5 50q-106 0 -179 -62t-73 -155zM569 1014q0 -78 52.5 -127t134.5 -49q94 0 156.5 60t62.5 151q0 76 -51.5 123t-135.5 47q-94 0 -156.5 -58.5t-62.5 -146.5z" />
<glyph unicode="9" horiz-adv-x="1275" d="M186 911q0 229 166 389t408 160q238 0 378 -130t140 -351q0 -156 -87 -311.5t-304 -384.5l-271 -283h-405l451 442l20 21h-27q-207 0 -338 125t-131 323zM498 934q0 -113 72.5 -173.5t209.5 -60.5q16 0 36 1t52 4q53 74 76 136t23 130q0 102 -60.5 164.5t-161.5 62.5 q-102 0 -174.5 -76.5t-72.5 -187.5z" />
<glyph unicode=":" horiz-adv-x="540" d="M-6 164q0 84 57.5 142.5t138.5 58.5q78 0 132.5 -53.5t54.5 -131.5q0 -84 -58.5 -142t-140.5 -58q-78 0 -131 53t-53 131zM164 866q0 84 58.5 142.5t139.5 58.5q78 0 131.5 -53t53.5 -131q0 -84 -57.5 -142.5t-139.5 -58.5q-78 0 -132 53t-54 131z" />
<glyph unicode=";" horiz-adv-x="540" d="M-229 -281q125 109 184 216.5t108 304.5l21 86h299q-59 -242 -169 -387t-376 -299zM170 866q0 82 58.5 140.5t140.5 58.5q78 0 131 -53.5t53 -130.5q0 -82 -57.5 -140.5t-139.5 -58.5q-80 0 -133 52t-53 132z" />
<glyph unicode="&#x3c;" d="M131 635l41 164l1122 469l-73 -293l-707 -275l571 -272l-65 -260z" />
<glyph unicode="=" d="M66 391l57 232h1030l-57 -232h-1030zM172 811l57 231h1028l-57 -231h-1028z" />
<glyph unicode="&#x3e;" d="M31 168l73 293l705 274l-569 273l65 260l889 -467l-41 -166z" />
<glyph unicode="?" horiz-adv-x="1013" d="M197 1008l79 315q88 63 198 97t226 34q172 0 278.5 -86t106.5 -223q0 -127 -76.5 -217t-250.5 -166q-133 -57 -182.5 -96t-49.5 -86q0 -16 4.5 -30.5t16.5 -39.5h-162q-37 43 -54.5 84t-17.5 80q0 84 69 150.5t218 129.5q106 47 147 80t41 76q0 39 -34.5 61.5t-91.5 22.5 q-102 0 -219 -48t-240 -140zM223 158q0 51 37 92q37 45 94.5 49t100.5 -33q39 -35 39 -87t-37 -93q-37 -45 -94.5 -49t-100.5 33q-39 37 -39 88z" />
<glyph unicode="@" horiz-adv-x="2070" d="M92 414q0 213 87 416.5t243 363.5q158 160 359.5 246t420.5 86q365 0 589 -210t224 -548q0 -289 -155.5 -475.5t-395.5 -186.5q-117 0 -191.5 46.5t-90.5 128.5q-109 -94 -191 -133t-170 -39q-129 0 -204.5 88t-75.5 237q0 119 48 232.5t136 201.5q86 88 198.5 134.5 t237.5 46.5q68 0 132.5 -17.5t121.5 -50.5l86 51h98l-151 -618q-6 -29 -8 -47.5t-2 -32.5q0 -51 35.5 -82t95.5 -31q152 0 263.5 159t111.5 384q0 317 -203 506.5t-543 189.5q-203 0 -390 -82t-335 -231q-145 -150 -226 -340.5t-81 -388.5q0 -346 213 -538.5t594 -192.5 q166 0 311.5 26.5t286.5 81.5v-71q-150 -53 -294 -78t-308 -25q-408 0 -642.5 212t-234.5 581zM803 481q0 -72 38 -108.5t109 -36.5q51 0 107.5 21.5t128.5 70.5l92 375q-29 12 -58.5 17t-62.5 5q-150 0 -252 -102.5t-102 -241.5z" />
<glyph unicode="A" horiz-adv-x="1654" d="M-94 0l973 1438h354l256 -1438h-332l-45 295h-647l-193 -295h-366zM631 559h446l-88 547z" />
<glyph unicode="B" horiz-adv-x="1312" d="M31 0l356 1434h467q215 0 336 -93.5t121 -255.5q0 -117 -75 -212t-212 -152q86 -45 131 -118t45 -165q0 -199 -171 -318.5t-458 -119.5h-540zM408 254h186q129 0 206 55.5t77 149.5q0 72 -52.5 112.5t-144.5 40.5h-184zM553 840h172q121 0 195.5 54t74.5 140 q0 68 -49 107t-137 39h-172z" />
<glyph unicode="C" horiz-adv-x="1425" d="M135 610q0 174 62.5 330t179.5 272q117 119 272.5 182.5t327.5 63.5q152 0 275.5 -49t230.5 -149l-72 -340h-6q-96 117 -202.5 175t-227.5 58q-203 0 -352.5 -151.5t-149.5 -362.5q0 -160 102.5 -259t270.5 -99q117 0 235.5 49t249.5 151l8 -6l-155 -393 q-88 -53 -192.5 -80t-219.5 -27q-289 0 -463 173.5t-174 461.5z" />
<glyph unicode="D" horiz-adv-x="1587" d="M31 0l356 1434h440q344 0 535.5 -160t191.5 -447q0 -371 -276 -599t-725 -228h-522zM434 289h152q272 0 451.5 144.5t179.5 365.5q0 166 -114 256t-323 90h-133z" />
<glyph unicode="E" horiz-adv-x="1216" d="M31 0l356 1434h936l-70 -281h-610l-76 -303h510l-63 -252h-508l-80 -317h653l-133 -281h-915z" />
<glyph unicode="F" horiz-adv-x="1157" d="M31 0l356 1434h868l11 -287h-621l-84 -340h477l-67 -270h-477l-134 -537h-329z" />
<glyph unicode="G" horiz-adv-x="1589" d="M133 600q0 377 261 615.5t671 238.5q147 0 283.5 -32.5t248.5 -96.5l-77 -301q-111 66 -228.5 98.5t-244.5 32.5q-244 0 -409 -151.5t-165 -378.5q0 -168 102.5 -263.5t282.5 -95.5q57 0 109.5 8.5t103.5 24.5l66 248h-330l59 237h635l-176 -686q-123 -57 -258 -87.5 t-270 -30.5q-301 0 -482.5 169.5t-181.5 450.5z" />
<glyph unicode="H" horiz-adv-x="1644" d="M31 0l356 1434h330l-137 -555h661l137 555h330l-356 -1434h-330l143 575h-661l-144 -575h-329z" />
<glyph unicode="I" horiz-adv-x="669" d="M39 0l356 1434h330l-356 -1434h-330z" />
<glyph unicode="J" horiz-adv-x="997" d="M16 401l7 2q59 -63 123.5 -93.5t136.5 -30.5q86 0 142 48t79 140l239 967h330l-262 -1063q-51 -197 -174 -293t-322 -96q-84 0 -156.5 22.5t-129.5 67.5z" />
<glyph unicode="K" horiz-adv-x="1486" d="M31 0l356 1434h330l-144 -574h45l639 574h424v-7l-827 -720l481 -703v-4h-389l-395 600h-41l-150 -600h-329z" />
<glyph unicode="L" horiz-adv-x="1132" d="M31 0l356 1434h330l-283 -1137h574l-74 -297h-903z" />
<glyph unicode="M" horiz-adv-x="2103" d="M-16 0l452 1434h426l189 -846l612 846h459l-262 -1434h-318l197 1049l-811 -1069h-29l-268 1075l-328 -1055h-319z" />
<glyph unicode="N" horiz-adv-x="1673" d="M31 0l356 1434h320l497 -848l209 848h324l-357 -1440h-211l-575 981l-240 -975h-323z" />
<glyph unicode="O" horiz-adv-x="1691" d="M135 610q0 174 63.5 330t182.5 274q121 119 277.5 183.5t326.5 64.5q295 0 481.5 -178t186.5 -461q0 -174 -63.5 -329.5t-182.5 -274.5q-121 -119 -277.5 -183.5t-326.5 -64.5q-295 0 -481.5 178.5t-186.5 460.5zM473 635q0 -164 99.5 -264.5t256.5 -100.5 q197 0 341.5 155t144.5 374q0 164 -99.5 264t-259.5 100q-197 0 -340 -154.5t-143 -373.5z" />
<glyph unicode="P" horiz-adv-x="1273" d="M31 0l356 1434h436q229 0 364.5 -113.5t135.5 -308.5q0 -250 -185.5 -403.5t-490.5 -153.5h-174l-113 -455h-329zM535 719h157q133 0 219 73.5t86 186.5q0 88 -57 135t-166 47h-129z" />
<glyph unicode="Q" horiz-adv-x="1691" d="M135 610q0 174 63.5 330t182.5 274q121 119 277.5 183.5t326.5 64.5q295 0 481.5 -177t186.5 -458q0 -272 -153.5 -483t-407.5 -299q51 -55 93 -75.5t101 -20.5q41 0 83 8t89 25l4 -7l-129 -254q-43 -12 -88 -19t-90 -7q-160 0 -255 62.5t-212 230.5 q-252 35 -402.5 203.5t-150.5 418.5zM473 635q0 -164 99.5 -264.5t256.5 -100.5q197 0 341.5 155t144.5 374q0 164 -99.5 264t-259.5 100q-197 0 -340 -154.5t-143 -373.5z" />
<glyph unicode="R" horiz-adv-x="1363" d="M31 0l356 1434h442q229 0 360.5 -105.5t131.5 -292.5q0 -168 -110.5 -296t-301.5 -183l363 -557h-369l-330 520h-81l-132 -520h-329zM545 762h160q127 0 207.5 66.5t80.5 172.5q0 80 -53 123t-152 43h-141z" />
<glyph unicode="S" horiz-adv-x="1163" d="M45 487l6 5q117 -115 243 -177.5t243 -62.5q90 0 145 39t55 102q0 53 -38.5 95t-161.5 114q-170 100 -237 193.5t-67 222.5q0 193 145.5 316.5t377.5 123.5q113 0 225.5 -29.5t204.5 -85.5l-33 -311l-4 -2q-98 74 -202.5 113t-198.5 39q-84 0 -137.5 -38t-53.5 -95 q0 -51 41 -93.5t160 -111.5q166 -96 234.5 -190.5t68.5 -225.5q0 -205 -145.5 -329t-383.5 -124q-127 0 -250.5 41t-211.5 113z" />
<glyph unicode="T" horiz-adv-x="1466" d="M219 1137l74 297h1335l-74 -297h-499l-283 -1137h-330l283 1137h-506z" />
<glyph unicode="U" horiz-adv-x="1599" d="M164 494q0 45 8 101t23 120l178 719h329l-188 -762q-10 -39 -14 -73t-4 -64q0 -125 71.5 -195t198.5 -70q141 0 243.5 92.5t143.5 255.5l203 816h323l-215 -867q-74 -295 -259 -443.5t-478 -148.5q-260 0 -411.5 139.5t-151.5 379.5z" />
<glyph unicode="V" horiz-adv-x="1613" d="M262 1434h346l164 -971l658 971h376l-1020 -1457h-237z" />
<glyph unicode="W" horiz-adv-x="2351" d="M285 1434h340l47 -983l686 999h33l231 -995l537 979h364l-827 -1442h-281l-180 788l-541 -788h-303z" />
<glyph unicode="X" horiz-adv-x="1550" d="M-90 0v4l719 741l-342 689h366l226 -465l438 465h407v-4l-700 -717l354 -713h-366l-238 489l-457 -489h-407z" />
<glyph unicode="Y" horiz-adv-x="1429" d="M236 1434h352l200 -555l467 555h390v-4l-756 -855l-144 -575h-329l147 596z" />
<glyph unicode="Z" horiz-adv-x="1447" d="M-61 31l1022 1114h-705l74 289h1251l10 -31l-1022 -1114h772l-167 -289h-1223z" />
<glyph unicode="[" horiz-adv-x="866" d="M-18 -266l442 1782h604l-8 -193h-358l-347 -1397h361l-78 -192h-616z" />
<glyph unicode="\" horiz-adv-x="987" d="M299 1516h217l287 -1782h-215z" />
<glyph unicode="]" horiz-adv-x="866" d="M-111 -266l7 192h358l348 1397h-362l77 193h617l-442 -1782h-603z" />
<glyph unicode="^" d="M102 686l664 787h160l272 -787h-268l-150 455l-374 -455h-304z" />
<glyph unicode="_" horiz-adv-x="1292" d="M-219 -334l45 184h1307l-48 -184h-1304z" />
<glyph unicode="`" horiz-adv-x="1024" d="M332 1602h336l82 -379h-134z" />
<glyph unicode="a" horiz-adv-x="1159" d="M8 244q0 170 157 265t437 95q47 0 88 -2t74 -6q2 27 3 35t1 16q0 80 -50 124t-143 44q-84 0 -178 -28.5t-204 -88.5l-5 4l107 287q88 41 175 59.5t187 18.5q195 0 306.5 -101.5t111.5 -275.5q0 -47 -6 -94t-22 -107l-123 -466l-310 -41l41 153q-98 -78 -189 -115.5 t-179 -37.5q-127 0 -203 70.5t-76 191.5zM293 295q0 -47 32.5 -73.5t88.5 -26.5q63 0 128.5 21.5t143.5 66.5l45 170q-27 2 -53.5 4t-52.5 2q-158 0 -245 -44t-87 -120z" />
<glyph unicode="b" horiz-adv-x="1277" d="M4 -2l365 1468l331 86l-159 -641q82 80 161.5 118t169.5 38q152 0 247 -112.5t95 -297.5q0 -143 -48 -267t-140 -214q-94 -94 -215 -142t-260 -48q-74 0 -148.5 14t-146.5 43l-229 -49zM381 268q39 -14 81 -20t91 -6q152 0 256 105.5t104 260.5q0 94 -49 147.5t-137 53.5 q-55 0 -111.5 -19.5t-119.5 -60.5z" />
<glyph unicode="c" horiz-adv-x="1060" d="M66 426q0 279 183 462t456 183q96 0 185 -28.5t165 -84.5l-62 -294h-4q-66 66 -138.5 98.5t-152.5 32.5q-133 0 -229 -97.5t-96 -232.5q0 -100 61.5 -156.5t171.5 -56.5q84 0 173 32.5t169 92.5l6 -4l-129 -330q-63 -33 -139 -50.5t-156 -17.5q-209 0 -336.5 124 t-127.5 327z" />
<glyph unicode="d" horiz-adv-x="1288" d="M63 391q0 143 50.5 269t142.5 219q92 90 205.5 137t240.5 47q70 0 135.5 -14.5t127.5 -42.5l114 460l332 86l-387 -1552h-303l37 150q-84 -88 -169 -129t-179 -41q-154 0 -250.5 112.5t-96.5 298.5zM365 438q0 -94 50 -146t140 -52q55 0 113.5 19.5t124.5 62.5l110 436 q-43 23 -90 35t-98 12q-145 0 -247.5 -106.5t-102.5 -260.5z" />
<glyph unicode="e" horiz-adv-x="1161" d="M66 432q0 270 185 456.5t449 186.5q186 0 298 -110.5t112 -296.5q0 -57 -9 -115.5t-26 -112.5h-725q8 -109 75 -164t187 -55q90 0 182.5 22.5t186.5 65.5l4 -2l-59 -244q-90 -43 -188.5 -64.5t-202.5 -21.5q-213 0 -341 124t-128 331zM387 616h444q2 6 2.5 14.5t0.5 22.5 q0 96 -43 147.5t-123 51.5q-84 0 -163 -66.5t-118 -169.5z" />
<glyph unicode="f" horiz-adv-x="888" d="M98 0l201 805h-168l59 242h168l29 114q49 193 169 291t306 98q55 0 104.5 -8t94.5 -24l20 -252l-6 -4q-45 23 -88 33t-92 10q-84 0 -139.5 -46.5t-75.5 -136.5l-18 -75h323l-59 -242h-320l-198 -805h-310z" />
<glyph unicode="g" horiz-adv-x="1288" d="M-27 -8l7 4q100 -70 205.5 -104.5t211.5 -34.5q139 0 225.5 60t122.5 183l31 103q-84 -78 -169 -116t-179 -38q-160 0 -258 105.5t-98 279.5q0 272 188.5 450.5t474.5 178.5q82 0 157 -14.5t148 -42.5l222 49l24 -6l-248 -990q-55 -229 -211.5 -343.5t-410.5 -114.5 q-109 0 -213.5 25.5t-192.5 72.5zM373 467q0 -86 47 -133t135 -47q61 0 123.5 22.5t134.5 71.5l98 395q-39 16 -82 24.5t-92 8.5q-152 0 -258 -99.5t-106 -242.5z" />
<glyph unicode="h" horiz-adv-x="1265" d="M4 0l365 1466l331 86l-163 -659q86 92 168.5 135t173.5 43q135 0 220 -86t85 -227q0 -43 -8.5 -94.5t-26.5 -124.5l-133 -539h-311l143 573q6 27 10 51t4 42q0 63 -35.5 98t-99.5 35q-53 0 -112.5 -24.5t-127.5 -74.5l-174 -700h-309z" />
<glyph unicode="i" horiz-adv-x="593" d="M12 0l260 1047h310l-260 -1047h-310zM322 1386q0 78 56 131.5t138 53.5q78 0 130 -49t52 -123q0 -78 -56 -131.5t-138 -53.5q-78 0 -130 49.5t-52 122.5z" />
<glyph unicode="j" horiz-adv-x="593" d="M-276 -158l4 4q18 -8 39.5 -11t46.5 -3q84 0 131 38t67 122l262 1055h310l-269 -1082q-47 -186 -148 -272t-276 -86q-35 0 -67.5 5t-61.5 13zM324 1386q0 78 55 131.5t137 53.5q78 0 130 -49t52 -123q0 -78 -55 -131.5t-137 -53.5q-78 0 -130 49.5t-52 122.5z" />
<glyph unicode="k" horiz-adv-x="1196" d="M4 0l365 1466l331 86l-229 -923h45l404 418h376v-5l-538 -534l297 -506v-2h-344l-242 430h-49l-107 -430h-309z" />
<glyph unicode="l" horiz-adv-x="593" d="M12 0l365 1466l332 86l-387 -1552h-310z" />
<glyph unicode="m" horiz-adv-x="1906" d="M4 0l254 1020l311 41l-43 -172q86 94 166 138t166 44q98 0 172 -52t105 -145q98 100 192 148.5t197 48.5q133 0 217 -87t84 -226q0 -35 -7.5 -81t-27.5 -138l-135 -539h-309l143 573q6 27 10 50.5t4 42.5q0 61 -34.5 97t-92.5 36q-53 0 -108.5 -21.5t-116.5 -64.5 q-2 -31 -9 -69t-24 -105l-133 -539h-309l141 573q6 27 10 51t4 42q0 61 -33.5 97t-92.5 36q-51 0 -103.5 -23.5t-114.5 -70.5l-174 -705h-309z" />
<glyph unicode="n" horiz-adv-x="1265" d="M4 0l254 1020l311 41l-45 -180q88 98 174 144t181 46q135 0 220 -86t85 -227q0 -43 -8.5 -94.5t-26.5 -124.5l-133 -539h-311l143 573q6 27 10 51t4 42q0 63 -35.5 98t-99.5 35q-55 0 -113.5 -24.5t-126.5 -76.5l-174 -698h-309z" />
<glyph unicode="o" horiz-adv-x="1255" d="M68 446q0 266 181 447.5t443 181.5q219 0 357.5 -132t138.5 -341q0 -268 -180.5 -449.5t-444.5 -181.5q-219 0 -357 132.5t-138 342.5zM369 461q0 -102 59 -163.5t156 -61.5q125 0 214 102.5t89 247.5q0 102 -58.5 163.5t-154.5 61.5q-125 0 -215 -102.5t-90 -247.5z" />
<glyph unicode="p" horiz-adv-x="1288" d="M-90 -387l348 1407l313 41l-41 -164q86 88 170 129t179 41q154 0 250 -112.5t96 -297.5q0 -143 -50.5 -269t-142.5 -218q-90 -90 -203.5 -137t-242.5 -47q-70 0 -135.5 14t-124.5 43l-107 -430h-309zM387 289q43 -25 89 -36t97 -11q145 0 248 106.5t103 259.5 q0 94 -51.5 147.5t-139.5 53.5q-57 0 -114.5 -20.5t-122.5 -63.5z" />
<glyph unicode="q" horiz-adv-x="1277" d="M63 391q0 143 48.5 266t140.5 215q94 94 215 142.5t260 48.5q70 0 143.5 -14.5t151.5 -42.5l229 49l25 -6l-358 -1436h-310l129 522q-82 -80 -161.5 -117.5t-169.5 -37.5q-152 0 -247.5 113.5t-95.5 297.5zM365 438q0 -94 49 -146t137 -52q57 0 113.5 19.5t119.5 59.5 l113 459q-39 14 -81 20.5t-91 6.5q-150 0 -255 -106.5t-105 -260.5z" />
<glyph unicode="r" horiz-adv-x="897" d="M4 0l254 1020l311 41l-63 -258q123 145 207 202.5t170 57.5q23 0 43 -3t37 -9l-58 -320q-20 4 -39.5 6t-42.5 2q-78 0 -161.5 -31.5t-198.5 -107.5l-150 -600h-309z" />
<glyph unicode="s" horiz-adv-x="1032" d="M27 369l6 4q90 -78 202.5 -123t215.5 -45q72 0 114.5 23.5t42.5 60.5q0 35 -37 62.5t-133 66.5q-156 61 -222 134t-66 185q0 150 120.5 241t319.5 91q106 0 205.5 -26.5t183.5 -75.5l-23 -258l-6 -2q-92 66 -186 101.5t-182 35.5q-66 0 -105 -22.5t-39 -59.5 q0 -35 34 -61.5t138 -67.5q152 -59 220.5 -134t68.5 -184q0 -154 -123 -246t-325 -92q-113 0 -219.5 30t-184.5 83z" />
<glyph unicode="t" horiz-adv-x="958" d="M127 805l59 242h168l62 221l327 78l-84 -299h351l-62 -242h-358l-101 -356q-6 -20 -9 -41t-3 -39q0 -59 39 -94t105 -35q57 0 112 20.5t111 63.5l6 -5l-92 -288q-55 -27 -115.5 -40.5t-126.5 -13.5q-162 0 -256 89.5t-94 242.5q0 39 6 79t18 81l95 336h-158z" />
<glyph unicode="u" horiz-adv-x="1265" d="M82 289q0 43 8 95t27 124l133 539h311l-143 -574q-8 -29 -11.5 -50.5t-3.5 -39.5q0 -63 36 -99t100 -36q55 0 113.5 24.5t125.5 75.5l174 699h310l-261 -1047h-301l41 168q-90 -98 -176 -144.5t-178 -46.5q-135 0 -220 86.5t-85 225.5z" />
<glyph unicode="v" horiz-adv-x="1245" d="M154 1047h317l109 -635l419 635h353l-760 -1072h-207z" />
<glyph unicode="w" horiz-adv-x="1810" d="M158 1047h303l51 -658l494 670h30l172 -670l375 658h328l-639 -1059h-244l-125 526l-379 -526h-252z" />
<glyph unicode="x" horiz-adv-x="1226" d="M-96 0v4l526 555l-246 488h332l146 -310l278 310h363v-5l-500 -524l264 -518h-334l-162 338l-303 -338h-364z" />
<glyph unicode="y" horiz-adv-x="1208" d="M-96 -78l6 4q39 -23 80 -34t88 -11q84 0 147.5 37t116.5 117l10 16l-196 996h317l105 -670l389 670h342l-676 -1080q-117 -188 -245 -274t-290 -86q-39 0 -73.5 6t-61.5 18z" />
<glyph unicode="z" horiz-adv-x="1120" d="M-82 29l715 776h-469l59 242h948l7 -27l-713 -776h545l-148 -244h-936z" />
<glyph unicode="{" horiz-adv-x="1024" d="M51 571l27 105l203 37q106 18 152 56t46 108q0 20 -3 47.5t-15 91.5q-12 68 -16.5 99.5t-4.5 53.5q0 160 125 253.5t344 93.5h277l-8 -193h-230q-98 0 -150.5 -44t-52.5 -126q0 -20 3.5 -48t15.5 -85q10 -61 14 -91t4 -52q0 -96 -64.5 -163t-191.5 -104q72 -31 110 -77 t38 -105q0 -37 -20.5 -83t-86.5 -136q-53 -76 -69.5 -111t-16.5 -59q0 -57 40 -85t124 -28h186l-77 -192h-240q-176 0 -273.5 69.5t-97.5 196.5q0 53 25 109.5t102 154.5q53 72 69.5 104.5t16.5 57.5q0 43 -33.5 71.5t-97.5 41.5z" />
<glyph unicode="|" horiz-adv-x="796" d="M90 -266l442 1782h224l-443 -1782h-223z" />
<glyph unicode="}" horiz-adv-x="1024" d="M-111 -266l9 192h229q96 0 149.5 45t53.5 125q0 20 -3 48t-16 85q-10 61 -14 91t-4 53q0 96 64.5 162.5t191.5 103.5q-72 31 -110 77t-38 105q0 37 20.5 83t86.5 136q53 76 69.5 111t16.5 59q0 57 -40 85t-124 28h-186l78 193h239q176 0 273.5 -70t97.5 -197 q0 -53 -24.5 -109.5t-102.5 -154.5q-53 -72 -69.5 -104.5t-16.5 -57.5q0 -43 33.5 -71.5t97.5 -40.5l174 -33l-27 -105l-202 -36q-106 -18 -152.5 -56.5t-46.5 -107.5q0 -20 3 -48t15 -92q12 -68 16.5 -99t4.5 -54q0 -160 -125 -253t-344 -93h-277z" />
<glyph unicode="~" d="M88 561q139 236 216 319t155 83q37 0 89 -24.5t167 -98.5q84 -57 117.5 -73.5t54.5 -16.5q39 0 81 40.5t136 167.5l133 -86q-139 -238 -217 -319.5t-156 -81.5q-35 0 -87 23.5t-165 99.5q-86 57 -119.5 73.5t-54.5 16.5q-39 0 -81 -41t-136 -168z" />
<glyph unicode="&#xa1;" horiz-adv-x="585" d="M-20 0l36 152l310 772h135l-78 -774l-39 -150h-364zM341 1253.5q-1 51.5 36 94.5q39 45 95 49t99 -33q39 -37 40 -88t-36 -92q-39 -45 -95 -49.5t-99 32.5q-39 35 -40 86.5z" />
<glyph unicode="&#xa2;" horiz-adv-x="1093" d="M125 633q0 240 153.5 409.5t393.5 198.5l51 201h217l-53 -211q68 -16 127 -44t106 -67l-57 -276h-6q-74 68 -148.5 101.5t-152.5 33.5q-137 0 -232.5 -91t-95.5 -222q0 -98 61.5 -156.5t165.5 -58.5q88 0 178.5 32.5t172.5 91.5l6 -4l-123 -315q-61 -29 -132 -48.5 t-139 -23.5l-49 -192h-215l54 217q-133 45 -208 157.5t-75 266.5z" />
<glyph unicode="&#xa3;" horiz-adv-x="1222" d="M-6 0l10 137q236 166 313.5 249t77.5 167v22l-291 -14l46 191l217 6q-29 90 -39.5 143t-10.5 100q0 205 147.5 330t395.5 125q119 0 226.5 -35t195.5 -100l-12 -307l-6 -2q-90 84 -187.5 128t-187.5 44q-104 0 -168 -56.5t-64 -148.5q0 -29 6.5 -64.5t34.5 -144.5l412 16 l-47 -190l-336 -6v-8q0 -90 -53 -161t-178 -155l591 6l-133 -272h-960z" />
<glyph unicode="&#xa5;" horiz-adv-x="1366" d="M78 285l43 174h387l31 125h-387l43 172h294l-229 678h350l148 -545l424 545h381l-570 -678h293l-43 -172h-387l-31 -125h387l-43 -174h-387l-71 -285h-318l72 285h-387z" />
<glyph unicode="&#xa7;" horiz-adv-x="1392" d="M37 31l4 2q119 -84 237.5 -127t233.5 -43q86 0 136 28.5t50 77.5t-51 87t-186 94q-207 82 -295 169t-88 209q0 125 94 210t287 130q-39 43 -57.5 93.5t-18.5 111.5q0 172 141.5 278.5t370.5 106.5q113 0 220.5 -26.5t209.5 -79.5l-31 -275l-4 -2q-104 61 -206.5 93 t-198.5 32q-88 0 -137.5 -29.5t-49.5 -78.5q0 -47 52.5 -86t185.5 -93q207 -84 295 -171t88 -210q0 -125 -95.5 -209.5t-283.5 -127.5q37 -43 55.5 -94.5t18.5 -110.5q0 -172 -141.5 -279.5t-370.5 -107.5q-117 0 -232.5 30.5t-208.5 83.5zM375 575q0 -55 61.5 -99 t227.5 -109q43 -16 72.5 -29.5t54.5 -28.5q119 39 175 81t56 95q0 55 -62.5 100.5t-226.5 110.5q-37 14 -67.5 28.5t-57.5 29.5q-119 -39 -176 -83.5t-57 -95.5z" />
<glyph unicode="&#xa8;" horiz-adv-x="1024" d="M313 1378q0 72 52.5 123t126.5 51q72 0 119.5 -47t47.5 -116q0 -72 -52 -123.5t-126 -51.5q-70 0 -119 48.5t-49 115.5zM774 1378q0 74 52.5 124t125.5 50q70 0 118 -47t48 -116q0 -74 -52 -124.5t-126 -50.5q-70 0 -118 48.5t-48 115.5z" />
<glyph unicode="&#xa9;" horiz-adv-x="1869" d="M158 715q0 164 63.5 313.5t179.5 263.5q117 113 268.5 174.5t315.5 61.5q166 0 315.5 -60.5t266.5 -173.5t179 -262t62 -313t-63.5 -313.5t-179.5 -264.5q-117 -113 -268.5 -174t-315.5 -61q-166 0 -315.5 60t-266.5 173t-179 262.5t-62 313.5zM225 719 q0 -313 222.5 -530.5t537.5 -217.5t535.5 216t220.5 528q0 313 -222.5 530t-537.5 217t-535.5 -216t-220.5 -527zM502 715q0 209 149.5 346t378.5 137q92 0 173 -27.5t155 -83.5v-225h-4q-78 68 -158 102.5t-156 34.5q-131 0 -217 -79.5t-86 -200.5q0 -125 85 -206t214 -81 q86 0 170 31t162 92l4 -4l-31 -219q-76 -49 -155.5 -72.5t-169.5 -23.5q-223 0 -368.5 134t-145.5 345z" />
<glyph unicode="&#xaa;" horiz-adv-x="1050" d="M90 379l41 168h774l-43 -168h-772zM223 872q0 121 122 188.5t345 67.5h18.5h30.5q20 -2 30.5 -2h18.5q2 12 3.5 18.5t1.5 10.5q0 53 -37 84t-101 31q-63 0 -132.5 -20.5t-153.5 -65.5l-4 4l77 207q61 27 132 42t139 15q143 0 228 -73.5t85 -196.5q0 -29 -5 -63t-13 -68 l-95 -344l-229 -7l29 105q-78 -57 -149.5 -86t-139.5 -29q-90 0 -145.5 50.5t-55.5 131.5zM440 911q0 -31 23.5 -49t64.5 -18q39 0 88.5 16.5t116.5 50.5l31 111q-10 2 -23.5 2h-42.5q-125 0 -191.5 -30t-66.5 -83z" />
<glyph unicode="&#xab;" horiz-adv-x="1361" d="M59 498l13 53l657 516l90 -74l-409 -491l174 -455l-101 -65zM633 498l10 53l657 516l91 -74l-408 -491l172 -455l-100 -65z" />
<glyph unicode="&#xad;" horiz-adv-x="819" d="M86 432l70 277h600l-68 -277h-602z" />
<glyph unicode="&#xae;" horiz-adv-x="1177" d="M221 1001q0 199 142.5 338.5t345.5 139.5t344 -138t141 -337t-142.5 -338.5t-342.5 -139.5q-203 0 -345.5 138.5t-142.5 336.5zM279 1001q0 -180 123.5 -300.5t308.5 -120.5q180 0 303 121.5t123 299.5q0 182 -124 304t-306 122q-180 0 -304 -122.5t-124 -303.5zM500 741 v549h207q111 0 171 -47t60 -133q0 -53 -28.5 -94t-82.5 -66l172 -209h-170l-147 183h-37v-183h-145zM643 1022h49q47 0 73 21.5t26 58.5t-25 58.5t-70 21.5h-53v-160z" />
<glyph unicode="&#xaf;" horiz-adv-x="1024" d="M305 1266l49 196h768l-49 -196h-768z" />
<glyph unicode="&#xb0;" horiz-adv-x="1089" d="M205 967q0 213 145.5 354t360.5 141q186 0 302.5 -110.5t116.5 -286.5q0 -211 -145 -353.5t-360 -142.5q-186 0 -303 111t-117 287zM449 979q0 -94 50 -149.5t136 -55.5q104 0 178 83t74 200q0 92 -51.5 148.5t-137.5 56.5q-102 0 -175.5 -83t-73.5 -200z" />
<glyph unicode="&#xb1;" d="M-37 0l57 227h1039l-58 -227h-1038zM164 801l63 252h385l95 381h266l-94 -381h387l-64 -252h-387l-94 -381h-266l94 381h-385z" />
<glyph unicode="&#xb4;" horiz-adv-x="1024" d="M590 1223l266 379h377v-5l-488 -374h-155z" />
<glyph unicode="&#xb5;" horiz-adv-x="1280" d="M-92 -387l356 1434h311l-145 -576q-6 -25 -9 -47.5t-3 -44.5q0 -63 34.5 -99t98.5 -36q53 0 111.5 24.5t128.5 75.5l176 703h309l-260 -1047h-223l-5 145q-74 -76 -147.5 -113.5t-146.5 -37.5q-68 0 -120 33t-79 90l-70 -400l-24 -104h-293z" />
<glyph unicode="&#xb6;" horiz-adv-x="1470" d="M162 860q0 254 219 414t567 160h582l-356 -1434h-234l291 1169h-164l-291 -1169h-178l107 430h-46q-225 0 -361 118t-136 312zM453 838q0 -113 73.5 -178.5t200.5 -65.5h18l144 575h-15q-184 0 -302.5 -94t-118.5 -237z" />
<glyph unicode="&#xb7;" horiz-adv-x="509" d="M76 561q0 84 57 142.5t139 58.5q78 0 132.5 -53.5t54.5 -130.5q0 -84 -57.5 -142.5t-139.5 -58.5q-78 0 -132 53t-54 131z" />
<glyph unicode="&#xb8;" horiz-adv-x="1024" d="M66 -291l6 6q47 -16 93 -23t93 -7q61 0 96 17t35 46q0 27 -25.5 40t-74.5 13q-18 0 -40 -2t-56 -6l-5 8l142 213h170l-74 -108q82 -4 134 -46.5t52 -105.5q0 -84 -87 -136t-234 -52q-47 0 -92 5t-82 13z" />
<glyph unicode="&#xba;" horiz-adv-x="1044" d="M98 379l43 168h774l-41 -168h-776zM238 1036q0 182 130 301t330 119q170 0 276.5 -95t106.5 -247q0 -182 -130 -301t-330 -119q-168 0 -275.5 95.5t-107.5 246.5zM467 1047q0 -78 45 -124t121 -46q92 0 155.5 65.5t63.5 161.5q0 78 -45 124t-121 46q-90 0 -154.5 -66.5 t-64.5 -160.5z" />
<glyph unicode="&#xbb;" horiz-adv-x="1361" d="M-29 53l410 492l-174 454l100 66l424 -516l-12 -53l-658 -516zM545 53l407 492l-174 454l101 66l424 -516l-13 -53l-657 -516z" />
<glyph unicode="&#xbc;" horiz-adv-x="1759" d="M141 -4l687 758l602 684h174l-686 -758l-602 -684h-175zM176 1008l55 221l477 226l19 -7l-217 -870h-224l138 547l-246 -119zM860 221l524 641h291l-135 -538h133l-41 -156h-131l-43 -168h-211l43 168h-426zM1140 324h193l90 368z" />
<glyph unicode="&#xbd;" horiz-adv-x="1781" d="M141 -4l687 758l602 684h174l-686 -758l-602 -684h-175zM176 1008l55 221l477 226l19 -7l-217 -870h-224l138 547l-246 -119zM979 0l4 109l377 325q80 72 106.5 108t26.5 68q0 33 -21.5 50.5t-62.5 17.5q-66 0 -143.5 -41t-157.5 -115l-4 2l49 240q59 51 138 78.5 t161 27.5q121 0 193.5 -59t72.5 -158q0 -76 -47 -147.5t-168 -173.5l-176 -152l338 2l-115 -182h-571z" />
<glyph unicode="&#xbe;" horiz-adv-x="1863" d="M129 635v195l4 2q61 -45 123.5 -68.5t124.5 -23.5q61 0 100 25.5t39 64.5q0 45 -51.5 76.5t-171.5 60.5l14 64q164 49 232.5 90t68.5 92q0 29 -24.5 45t-67.5 16q-59 0 -131 -23.5t-148 -68.5l-4 2l47 189q70 37 145.5 56t151.5 19q113 0 183.5 -54t70.5 -142 q0 -84 -58.5 -148.5t-170.5 -105.5q68 -27 102.5 -73t34.5 -109q0 -109 -96 -179.5t-250 -70.5q-76 0 -145.5 18.5t-122.5 50.5zM243 -4l687 758l602 684h174l-686 -758l-602 -684h-175zM965 221l524 641h291l-135 -538h133l-41 -156h-131l-43 -168h-211l43 168h-426z M1245 324h193l90 368z" />
<glyph unicode="&#xbf;" horiz-adv-x="1013" d="M27 289q0 127 75.5 216t251.5 167q129 55 179.5 95t50.5 87q0 14 -4.5 29.5t-14.5 38.5h160q35 -41 53.5 -82t18.5 -82q0 -84 -67.5 -150.5t-217.5 -130.5q-106 -45 -148 -78.5t-42 -74.5q0 -39 34.5 -61.5t92.5 -22.5q104 0 220.5 48t239.5 140l4 -2l-77 -317 q-88 -61 -198 -95t-228 -34q-170 0 -276.5 86t-106.5 223zM617 1253.5q-1 51.5 36 92.5q37 43 94.5 49t100.5 -31q39 -37 40 -88t-36 -92q-37 -43 -94.5 -49.5t-100.5 30.5q-39 37 -40 88.5z" />
<glyph unicode="&#xc0;" horiz-adv-x="1654" d="M-94 0l973 1438h354l256 -1438h-332l-45 295h-647l-193 -295h-366zM631 559h446l-88 547zM700 1884v4h369l86 -321h-158z" />
<glyph unicode="&#xc1;" horiz-adv-x="1654" d="M-94 0l973 1438h354l256 -1438h-332l-45 295h-647l-193 -295h-366zM631 559h446l-88 547zM965 1567l239 321h420v-4l-473 -317h-186z" />
<glyph unicode="&#xc2;" horiz-adv-x="1654" d="M-94 0l973 1438h354l256 -1438h-332l-45 295h-647l-193 -295h-366zM631 559h446l-88 547zM661 1567v4l345 317h286l191 -321h-166l-197 139l-268 -139h-191z" />
<glyph unicode="&#xc3;" horiz-adv-x="1654" d="M-94 0l973 1438h354l256 -1438h-332l-45 295h-647l-193 -295h-366zM631 559h446l-88 547zM674 1647q92 133 159.5 188t133.5 55q31 0 68.5 -12t115.5 -51q61 -31 89 -40t46 -9q31 0 64.5 22.5t103.5 93.5l111 -92q-94 -133 -162 -188t-133 -55q-31 0 -69 12t-114 49 q-61 31 -88.5 40t-48.5 9q-33 0 -66.5 -23.5t-99.5 -91.5z" />
<glyph unicode="&#xc4;" horiz-adv-x="1654" d="M-94 0l973 1438h354l256 -1438h-332l-45 295h-647l-193 -295h-366zM631 559h446l-88 547zM700 1724q0 74 51 125.5t125 51.5q72 0 121 -48.5t49 -117.5q0 -74 -51 -125t-125 -51q-72 0 -121 48t-49 117zM1161 1724q0 74 51 125.5t125 51.5q72 0 121 -48.5t49 -117.5 q0 -74 -51 -125t-125 -51q-72 0 -121 48t-49 117z" />
<glyph unicode="&#xc5;" horiz-adv-x="1654" d="M-94 0l928 1376q-16 31 -25.5 64t-9.5 69q0 117 85 200t203 83q113 0 187 -72.5t74 -181.5q0 -59 -25 -112.5t-70 -96.5l236 -1329h-332l-45 295h-647l-193 -295h-366zM631 559h446l-88 547zM920 1511q0 -63 40.5 -103t104.5 -40q68 0 116 49t48 119q0 63 -41 103 t-105 40q-68 0 -115.5 -49t-47.5 -119z" />
<glyph unicode="&#xc6;" horiz-adv-x="2115" d="M-119 0v4l1202 1430h1139l-70 -281h-608l-76 -303h508l-63 -252h-506l-80 -317h651l-133 -281h-915l74 295h-512l-248 -295h-363zM713 559h356l150 606z" />
<glyph unicode="&#xc7;" horiz-adv-x="1425" d="M135 610q0 174 62.5 330t179.5 272q117 119 272.5 182.5t327.5 63.5q152 0 275.5 -49t230.5 -149l-72 -340h-6q-96 117 -202.5 175t-227.5 58q-203 0 -352.5 -151.5t-149.5 -362.5q0 -160 102.5 -259t270.5 -99q117 0 235.5 49t249.5 151l8 -6l-155 -393 q-84 -49 -181.5 -77t-205.5 -30l-56 -79q82 -4 134.5 -46.5t52.5 -105.5q0 -84 -87 -136t-235 -52q-47 0 -92 5t-82 13l-51 125l6 6q47 -16 93 -23.5t93 -7.5q61 0 96.5 17.5t35.5 46.5q0 27 -26 40t-75 13q-18 0 -39.5 -2t-56.5 -6l-4 8l129 197q-231 39 -364.5 204.5 t-133.5 417.5z" />
<glyph unicode="&#xc8;" horiz-adv-x="1216" d="M31 0l356 1434h936l-70 -281h-610l-76 -303h510l-63 -252h-508l-80 -317h653l-133 -281h-915zM503 1884v4h369l86 -321h-158z" />
<glyph unicode="&#xc9;" horiz-adv-x="1216" d="M31 0l356 1434h936l-70 -281h-610l-76 -303h510l-63 -252h-508l-80 -317h653l-133 -281h-915zM768 1567l239 321h420v-4l-473 -317h-186z" />
<glyph unicode="&#xca;" horiz-adv-x="1216" d="M31 0l356 1434h936l-70 -281h-610l-76 -303h510l-63 -252h-508l-80 -317h653l-133 -281h-915zM464 1567v4l345 317h286l191 -321h-166l-197 139l-268 -139h-191z" />
<glyph unicode="&#xcb;" horiz-adv-x="1216" d="M31 0l356 1434h936l-70 -281h-610l-76 -303h510l-63 -252h-508l-80 -317h653l-133 -281h-915zM503 1724q0 74 51 125.5t125 51.5q72 0 121 -48.5t49 -117.5q0 -74 -51 -125t-125 -51q-72 0 -121 48t-49 117zM964 1724q0 74 51 125.5t125 51.5q72 0 121 -48.5t49 -117.5 q0 -74 -51 -125t-125 -51q-72 0 -121 48t-49 117z" />
<glyph unicode="&#xcc;" horiz-adv-x="669" d="M39 0l356 1434h330l-356 -1434h-330zM219 1884v4h369l86 -321h-158z" />
<glyph unicode="&#xcd;" horiz-adv-x="669" d="M39 0l356 1434h330l-356 -1434h-330zM484 1567l239 321h420v-4l-473 -317h-186z" />
<glyph unicode="&#xce;" horiz-adv-x="669" d="M39 0l356 1434h330l-356 -1434h-330zM180 1567v4l345 317h286l191 -321h-166l-197 139l-268 -139h-191z" />
<glyph unicode="&#xcf;" horiz-adv-x="669" d="M39 0l356 1434h330l-356 -1434h-330zM219 1724q0 74 51 125.5t125 51.5q72 0 121 -48.5t49 -117.5q0 -74 -51 -125t-125 -51q-72 0 -121 48t-49 117zM680 1724q0 74 51 125.5t125 51.5q72 0 121 -48.5t49 -117.5q0 -74 -51 -125t-125 -51q-72 0 -121 48t-49 117z" />
<glyph unicode="&#xd0;" horiz-adv-x="1636" d="M63 612l58 228h168l147 594h447q338 0 529.5 -160t191.5 -440q0 -371 -274.5 -602.5t-708.5 -231.5h-541l151 612h-168zM477 289h162q266 0 446.5 145.5t180.5 364.5q0 166 -113 256t-322 90h-141l-78 -311h289l-53 -213h-289z" />
<glyph unicode="&#xd1;" horiz-adv-x="1673" d="M31 0l356 1434h320l497 -848l209 848h324l-357 -1440h-211l-575 981l-240 -975h-323zM678 1647q92 133 159.5 188t133.5 55q31 0 68.5 -12t115.5 -51q61 -31 89 -40t46 -9q31 0 64.5 22.5t103.5 93.5l111 -92q-94 -133 -162 -188t-133 -55q-31 0 -69 12t-114 49 q-61 31 -88.5 40t-48.5 9q-33 0 -66.5 -23.5t-99.5 -91.5z" />
<glyph unicode="&#xd2;" horiz-adv-x="1691" d="M135 610q0 174 63.5 330t182.5 274q121 119 277.5 183.5t326.5 64.5q295 0 481.5 -178t186.5 -461q0 -174 -63.5 -329.5t-182.5 -274.5q-121 -119 -277.5 -183.5t-326.5 -64.5q-295 0 -481.5 178.5t-186.5 460.5zM473 635q0 -164 99.5 -264.5t256.5 -100.5 q197 0 341.5 155t144.5 374q0 164 -99.5 264t-259.5 100q-197 0 -340 -154.5t-143 -373.5zM690 1894v4h369l86 -321h-158z" />
<glyph unicode="&#xd3;" horiz-adv-x="1691" d="M135 610q0 174 63.5 330t182.5 274q121 119 277.5 183.5t326.5 64.5q295 0 481.5 -178t186.5 -461q0 -174 -63.5 -329.5t-182.5 -274.5q-121 -119 -277.5 -183.5t-326.5 -64.5q-295 0 -481.5 178.5t-186.5 460.5zM473 635q0 -164 99.5 -264.5t256.5 -100.5 q197 0 341.5 155t144.5 374q0 164 -99.5 264t-259.5 100q-197 0 -340 -154.5t-143 -373.5zM955 1577l239 321h420v-4l-473 -317h-186z" />
<glyph unicode="&#xd4;" horiz-adv-x="1691" d="M135 610q0 174 63.5 330t182.5 274q121 119 277.5 183.5t326.5 64.5q295 0 481.5 -178t186.5 -461q0 -174 -63.5 -329.5t-182.5 -274.5q-121 -119 -277.5 -183.5t-326.5 -64.5q-295 0 -481.5 178.5t-186.5 460.5zM473 635q0 -164 99.5 -264.5t256.5 -100.5 q197 0 341.5 155t144.5 374q0 164 -99.5 264t-259.5 100q-197 0 -340 -154.5t-143 -373.5zM651 1577v4l345 317h286l191 -321h-166l-197 139l-268 -139h-191z" />
<glyph unicode="&#xd5;" horiz-adv-x="1691" d="M135 610q0 174 63.5 330t182.5 274q121 119 277.5 183.5t326.5 64.5q295 0 481.5 -178t186.5 -461q0 -174 -63.5 -329.5t-182.5 -274.5q-121 -119 -277.5 -183.5t-326.5 -64.5q-295 0 -481.5 178.5t-186.5 460.5zM473 635q0 -164 99.5 -264.5t256.5 -100.5 q197 0 341.5 155t144.5 374q0 164 -99.5 264t-259.5 100q-197 0 -340 -154.5t-143 -373.5zM664 1657q92 133 159.5 188t133.5 55q31 0 68.5 -12t115.5 -51q61 -31 89 -40t46 -9q31 0 64.5 22.5t103.5 93.5l111 -92q-94 -133 -162 -188t-133 -55q-31 0 -69 12t-114 49 q-61 31 -88.5 40t-48.5 9q-33 0 -66.5 -23.5t-99.5 -91.5z" />
<glyph unicode="&#xd6;" horiz-adv-x="1691" d="M135 610q0 174 63.5 330t182.5 274q121 119 277.5 183.5t326.5 64.5q295 0 481.5 -178t186.5 -461q0 -174 -63.5 -329.5t-182.5 -274.5q-121 -119 -277.5 -183.5t-326.5 -64.5q-295 0 -481.5 178.5t-186.5 460.5zM473 635q0 -164 99.5 -264.5t256.5 -100.5 q197 0 341.5 155t144.5 374q0 164 -99.5 264t-259.5 100q-197 0 -340 -154.5t-143 -373.5zM690 1734q0 74 51 125.5t125 51.5q72 0 121 -48.5t49 -117.5q0 -74 -51 -125t-125 -51q-72 0 -121 48t-49 117zM1151 1734q0 74 51 125.5t125 51.5q72 0 121 -48.5t49 -117.5 q0 -74 -51 -125t-125 -51q-72 0 -121 48t-49 117z" />
<glyph unicode="&#xd7;" d="M76 403l413 330l-249 336l215 162l237 -334l406 334l153 -199l-415 -330l251 -335l-215 -160l-239 332l-404 -332z" />
<glyph unicode="&#xd8;" horiz-adv-x="1691" d="M-45 -84l305 309q-61 80 -93 178.5t-32 206.5q0 174 63.5 330t182.5 274q121 119 277.5 183.5t326.5 64.5q109 0 209 -28.5t184 -83.5l168 172h287v-4l-305 -308q61 -82 93 -180t32 -207q0 -174 -63.5 -329.5t-182.5 -274.5q-121 -119 -277.5 -183.5t-326.5 -64.5 q-111 0 -211 30t-182 85l-170 -174h-285v4zM461 635q0 -53 9 -99.5t28 -84.5l657 677q-43 23 -93.5 34.5t-105.5 11.5q-199 0 -347 -160t-148 -379zM631 305q41 -23 90 -34t108 -11q199 0 347.5 160t148.5 379q0 51 -9 97t-26 85z" />
<glyph unicode="&#xd9;" horiz-adv-x="1599" d="M164 494q0 45 8 101t23 120l178 719h329l-188 -762q-10 -39 -14 -73t-4 -64q0 -125 71.5 -195t198.5 -70q141 0 243.5 92.5t143.5 255.5l203 816h323l-215 -867q-74 -295 -259 -443.5t-478 -148.5q-260 0 -411.5 139.5t-151.5 379.5zM682 1884v4h369l86 -321h-158z" />
<glyph unicode="&#xda;" horiz-adv-x="1599" d="M164 494q0 45 8 101t23 120l178 719h329l-188 -762q-10 -39 -14 -73t-4 -64q0 -125 71.5 -195t198.5 -70q141 0 243.5 92.5t143.5 255.5l203 816h323l-215 -867q-74 -295 -259 -443.5t-478 -148.5q-260 0 -411.5 139.5t-151.5 379.5zM947 1567l239 321h420v-4l-473 -317 h-186z" />
<glyph unicode="&#xdb;" horiz-adv-x="1599" d="M164 494q0 45 8 101t23 120l178 719h329l-188 -762q-10 -39 -14 -73t-4 -64q0 -125 71.5 -195t198.5 -70q141 0 243.5 92.5t143.5 255.5l203 816h323l-215 -867q-74 -295 -259 -443.5t-478 -148.5q-260 0 -411.5 139.5t-151.5 379.5zM643 1567v4l345 317h286l191 -321 h-166l-197 139l-268 -139h-191z" />
<glyph unicode="&#xdc;" horiz-adv-x="1599" d="M164 494q0 45 8 101t23 120l178 719h329l-188 -762q-10 -39 -14 -73t-4 -64q0 -125 71.5 -195t198.5 -70q141 0 243.5 92.5t143.5 255.5l203 816h323l-215 -867q-74 -295 -259 -443.5t-478 -148.5q-260 0 -411.5 139.5t-151.5 379.5zM682 1724q0 74 51 125.5t125 51.5 q72 0 121 -48.5t49 -117.5q0 -74 -51 -125t-125 -51q-72 0 -121 48t-49 117zM1143 1724q0 74 51 125.5t125 51.5q72 0 121 -48.5t49 -117.5q0 -74 -51 -125t-125 -51q-72 0 -121 48t-49 117z" />
<glyph unicode="&#xdd;" horiz-adv-x="1429" d="M236 1434h352l200 -555l467 555h390v-4l-756 -855l-144 -575h-329l147 596zM846 1567l239 321h420v-4l-473 -317h-186z" />
<glyph unicode="&#xde;" horiz-adv-x="1304" d="M31 0l356 1434h330l-58 -234h132q221 0 355 -115t134 -303q0 -240 -183.5 -385t-486.5 -145h-186l-64 -252h-329zM485 514h150q143 0 231 67.5t88 176.5q0 84 -58 132t-163 48h-143z" />
<glyph unicode="&#xdf;" horiz-adv-x="1439" d="M98 0l201 805h-168l59 242h168l17 65q53 213 195.5 324.5t361.5 111.5q199 0 321.5 -105.5t122.5 -277.5q0 -125 -73.5 -228t-221.5 -187q115 -70 170.5 -158t55.5 -199q0 -174 -137.5 -292.5t-346.5 -118.5q-53 0 -105 9t-112 29l-22 259l6 4q51 -25 94 -36t90 -11 q96 0 160.5 56t64.5 138t-64.5 145.5t-211.5 124.5l8 82q170 78 255 166t85 185q0 78 -43 121.5t-119 43.5q-86 0 -148.5 -62t-90.5 -179l-262 -1057h-310z" />
<glyph unicode="&#xe0;" horiz-adv-x="1159" d="M8 244q0 170 157 265t437 95q47 0 88 -2t74 -6q2 27 3 35t1 16q0 80 -50 124t-143 44q-84 0 -178 -28.5t-204 -88.5l-5 4l107 287q88 41 175 59.5t187 18.5q195 0 306.5 -101.5t111.5 -275.5q0 -47 -6 -94t-22 -107l-123 -466l-310 -41l41 153q-98 -78 -189 -115.5 t-179 -37.5q-127 0 -203 70.5t-76 191.5zM293 295q0 -47 32.5 -73.5t88.5 -26.5q63 0 128.5 21.5t143.5 66.5l45 170q-27 2 -53.5 4t-52.5 2q-158 0 -245 -44t-87 -120zM402 1602h336l82 -379h-134z" />
<glyph unicode="&#xe1;" horiz-adv-x="1159" d="M8 244q0 170 157 265t437 95q47 0 88 -2t74 -6q2 27 3 35t1 16q0 80 -50 124t-143 44q-84 0 -178 -28.5t-204 -88.5l-5 4l107 287q88 41 175 59.5t187 18.5q195 0 306.5 -101.5t111.5 -275.5q0 -47 -6 -94t-22 -107l-123 -466l-310 -41l41 153q-98 -78 -189 -115.5 t-179 -37.5q-127 0 -203 70.5t-76 191.5zM293 295q0 -47 32.5 -73.5t88.5 -26.5q63 0 128.5 21.5t143.5 66.5l45 170q-27 2 -53.5 4t-52.5 2q-158 0 -245 -44t-87 -120zM660 1223l266 379h377v-5l-488 -374h-155z" />
<glyph unicode="&#xe2;" horiz-adv-x="1159" d="M8 244q0 170 157 265t437 95q47 0 88 -2t74 -6q2 27 3 35t1 16q0 80 -50 124t-143 44q-84 0 -178 -28.5t-204 -88.5l-5 4l107 287q88 41 175 59.5t187 18.5q195 0 306.5 -101.5t111.5 -275.5q0 -47 -6 -94t-22 -107l-123 -466l-310 -41l41 153q-98 -78 -189 -115.5 t-179 -37.5q-127 0 -203 70.5t-76 191.5zM293 295q0 -47 32.5 -73.5t88.5 -26.5q63 0 128.5 21.5t143.5 66.5l45 170q-27 2 -53.5 4t-52.5 2q-158 0 -245 -44t-87 -120zM365 1223v4l350 375h262l166 -379h-147l-185 172l-276 -172h-170z" />
<glyph unicode="&#xe3;" horiz-adv-x="1159" d="M8 244q0 170 157 265t437 95q47 0 88 -2t74 -6q2 27 3 35t1 16q0 80 -50 124t-143 44q-84 0 -178 -28.5t-204 -88.5l-5 4l107 287q88 41 175 59.5t187 18.5q195 0 306.5 -101.5t111.5 -275.5q0 -47 -6 -94t-22 -107l-123 -466l-310 -41l41 153q-98 -78 -189 -115.5 t-179 -37.5q-127 0 -203 70.5t-76 191.5zM293 295q0 -47 32.5 -73.5t88.5 -26.5q63 0 128.5 21.5t143.5 66.5l45 170q-27 2 -53.5 4t-52.5 2q-158 0 -245 -44t-87 -120zM344 1294q119 172 179.5 226.5t126.5 54.5q29 0 64.5 -13.5t109.5 -56.5q66 -37 93 -48t48 -11 q29 0 59.5 23.5t112.5 111.5l115 -86q-121 -176 -181.5 -229.5t-123.5 -53.5q-29 0 -65 14.5t-112 57.5q-63 37 -90.5 48t-46.5 11q-31 0 -61.5 -23.5t-112.5 -111.5z" />
<glyph unicode="&#xe4;" horiz-adv-x="1159" d="M8 244q0 170 157 265t437 95q47 0 88 -2t74 -6q2 27 3 35t1 16q0 80 -50 124t-143 44q-84 0 -178 -28.5t-204 -88.5l-5 4l107 287q88 41 175 59.5t187 18.5q195 0 306.5 -101.5t111.5 -275.5q0 -47 -6 -94t-22 -107l-123 -466l-310 -41l41 153q-98 -78 -189 -115.5 t-179 -37.5q-127 0 -203 70.5t-76 191.5zM293 295q0 -47 32.5 -73.5t88.5 -26.5q63 0 128.5 21.5t143.5 66.5l45 170q-27 2 -53.5 4t-52.5 2q-158 0 -245 -44t-87 -120zM383 1378q0 72 52.5 123t126.5 51q72 0 119.5 -47t47.5 -116q0 -72 -52 -123.5t-126 -51.5 q-70 0 -119 48.5t-49 115.5zM844 1378q0 74 52.5 124t125.5 50q70 0 118 -47t48 -116q0 -74 -52 -124.5t-126 -50.5q-70 0 -118 48.5t-48 115.5z" />
<glyph unicode="&#xe5;" horiz-adv-x="1159" d="M8 244q0 170 157 265t437 95q47 0 88 -2t74 -6q2 27 3 35t1 16q0 80 -50 124t-143 44q-84 0 -178 -28.5t-204 -88.5l-5 4l107 287q88 41 175 59.5t187 18.5q195 0 306.5 -101.5t111.5 -275.5q0 -47 -6 -94t-22 -107l-123 -466l-310 -41l41 153q-98 -78 -189 -115.5 t-179 -37.5q-127 0 -203 70.5t-76 191.5zM293 295q0 -47 32.5 -73.5t88.5 -26.5q63 0 128.5 21.5t143.5 66.5l45 170q-27 2 -53.5 4t-52.5 2q-158 0 -245 -44t-87 -120zM541 1460q0 117 82 200t197 83q109 0 181.5 -71.5t72.5 -180.5q0 -117 -83 -200t-198 -83 q-109 0 -180.5 72t-71.5 180zM660 1462q0 -61 39 -102t98 -41q66 0 111 49t45 121q0 63 -39 103t-98 40q-63 0 -109.5 -49t-46.5 -121z" />
<glyph unicode="&#xe6;" horiz-adv-x="1841" d="M8 244q0 170 157 265t437 95q47 0 88 -2t74 -6q2 27 3 35t1 16q0 80 -50 124t-143 44q-84 0 -178 -28.5t-204 -88.5l-5 4l107 287q86 39 174 58.5t186 19.5q106 0 190.5 -37t135.5 -106q84 74 186.5 112.5t212.5 38.5q186 0 298 -110.5t112 -296.5q0 -57 -9 -115.5 t-26 -112.5h-723q8 -109 73.5 -164t186.5 -55q90 0 183.5 22.5t185.5 65.5l4 -2l-59 -244q-90 -43 -188.5 -64.5t-203.5 -21.5q-131 0 -233 49.5t-162 141.5q-143 -98 -263 -142t-247 -44q-139 0 -220 70.5t-81 191.5zM293 295q0 -47 32.5 -73.5t90.5 -26.5q74 0 156.5 32.5 t183.5 100.5q-6 27 -8.5 53.5t-2.5 50.5q0 4 1.5 11.5t1.5 9.5q-6 0 -51.5 3t-71.5 3q-158 0 -245 -44t-87 -120zM1069 616h442q2 6 2 14.5v22.5q0 96 -43 147.5t-122 51.5q-84 0 -163 -66.5t-116 -169.5z" />
<glyph unicode="&#xe7;" horiz-adv-x="1060" d="M66 426q0 279 183 462t456 183q96 0 185 -28.5t165 -84.5l-62 -294h-4q-66 66 -138.5 98.5t-152.5 32.5q-133 0 -229 -97.5t-96 -232.5q0 -100 61.5 -156.5t171.5 -56.5q84 0 173 32.5t169 92.5l6 -4l-129 -330q-55 -29 -121.5 -46t-138.5 -22l-55 -79q82 -4 134 -46.5 t52 -105.5q0 -84 -87 -136t-234 -52q-47 0 -92 5t-82 13l-51 125l6 6q47 -16 93 -23.5t93 -7.5q61 0 96 17.5t35 46.5q0 27 -25.5 40t-74.5 13q-18 0 -40 -2t-57 -6l-4 8l131 199q-158 35 -247.5 151.5t-89.5 284.5z" />
<glyph unicode="&#xe8;" horiz-adv-x="1161" d="M66 432q0 270 185 456.5t449 186.5q186 0 298 -110.5t112 -296.5q0 -57 -9 -115.5t-26 -112.5h-725q8 -109 75 -164t187 -55q90 0 182.5 22.5t186.5 65.5l4 -2l-59 -244q-90 -43 -188.5 -64.5t-202.5 -21.5q-213 0 -341 124t-128 331zM387 616h444q2 6 2.5 14.5t0.5 22.5 q0 96 -43 147.5t-123 51.5q-84 0 -163 -66.5t-118 -169.5zM404 1612h336l82 -379h-134z" />
<glyph unicode="&#xe9;" horiz-adv-x="1161" d="M66 432q0 270 185 456.5t449 186.5q186 0 298 -110.5t112 -296.5q0 -57 -9 -115.5t-26 -112.5h-725q8 -109 75 -164t187 -55q90 0 182.5 22.5t186.5 65.5l4 -2l-59 -244q-90 -43 -188.5 -64.5t-202.5 -21.5q-213 0 -341 124t-128 331zM387 616h444q2 6 2.5 14.5t0.5 22.5 q0 96 -43 147.5t-123 51.5q-84 0 -163 -66.5t-118 -169.5zM662 1233l266 379h377v-5l-488 -374h-155z" />
<glyph unicode="&#xea;" horiz-adv-x="1161" d="M66 432q0 270 185 456.5t449 186.5q186 0 298 -110.5t112 -296.5q0 -57 -9 -115.5t-26 -112.5h-725q8 -109 75 -164t187 -55q90 0 182.5 22.5t186.5 65.5l4 -2l-59 -244q-90 -43 -188.5 -64.5t-202.5 -21.5q-213 0 -341 124t-128 331zM367 1233v4l350 375h262l166 -379 h-147l-185 172l-276 -172h-170zM387 616h444q2 6 2.5 14.5t0.5 22.5q0 96 -43 147.5t-123 51.5q-84 0 -163 -66.5t-118 -169.5z" />
<glyph unicode="&#xeb;" horiz-adv-x="1161" d="M66 432q0 270 185 456.5t449 186.5q186 0 298 -110.5t112 -296.5q0 -57 -9 -115.5t-26 -112.5h-725q8 -109 75 -164t187 -55q90 0 182.5 22.5t186.5 65.5l4 -2l-59 -244q-90 -43 -188.5 -64.5t-202.5 -21.5q-213 0 -341 124t-128 331zM385 1388q0 72 52.5 123t126.5 51 q72 0 119.5 -47t47.5 -116q0 -72 -52 -123.5t-126 -51.5q-70 0 -119 48.5t-49 115.5zM387 616h444q2 6 2.5 14.5t0.5 22.5q0 96 -43 147.5t-123 51.5q-84 0 -163 -66.5t-118 -169.5zM846 1388q0 74 52.5 124t125.5 50q70 0 118 -47t48 -116q0 -74 -52 -124.5t-126 -50.5 q-70 0 -118 48.5t-48 115.5z" />
<glyph unicode="&#xec;" horiz-adv-x="593" d="M12 0l260 1047h310l-260 -1047h-310zM115 1602h336l82 -379h-134z" />
<glyph unicode="&#xed;" horiz-adv-x="593" d="M12 0l260 1047h310l-260 -1047h-310zM373 1223l266 379h377v-5l-488 -374h-155z" />
<glyph unicode="&#xee;" horiz-adv-x="593" d="M12 0l260 1047h310l-260 -1047h-310zM78 1223v4l350 375h262l166 -379h-147l-185 172l-276 -172h-170z" />
<glyph unicode="&#xef;" horiz-adv-x="593" d="M12 0l260 1047h310l-260 -1047h-310zM96 1378q0 72 52.5 123t126.5 51q72 0 119.5 -47t47.5 -116q0 -72 -52 -123.5t-126 -51.5q-70 0 -119 48.5t-49 115.5zM557 1378q0 74 52.5 124t125.5 50q70 0 118 -47t48 -116q0 -74 -52 -124.5t-126 -50.5q-70 0 -118 48.5 t-48 115.5z" />
<glyph unicode="&#xf0;" horiz-adv-x="1253" d="M68 432q0 225 158.5 382t383.5 157q78 0 141.5 -19.5t116.5 -58.5q-25 76 -67.5 148.5t-110.5 150.5l-166 -121l-84 115l154 106q-31 29 -69 64t-91 80l213 145q72 -59 101.5 -87t52.5 -52l172 125l84 -115l-162 -113q137 -162 203.5 -334.5t66.5 -369.5 q0 -299 -168 -481.5t-438 -182.5q-217 0 -354 129t-137 332zM369 453q0 -96 60 -156.5t157 -60.5q117 0 198.5 81.5t81.5 200.5q0 98 -62.5 156.5t-166.5 58.5q-109 0 -188.5 -84t-79.5 -196z" />
<glyph unicode="&#xf1;" horiz-adv-x="1265" d="M4 0l254 1020l311 41l-45 -180q88 98 174 144t181 46q135 0 220 -86t85 -227q0 -43 -8.5 -94.5t-26.5 -124.5l-133 -539h-311l143 573q6 27 10 51t4 42q0 63 -35.5 98t-99.5 35q-55 0 -113.5 -24.5t-126.5 -76.5l-174 -698h-309zM376 1294q119 172 179.5 226.5 t126.5 54.5q29 0 64.5 -13.5t109.5 -56.5q66 -37 93 -48t48 -11q29 0 59.5 23.5t112.5 111.5l115 -86q-121 -176 -181.5 -229.5t-123.5 -53.5q-29 0 -65 14.5t-112 57.5q-63 37 -90.5 48t-46.5 11q-31 0 -61.5 -23.5t-112.5 -111.5z" />
<glyph unicode="&#xf2;" horiz-adv-x="1255" d="M68 446q0 266 181 447.5t443 181.5q219 0 357.5 -132t138.5 -341q0 -268 -180.5 -449.5t-444.5 -181.5q-219 0 -357 132.5t-138 342.5zM369 461q0 -102 59 -163.5t156 -61.5q125 0 214 102.5t89 247.5q0 102 -58.5 163.5t-154.5 61.5q-125 0 -215 -102.5t-90 -247.5z M420 1612h336l82 -379h-134z" />
<glyph unicode="&#xf3;" horiz-adv-x="1255" d="M68 446q0 266 181 447.5t443 181.5q219 0 357.5 -132t138.5 -341q0 -268 -180.5 -449.5t-444.5 -181.5q-219 0 -357 132.5t-138 342.5zM369 461q0 -102 59 -163.5t156 -61.5q125 0 214 102.5t89 247.5q0 102 -58.5 163.5t-154.5 61.5q-125 0 -215 -102.5t-90 -247.5z M678 1233l266 379h377v-5l-488 -374h-155z" />
<glyph unicode="&#xf4;" horiz-adv-x="1255" d="M68 446q0 266 181 447.5t443 181.5q219 0 357.5 -132t138.5 -341q0 -268 -180.5 -449.5t-444.5 -181.5q-219 0 -357 132.5t-138 342.5zM369 461q0 -102 59 -163.5t156 -61.5q125 0 214 102.5t89 247.5q0 102 -58.5 163.5t-154.5 61.5q-125 0 -215 -102.5t-90 -247.5z M383 1233v4l350 375h262l166 -379h-147l-185 172l-276 -172h-170z" />
<glyph unicode="&#xf5;" horiz-adv-x="1255" d="M68 446q0 266 181 447.5t443 181.5q219 0 357.5 -132t138.5 -341q0 -268 -180.5 -449.5t-444.5 -181.5q-219 0 -357 132.5t-138 342.5zM362 1304q119 172 179.5 226.5t126.5 54.5q29 0 64.5 -13.5t109.5 -56.5q66 -37 93 -48t48 -11q29 0 59.5 23.5t112.5 111.5l115 -86 q-121 -176 -181.5 -229.5t-123.5 -53.5q-29 0 -65 14.5t-112 57.5q-63 37 -90.5 48t-46.5 11q-31 0 -61.5 -23.5t-112.5 -111.5zM369 461q0 -102 59 -163.5t156 -61.5q125 0 214 102.5t89 247.5q0 102 -58.5 163.5t-154.5 61.5q-125 0 -215 -102.5t-90 -247.5z" />
<glyph unicode="&#xf6;" horiz-adv-x="1255" d="M68 446q0 266 181 447.5t443 181.5q219 0 357.5 -132t138.5 -341q0 -268 -180.5 -449.5t-444.5 -181.5q-219 0 -357 132.5t-138 342.5zM369 461q0 -102 59 -163.5t156 -61.5q125 0 214 102.5t89 247.5q0 102 -58.5 163.5t-154.5 61.5q-125 0 -215 -102.5t-90 -247.5z M401 1388q0 72 52.5 123t126.5 51q72 0 119.5 -47t47.5 -116q0 -72 -52 -123.5t-126 -51.5q-70 0 -119 48.5t-49 115.5zM862 1388q0 74 52.5 124t125.5 50q70 0 118 -47t48 -116q0 -74 -52 -124.5t-126 -50.5q-70 0 -118 48.5t-48 115.5z" />
<glyph unicode="&#xf7;" d="M102 594l62 246l528 -9l531 9l-62 -246l-528 8zM377 279q0 78 54 131t130 53q72 0 123 -50.5t51 -121.5q0 -76 -53 -129t-131 -53q-74 0 -124 49t-50 121zM590 1143q0 76 54 129t130 53q72 0 122 -50t50 -122q0 -78 -53 -130t-131 -52q-74 0 -123 49t-49 123z" />
<glyph unicode="&#xf8;" horiz-adv-x="1257" d="M-68 -76l226 240q-43 57 -66.5 130t-23.5 152q0 266 181 447.5t443 181.5q78 0 148.5 -19.5t130.5 -56.5l121 127h233v-4l-227 -239q45 -59 67.5 -130t22.5 -151q0 -268 -180.5 -449.5t-444.5 -181.5q-78 0 -148.5 19.5t-129.5 56.5l-121 -127h-232v4zM356 463 q0 -27 4.5 -51.5t12.5 -46.5l409 434q-25 10 -51 16t-57 6q-125 0 -221.5 -106.5t-96.5 -251.5zM473 250q25 -12 52.5 -18.5t58.5 -6.5q125 0 221 107.5t96 251.5q0 27 -4 51t-12 47z" />
<glyph unicode="&#xf9;" horiz-adv-x="1265" d="M82 289q0 43 8 95t27 124l133 539h311l-143 -574q-8 -29 -11.5 -50.5t-3.5 -39.5q0 -63 36 -99t100 -36q55 0 113.5 24.5t125.5 75.5l174 699h310l-261 -1047h-301l41 168q-90 -98 -176 -144.5t-178 -46.5q-135 0 -220 86.5t-85 225.5zM428 1602h336l82 -379h-134z" />
<glyph unicode="&#xfa;" horiz-adv-x="1265" d="M82 289q0 43 8 95t27 124l133 539h311l-143 -574q-8 -29 -11.5 -50.5t-3.5 -39.5q0 -63 36 -99t100 -36q55 0 113.5 24.5t125.5 75.5l174 699h310l-261 -1047h-301l41 168q-90 -98 -176 -144.5t-178 -46.5q-135 0 -220 86.5t-85 225.5zM686 1223l266 379h377v-5 l-488 -374h-155z" />
<glyph unicode="&#xfb;" horiz-adv-x="1265" d="M82 289q0 43 8 95t27 124l133 539h311l-143 -574q-8 -29 -11.5 -50.5t-3.5 -39.5q0 -63 36 -99t100 -36q55 0 113.5 24.5t125.5 75.5l174 699h310l-261 -1047h-301l41 168q-90 -98 -176 -144.5t-178 -46.5q-135 0 -220 86.5t-85 225.5zM391 1223v4l350 375h262l166 -379 h-147l-185 172l-276 -172h-170z" />
<glyph unicode="&#xfc;" horiz-adv-x="1265" d="M82 289q0 43 8 95t27 124l133 539h311l-143 -574q-8 -29 -11.5 -50.5t-3.5 -39.5q0 -63 36 -99t100 -36q55 0 113.5 24.5t125.5 75.5l174 699h310l-261 -1047h-301l41 168q-90 -98 -176 -144.5t-178 -46.5q-135 0 -220 86.5t-85 225.5zM409 1378q0 72 52.5 123t126.5 51 q72 0 119.5 -47t47.5 -116q0 -72 -52 -123.5t-126 -51.5q-70 0 -119 48.5t-49 115.5zM870 1378q0 74 52.5 124t125.5 50q70 0 118 -47t48 -116q0 -74 -52 -124.5t-126 -50.5q-70 0 -118 48.5t-48 115.5z" />
<glyph unicode="&#xfd;" horiz-adv-x="1208" d="M-96 -78l6 4q39 -23 80 -34t88 -11q84 0 147.5 37t116.5 117l10 16l-196 996h317l105 -670l389 670h342l-676 -1080q-117 -188 -245 -274t-290 -86q-39 0 -73.5 6t-61.5 18zM658 1223l266 379h377v-5l-488 -374h-155z" />
<glyph unicode="&#xfe;" horiz-adv-x="1288" d="M-90 -387l461 1853l331 86l-159 -643q84 82 166 120t170 38q154 0 250 -112.5t96 -297.5q0 -143 -50.5 -269t-142.5 -218q-90 -90 -203.5 -137t-242.5 -47q-70 0 -135.5 14t-124.5 43l-107 -430h-309zM387 289q43 -25 89 -36t97 -11q145 0 248 106.5t103 259.5 q0 94 -51.5 147.5t-139.5 53.5q-57 0 -114.5 -20.5t-122.5 -63.5z" />
<glyph unicode="&#xff;" horiz-adv-x="1208" d="M-96 -78l6 4q39 -23 80 -34t88 -11q84 0 147.5 37t116.5 117l10 16l-196 996h317l105 -670l389 670h342l-676 -1080q-117 -188 -245 -274t-290 -86q-39 0 -73.5 6t-61.5 18zM381 1378q0 72 52.5 123t126.5 51q72 0 119.5 -47t47.5 -116q0 -72 -52 -123.5t-126 -51.5 q-70 0 -119 48.5t-49 115.5zM842 1378q0 74 52.5 124t125.5 50q70 0 118 -47t48 -116q0 -74 -52 -124.5t-126 -50.5q-70 0 -118 48.5t-48 115.5z" />
<glyph unicode="&#x152;" horiz-adv-x="2080" d="M129 600q0 371 274.5 602.5t708.5 231.5h1077l-71 -281h-609l-75 -303h510l-64 -252h-508l-80 -317h652l-134 -281h-960q-338 0 -529.5 159.5t-191.5 440.5zM467 637q0 -170 112.5 -262t321.5 -92h66l217 868h-88q-266 0 -447.5 -147.5t-181.5 -366.5z" />
<glyph unicode="&#x153;" horiz-adv-x="1974" d="M68 446q0 266 181 447.5t443 181.5q123 0 223.5 -51t163.5 -143q86 94 199 144t235 50q186 0 298 -110.5t112 -296.5q0 -57 -9 -115.5t-26 -112.5h-723q8 -109 74 -164t186 -55q90 0 183.5 22.5t185.5 65.5l4 -2l-59 -244q-90 -43 -188.5 -64.5t-202.5 -21.5 q-117 0 -209 45.5t-152 131.5q-84 -88 -193.5 -135.5t-230.5 -47.5q-219 0 -357 132.5t-138 342.5zM369 461q0 -102 59 -163.5t156 -61.5q125 0 214 102.5t89 247.5q0 102 -58.5 163.5t-154.5 61.5q-125 0 -215 -102.5t-90 -247.5zM1200 616h445q2 6 2 14.5v22.5 q0 96 -43 147.5t-123 51.5q-84 0 -163 -66.5t-118 -169.5z" />
<glyph unicode="&#x178;" horiz-adv-x="1429" d="M236 1434h352l200 -555l467 555h390v-4l-756 -855l-144 -575h-329l147 596zM581 1724q0 74 51 125.5t125 51.5q72 0 121 -48.5t49 -117.5q0 -74 -51 -125t-125 -51q-72 0 -121 48t-49 117zM1042 1724q0 74 51 125.5t125 51.5q72 0 121 -48.5t49 -117.5q0 -74 -51 -125 t-125 -51q-72 0 -121 48t-49 117z" />
<glyph unicode="&#x2c6;" horiz-adv-x="1024" d="M295 1223v4l350 375h262l166 -379h-147l-185 172l-276 -172h-170z" />
<glyph unicode="&#x2dc;" horiz-adv-x="1024" d="M274 1294q119 172 179.5 226.5t126.5 54.5q29 0 64.5 -13.5t109.5 -56.5q66 -37 93 -48t48 -11q29 0 59.5 23.5t112.5 111.5l115 -86q-121 -176 -181.5 -229.5t-123.5 -53.5q-29 0 -65 14.5t-112 57.5q-63 37 -90.5 48t-46.5 11q-31 0 -61.5 -23.5t-112.5 -111.5z" />
<glyph unicode="&#x2000;" horiz-adv-x="955" />
<glyph unicode="&#x2001;" horiz-adv-x="1911" />
<glyph unicode="&#x2002;" horiz-adv-x="955" />
<glyph unicode="&#x2003;" horiz-adv-x="1911" />
<glyph unicode="&#x2004;" horiz-adv-x="637" />
<glyph unicode="&#x2005;" horiz-adv-x="477" />
<glyph unicode="&#x2006;" horiz-adv-x="318" />
<glyph unicode="&#x2007;" horiz-adv-x="318" />
<glyph unicode="&#x2008;" horiz-adv-x="238" />
<glyph unicode="&#x2009;" horiz-adv-x="382" />
<glyph unicode="&#x200a;" horiz-adv-x="106" />
<glyph unicode="&#x2010;" horiz-adv-x="819" d="M86 432l70 277h600l-68 -277h-602z" />
<glyph unicode="&#x2011;" horiz-adv-x="819" d="M86 432l70 277h600l-68 -277h-602z" />
<glyph unicode="&#x2012;" horiz-adv-x="819" d="M86 432l70 277h600l-68 -277h-602z" />
<glyph unicode="&#x2013;" horiz-adv-x="1146" d="M86 436l68 269h927l-65 -269h-930z" />
<glyph unicode="&#x2014;" horiz-adv-x="1925" d="M86 436l68 269h1706l-66 -269h-1708z" />
<glyph unicode="&#x2018;" horiz-adv-x="526" d="M180 969q0 113 98.5 226.5t325.5 256.5l86 -72q-117 -117 -167 -200.5t-50 -163.5q0 -41 16.5 -91.5t55.5 -129.5h-320q-23 45 -34 88t-11 86z" />
<glyph unicode="&#x2019;" horiz-adv-x="526" d="M131 848q117 113 167 198.5t50 165.5q0 41 -16.5 91.5t-55.5 130.5h320q23 -51 34 -93.5t11 -83.5q0 -113 -99.5 -225t-326.5 -256z" />
<glyph unicode="&#x201a;" horiz-adv-x="495" d="M-176 -348q117 113 167 198.5t50 165.5q0 41 -16.5 91.5t-55.5 130.5h320q23 -51 34 -93.5t11 -83.5q0 -113 -99.5 -225t-326.5 -256z" />
<glyph unicode="&#x201c;" horiz-adv-x="987" d="M180 969q0 113 98.5 226.5t325.5 256.5l78 -72q-117 -117 -167 -200.5t-50 -163.5q0 -41 16.5 -91.5t55.5 -129.5h-312q-23 45 -34 88t-11 86zM649 969q0 113 98.5 226.5t325.5 256.5l78 -72q-117 -117 -167 -200.5t-50 -163.5q0 -41 16.5 -91.5t55.5 -129.5h-312 q-23 45 -34 88t-11 86z" />
<glyph unicode="&#x201d;" horiz-adv-x="987" d="M131 848q117 113 167 198.5t50 165.5q0 41 -16.5 91.5t-55.5 130.5h312q23 -51 34 -93.5t11 -83.5q0 -113 -99.5 -225t-326.5 -256zM600 848q117 113 167 198.5t50 165.5q0 39 -14.5 86.5t-57.5 135.5h312q23 -51 34 -93.5t11 -83.5q0 -113 -99.5 -225t-326.5 -256z" />
<glyph unicode="&#x201e;" horiz-adv-x="956" d="M-176 -348q117 113 167 198.5t50 165.5q0 41 -16.5 91.5t-55.5 130.5h312q23 -51 34 -93.5t11 -83.5q0 -113 -99.5 -225t-326.5 -256zM293 -348q117 113 167 198.5t50 165.5q0 39 -14.5 86.5t-57.5 135.5h312q23 -51 34 -93.5t11 -83.5q0 -113 -99.5 -225t-326.5 -256z " />
<glyph unicode="&#x2022;" horiz-adv-x="1103" d="M244 694q0 160 109.5 272.5t264.5 112.5q143 0 240.5 -97t97.5 -243q0 -160 -109 -272.5t-265 -112.5q-143 0 -240.5 97.5t-97.5 242.5z" />
<glyph unicode="&#x2026;" horiz-adv-x="1443" d="M-31 160q0 82 56.5 138t136.5 56q76 0 128 -51t52 -127q0 -82 -56 -139t-136 -57q-76 0 -128.5 52t-52.5 128zM446 160q0 82 56.5 138t136.5 56q76 0 128 -51t52 -127q0 -82 -56 -139t-136 -57q-76 0 -128.5 52t-52.5 128zM926 160q0 80 55 137t135 57q78 0 129 -51 t51 -127q0 -82 -55 -139t-135 -57q-76 0 -128 52t-52 128z" />
<glyph unicode="&#x202f;" horiz-adv-x="382" />
<glyph unicode="&#x2039;" horiz-adv-x="815" d="M59 498l13 53l682 516l88 -74l-428 -489l194 -457l-100 -65z" />
<glyph unicode="&#x203a;" horiz-adv-x="815" d="M-29 55l428 490l-192 454l100 68l449 -516l-13 -53l-682 -516z" />
<glyph unicode="&#x205f;" horiz-adv-x="477" />
<glyph unicode="&#x20ac;" horiz-adv-x="1400" d="M39 481l43 172h203q2 33 7 66t11 65h-190l43 172h200q96 233 290 367.5t435 134.5q113 0 212.5 -29.5t185.5 -87.5l-64 -297h-4q-76 68 -156.5 100t-177.5 32q-123 0 -220 -60.5t-157 -173.5h476l-39 -158h-494q-8 -31 -15 -63.5t-12 -67.5h490l-41 -157h-457 q8 -115 75 -176.5t181 -61.5q98 0 198.5 36t205.5 109l4 -2l-117 -340q-82 -41 -174 -63.5t-176 -22.5q-231 0 -370.5 134.5t-153.5 371.5h-242z" />
<glyph unicode="&#x2122;" horiz-adv-x="2064" d="M233 1253l48 181h737l-45 -181h-266l-156 -626h-201l156 626h-273zM920 627l241 807h273l96 -443l315 443h299l-164 -807h-194l117 583l-447 -598h-22l-146 598l-174 -583h-194z" />
<glyph unicode="&#x25fc;" horiz-adv-x="1044" d="M0 0v1044h1044v-1044h-1044z" />
<glyph unicode="&#xfb03;" horiz-adv-x="2371" d="M98 0l201 805h-168l59 242h168l29 114q49 193 169 291t306 98q55 0 104.5 -8t94.5 -24l20 -252l-6 -4q-45 23 -88 33t-92 10q-84 0 -139.5 -46.5t-75.5 -136.5l-18 -75h323l-59 -242h-320l-198 -805h-310zM987 0l201 805h-168l59 242h168l29 114q49 193 169 291t306 98 q55 0 104.5 -8t94.5 -24l20 -252l-6 -4q-45 23 -88 33t-92 10q-84 0 -139.5 -46.5t-75.5 -136.5l-18 -75h323l-59 -242h-320l-198 -805h-310zM1790 0l260 1047h310l-260 -1047h-310zM2100 1386q0 78 56 131.5t138 53.5q78 0 130 -49t52 -123q0 -78 -56 -131.5t-138 -53.5 q-78 0 -130 49.5t-52 122.5z" />
<glyph unicode="&#xfb04;" horiz-adv-x="2371" d="M98 0l201 805h-168l59 242h168l29 114q49 193 169 291t306 98q55 0 104.5 -8t94.5 -24l20 -252l-6 -4q-45 23 -88 33t-92 10q-84 0 -139.5 -46.5t-75.5 -136.5l-18 -75h323l-59 -242h-320l-198 -805h-310zM987 0l201 805h-168l59 242h168l29 114q49 193 169 291t306 98 q55 0 104.5 -8t94.5 -24l20 -252l-6 -4q-45 23 -88 33t-92 10q-84 0 -139.5 -46.5t-75.5 -136.5l-18 -75h323l-59 -242h-320l-198 -805h-310zM1790 0l365 1466l332 86l-387 -1552h-310z" />
</font>
</defs>
</svg>
