<?xml version="1.0" standalone="no"?>
<!DOCTYPE svg PUBLIC "-//W3C//DTD SVG 1.1//EN" "http://www.w3.org/Graphics/SVG/1.1/DTD/svg11.dtd" >
<svg xmlns="http://www.w3.org/2000/svg">
<metadata></metadata>
<defs>
<font id="mallory_extra_lightregular" horiz-adv-x="1142" >
<font-face units-per-em="2048" ascent="1638" descent="-410" />
<missing-glyph horiz-adv-x="448" />
<glyph unicode="&#xfb01;" horiz-adv-x="1255" d="M86 918v81h186v213q0 152 79 239t214 87q45 0 86 -11t84 -36l17 -100l-4 -2q-53 35 -94.5 49t-86.5 14q-92 0 -146 -63.5t-54 -171.5v-218h352v-81h-352v-918h-95v918h-186zM928 1356q0 31 22.5 53.5t53.5 22.5t53.5 -23t22.5 -53q0 -33 -21.5 -55.5t-54.5 -22.5 t-54.5 22.5t-21.5 55.5zM957 0v999h94v-999h-94z" />
<glyph unicode="&#xfb02;" horiz-adv-x="1255" d="M86 918v81h186v213q0 152 79 239t214 87q45 0 86 -11t84 -36l17 -100l-4 -2q-53 35 -94.5 49t-86.5 14q-92 0 -146 -63.5t-54 -171.5v-218h352v-81h-352v-918h-95v918h-186zM957 0v1501l94 39v-1540h-94z" />
<glyph horiz-adv-x="0" />
<glyph horiz-adv-x="0" />
<glyph horiz-adv-x="682" />
<glyph unicode="&#xd;" horiz-adv-x="681" />
<glyph unicode=" "  horiz-adv-x="448" />
<glyph unicode="&#x09;" horiz-adv-x="448" />
<glyph unicode="&#xa0;" horiz-adv-x="448" />
<glyph unicode="!" horiz-adv-x="499" d="M166 72q0 35 24.5 59.5t59.5 24.5t59.5 -25t24.5 -59q0 -35 -24.5 -59.5t-59.5 -24.5t-59.5 24.5t-24.5 59.5zM201 1122v312h98v-312l-27 -739h-45z" />
<glyph unicode="&#x22;" horiz-adv-x="806" d="M94 864l187 570h127l-269 -586zM459 864l188 570h125l-268 -586z" />
<glyph unicode="#" horiz-adv-x="1372" d="M61 406v88h287l105 446h-289v88h309l96 410h74l-96 -410h442l96 410h76l-96 -410h246v-88h-267l-104 -446h268v-88h-288l-97 -410h-75l96 410h-443l-96 -410h-74l97 410h-267zM422 494h442l105 446h-443z" />
<glyph unicode="$" horiz-adv-x="1173" d="M94 264l2 2q92 -72 198.5 -118t213.5 -60l57 606q-231 70 -324.5 159t-93.5 232q0 158 123 255.5t318 97.5h29.5t17.5 -2l24 250h76l-26 -259q76 -12 147.5 -40.5t138.5 -71.5v-107h-4q-74 51 -145.5 84t-145.5 47l-55 -579q225 -70 317.5 -161t92.5 -232 q0 -166 -130 -268.5t-335 -102.5h-19l-32 -330h-76l35 336q-106 12 -204.5 51t-174.5 94zM238 1094q0 -106 74.5 -177t260.5 -135l54 568q-8 2 -18.5 2h-30.5q-147 0 -243.5 -73t-96.5 -185zM580 82h16q164 0 267.5 78t103.5 200q0 109 -75 179.5t-257 132.5z" />
<glyph unicode="%" horiz-adv-x="1873" d="M117 1057q0 178 93 291.5t239 113.5q143 0 234 -113.5t91 -289.5q0 -178 -92 -293t-236 -115q-145 0 -237 114t-92 292zM203 1057q0 -143 69.5 -235.5t178.5 -92.5q104 0 170.5 92t66.5 234q0 143 -68 235t-174 92q-104 0 -173.5 -93t-69.5 -232zM408 -4l499 741l467 701 h94l-499 -742l-467 -700h-94zM1104 375q0 178 92 292.5t238 114.5q145 0 236 -113.5t91 -291.5t-93 -292t-238 -114q-143 0 -234.5 114t-91.5 290zM1190 379q0 -143 68 -235.5t174 -92.5q104 0 173.5 93.5t69.5 232.5q0 143 -69.5 235.5t-178.5 92.5q-104 0 -170.5 -92.5 t-66.5 -233.5z" />
<glyph unicode="&#x26;" horiz-adv-x="1378" d="M90 317q0 123 86 220.5t301 205.5q-94 125 -134 213t-40 177q0 141 102.5 235t253.5 94q133 0 225.5 -88t92.5 -217q0 -121 -92 -229.5t-277 -206.5q70 -84 148 -170t170 -176q53 63 115.5 146t144.5 196h108v-4q-100 -137 -172.5 -231.5t-132.5 -166.5q68 -63 150 -139 t190 -172v-4h-125q-68 57 -136.5 119.5t-137.5 128.5q-127 -139 -241 -201.5t-236 -62.5q-158 0 -260.5 95t-102.5 238zM186 324q0 -109 78 -180.5t197 -71.5q102 0 197.5 55t209.5 180q-100 98 -186 191.5t-156 181.5q-190 -98 -265 -179t-75 -177zM397 1139q0 -82 36 -159 t126 -196q166 92 245 181.5t79 185.5t-67 161.5t-163 65.5q-106 0 -181 -69.5t-75 -169.5z" />
<glyph unicode="'" horiz-adv-x="440" d="M94 864l187 570h127l-269 -586z" />
<glyph unicode="(" horiz-adv-x="794" d="M174 625q0 268 120 483t396 426l35 -39q-246 -207 -353.5 -413.5t-107.5 -456.5t107.5 -457t353.5 -414l-35 -39q-276 211 -396 426t-120 484z" />
<glyph unicode=")" horiz-adv-x="794" d="M70 -246q246 207 353 414t107 457t-107.5 456.5t-352.5 413.5l34 39q276 -211 396.5 -426t120.5 -483t-120 -483.5t-397 -426.5z" />
<glyph unicode="*" horiz-adv-x="1083" d="M106 1096l35 114l330 -163l-8 -23zM238 700l249 256l21 -14l-174 -307zM483 1460h117l-47 -366h-25zM575 942l21 14l248 -256l-94 -65zM612 1047l330 163l35 -114l-356 -72z" />
<glyph unicode="+" horiz-adv-x="1228" d="M102 678v86h467v469h90v-469h467v-86h-467v-471h-90v471h-467z" />
<glyph unicode="," horiz-adv-x="333" d="M-29 -289q98 113 129 189.5t31 205.5v35h102q0 -145 -43 -238t-184 -222z" />
<glyph unicode="-" horiz-adv-x="727" d="M117 506v90h493v-90h-493z" />
<glyph unicode="." horiz-adv-x="333" d="M84 72q0 35 24.5 59.5t59.5 24.5t59.5 -25t24.5 -59q0 -35 -24.5 -59.5t-59.5 -24.5t-59.5 24.5t-24.5 59.5z" />
<glyph unicode="/" horiz-adv-x="874" d="M-12 -266l729 1782h86l-729 -1782h-86z" />
<glyph unicode="0" horiz-adv-x="1331" d="M139 715q0 330 146.5 538.5t382.5 208.5q233 0 378.5 -207.5t145.5 -535.5q0 -330 -147.5 -539t-380.5 -209t-379 208t-146 536zM236 719q0 -291 119.5 -475.5t312.5 -184.5q188 0 308 184.5t120 471.5q0 289 -121 474t-311 185q-188 0 -308 -184t-120 -471z" />
<glyph unicode="1" horiz-adv-x="845" d="M86 1034v107l455 313l24 -8v-1446h-96v1300z" />
<glyph unicode="2" horiz-adv-x="1161" d="M121 29l536 614q125 143 174.5 238.5t49.5 199.5q0 125 -83 205t-210 80q-123 0 -231.5 -76t-202.5 -223h-4l-17 111q92 139 207 208.5t252 69.5q168 0 276.5 -102.5t108.5 -263.5q0 -119 -52.5 -224.5t-189.5 -263.5l-454 -514h782l-49 -88h-885z" />
<glyph unicode="3" horiz-adv-x="1126" d="M109 223l4 2q117 -84 219 -121.5t209 -37.5q145 0 246.5 81.5t101.5 208.5q0 147 -139.5 239.5t-391.5 111.5v49q252 51 380 142t128 220q0 109 -84 179.5t-211 70.5q-96 0 -197.5 -39t-211.5 -121h-4v109q109 76 208 108.5t209 32.5q172 0 280 -93t108 -239 q0 -129 -95.5 -225t-277.5 -156q190 -39 293.5 -142.5t103.5 -248.5q0 -162 -131 -269.5t-315 -107.5q-106 0 -201.5 29t-210.5 98z" />
<glyph unicode="4" horiz-adv-x="1255" d="M82 403l770 1041l4 -6v6h78v-987h246v-82h-246v-375h-92v375h-754zM215 457h629v846z" />
<glyph unicode="5" horiz-adv-x="1167" d="M137 195q104 -68 202.5 -100t207.5 -32q174 0 289.5 105.5t115.5 263.5t-104.5 253t-276.5 95q-92 0 -185 -24.5t-177 -69.5l-25 12l54 736h755v-88h-669l-39 -541q78 35 150.5 50t150.5 15q205 0 334 -119.5t129 -314.5q0 -199 -142.5 -330t-361.5 -131q-109 0 -205 26 t-184 79z" />
<glyph unicode="6" horiz-adv-x="1175" d="M125 459q0 147 66.5 297.5t236.5 376.5l229 301h117l-262 -347q-55 -70 -99 -134t-77 -122q72 25 140.5 37.5t137.5 12.5q197 0 326 -122t129 -315q0 -201 -136 -337t-343 -136q-211 0 -338 132.5t-127 355.5zM223 461q0 -184 100.5 -293t270.5 -109q164 0 271.5 110 t107.5 269q0 166 -108.5 262.5t-289.5 96.5q-66 0 -137 -13.5t-147 -40.5q-35 -76 -51.5 -144t-16.5 -138z" />
<glyph unicode="7" horiz-adv-x="1116" d="M82 1434h954l8 -21l-667 -1413h-107l643 1346h-807z" />
<glyph unicode="8" horiz-adv-x="1228" d="M129 362q0 123 81 221.5t218 145.5q-121 47 -191.5 141.5t-70.5 208.5q0 160 130 269.5t318 109.5t317.5 -109.5t129.5 -269.5q0 -113 -70.5 -207t-189.5 -143q137 -45 217 -143.5t80 -223.5q0 -166 -140.5 -276.5t-345.5 -110.5t-344 111t-139 276zM225 375 q0 -135 114 -224.5t277 -89.5q164 0 276 89.5t112 224.5q0 129 -118 220t-274 91q-154 0 -270.5 -91t-116.5 -220zM262 1075q0 -127 104.5 -217t247.5 -90t248 89t105 216t-102.5 213t-254.5 86q-147 0 -247.5 -86t-100.5 -211z" />
<glyph unicode="9" horiz-adv-x="1175" d="M106 983q0 203 136.5 341t343.5 138q211 0 338 -132t127 -355q0 -150 -67.5 -301.5t-235.5 -372.5l-230 -301h-117l265 346q47 61 88 120.5t77 121.5q-68 -25 -134 -37t-134 -12q-199 0 -328 123.5t-129 320.5zM203 989q0 -170 107.5 -267t289.5 -97q66 0 137.5 13 t141.5 38q37 78 55 150.5t18 146.5q0 184 -100 292.5t-270 108.5q-164 0 -271.5 -110.5t-107.5 -274.5z" />
<glyph unicode=":" horiz-adv-x="362" d="M98 72q0 35 24.5 59.5t59.5 24.5t59.5 -25t24.5 -59q0 -35 -24.5 -59.5t-59.5 -24.5t-59.5 24.5t-24.5 59.5zM98 928q0 35 24.5 59.5t59.5 24.5t59.5 -24.5t24.5 -59.5t-24.5 -59.5t-59.5 -24.5t-59.5 24.5t-24.5 59.5z" />
<glyph unicode=";" horiz-adv-x="362" d="M-18 -289q98 113 128.5 189.5t30.5 205.5v35h103q0 -145 -43.5 -238t-184.5 -222zM102 928q0 35 25 59.5t59 24.5q35 0 59.5 -24.5t24.5 -59.5t-24.5 -59.5t-59.5 -24.5t-59.5 24.5t-24.5 59.5z" />
<glyph unicode="&#x3c;" horiz-adv-x="1228" d="M150 700v43l909 496v-92l-774 -424l774 -426v-94z" />
<glyph unicode="=" horiz-adv-x="1228" d="M123 473v86h983v-86h-983zM123 883v86h983v-86h-983z" />
<glyph unicode="&#x3e;" horiz-adv-x="1228" d="M170 203v94l774 424l-774 424v94l909 -496v-43z" />
<glyph unicode="?" horiz-adv-x="985" d="M84 1128v117q98 104 204.5 156.5t225.5 52.5q152 0 253 -90t101 -225q0 -94 -52 -170t-195 -172q-123 -84 -163 -128t-40 -96q0 -33 15.5 -72.5t49.5 -99.5h-59q-59 76 -76.5 116t-17.5 85q0 61 47 116.5t180 143.5q129 86 173 144.5t44 132.5q0 96 -78 161.5t-188 65.5 q-109 0 -214.5 -60.5t-205.5 -179.5zM365 72q0 35 24.5 59.5t59.5 24.5t59 -25t24 -59q0 -35 -24 -59.5t-59 -24.5t-59.5 24.5t-24.5 59.5z" />
<glyph unicode="@" horiz-adv-x="2172" d="M139 436q0 213 84 413t236 353q154 156 352.5 240t413.5 84q369 0 592 -213t223 -568q0 -264 -135.5 -441t-335.5 -177q-104 0 -171 60.5t-67 158.5q-129 -113 -235.5 -166t-200.5 -53q-123 0 -198.5 82t-75.5 215q0 109 48 217.5t134 196.5q88 90 194.5 138t216.5 48 q70 0 136.5 -22.5t126.5 -63.5l55 74h33l-135 -582q-6 -25 -8.5 -44t-2.5 -38q0 -78 44 -121t122 -43q164 0 280.5 163t116.5 396q0 336 -206.5 533t-554.5 197q-203 0 -389.5 -80t-331.5 -228q-143 -147 -222 -336.5t-79 -388.5q0 -356 214 -560t588 -204q154 0 287 24 t266 75v-58q-143 -51 -275.5 -73.5t-277.5 -22.5q-399 0 -630.5 219t-231.5 596zM713 434q0 -104 55 -163.5t150 -59.5q80 0 188 55.5t235 161.5l101 438q-51 37 -111.5 56.5t-124.5 19.5q-188 0 -340.5 -160t-152.5 -348z" />
<glyph unicode="A" horiz-adv-x="1585" d="M80 0l665 1446h99l661 -1446h-108l-187 412h-841l-189 -412h-100zM410 502h759l-378 837z" />
<glyph unicode="B" horiz-adv-x="1226" d="M225 0v1434h387q193 0 306.5 -98.5t113.5 -266.5q0 -113 -62.5 -198t-174.5 -128q145 -35 228 -128t83 -224q0 -176 -131 -283.5t-342 -107.5h-408zM322 88h313q168 0 270.5 83t102.5 220q0 131 -104.5 214t-262.5 83h-319v-600zM322 774h276q147 0 241.5 81t94.5 208 q0 129 -89 206t-239 77h-284v-572z" />
<glyph unicode="C" horiz-adv-x="1505" d="M127 715q0 150 54.5 285t156.5 239q104 104 238.5 161.5t281.5 57.5q145 0 278.5 -55t227.5 -152v-121h-4q-111 117 -240 176.5t-268 59.5q-252 0 -438.5 -191.5t-186.5 -455.5q0 -131 44 -248t128 -207q88 -94 203 -145t238 -51q150 0 286 63.5t252 185.5l4 -2l-18 -125 q-109 -104 -243.5 -159.5t-286.5 -55.5q-143 0 -275.5 57.5t-232.5 162.5q-96 102 -147.5 235t-51.5 285z" />
<glyph unicode="D" horiz-adv-x="1599" d="M225 0v1434h445q362 0 581 -195t219 -518q0 -326 -222 -523.5t-578 -197.5h-445zM324 90h350q307 0 502.5 172t195.5 453q0 287 -194.5 457.5t-511.5 170.5h-342v-1253z" />
<glyph unicode="E" d="M225 0v1434h766l37 -91h-704v-569h604v-90h-604v-594h710l-37 -90h-772z" />
<glyph unicode="F" horiz-adv-x="1089" d="M225 0v1434h793l-39 -91h-655v-598h563v-90h-563v-655h-99z" />
<glyph unicode="G" horiz-adv-x="1619" d="M127 709q0 326 221 536.5t557 210.5q129 0 252 -36t232 -103v-113q-111 78 -236 119t-252 41q-287 0 -480.5 -186.5t-193.5 -464.5q0 -287 183.5 -464t468.5 -177q123 0 225 27.5t211 88.5v435h-496v90h592v-578q-143 -84 -270 -119.5t-273 -35.5q-324 0 -532.5 202.5 t-208.5 526.5z" />
<glyph unicode="H" horiz-adv-x="1665" d="M225 0v1434h99v-652h1017v652h99v-1434h-99v690h-1017v-690h-99z" />
<glyph unicode="I" horiz-adv-x="567" d="M236 0v1434h98v-1434h-98z" />
<glyph unicode="J" horiz-adv-x="917" d="M78 193l4 2q66 -61 133 -92t133 -31q111 0 176.5 73.5t65.5 194.5v1094h98v-1100q0 -160 -90 -256t-242 -96q-70 0 -132 21.5t-122 68.5z" />
<glyph unicode="K" horiz-adv-x="1376" d="M225 0v1434h99v-654h92l760 654h133v-4l-815 -693l827 -733v-4h-137l-774 692h-86v-692h-99z" />
<glyph unicode="L" horiz-adv-x="1060" d="M225 0v1434h99v-1344h680v-90h-779z" />
<glyph unicode="M" horiz-adv-x="2064" d="M225 0v1434h137l670 -1289l668 1289h139v-1434h-96v1319l-703 -1339h-22l-701 1335v-1315h-92z" />
<glyph unicode="N" horiz-adv-x="1693" d="M225 0v1434h92l1057 -1233v1233h94v-1440h-36l-1113 1296v-1290h-94z" />
<glyph unicode="O" horiz-adv-x="1736" d="M127 715q0 313 217 530t526 217q307 0 522.5 -216t215.5 -527q0 -313 -216.5 -530.5t-525.5 -217.5q-307 0 -523 216t-216 528zM227 719q0 -274 187.5 -465t453.5 -191q264 0 452.5 190.5t188.5 461.5q0 274 -189.5 464.5t-455.5 190.5q-262 0 -449.5 -190.5 t-187.5 -460.5z" />
<glyph unicode="P" horiz-adv-x="1148" d="M225 0v1434h369q207 0 335 -113t128 -301q0 -195 -133 -310.5t-351 -115.5h-249v-594h-99zM322 684h258q170 0 273 90t103 242q0 150 -101 238.5t-267 88.5h-266v-659z" />
<glyph unicode="Q" horiz-adv-x="1736" d="M127 715q0 313 217 530t526 217q307 0 522.5 -216t215.5 -527q0 -283 -181.5 -493t-455.5 -249q80 -119 176 -171t231 -52q39 0 81 5t91 18l2 -2l-28 -92q-43 -10 -81 -14.5t-75 -4.5q-168 0 -293 73t-229 234q-303 10 -511 224.5t-208 519.5zM227 719q0 -274 187.5 -465 t453.5 -191q264 0 452.5 191t188.5 461q0 274 -189.5 464.5t-455.5 190.5q-262 0 -449.5 -190.5t-187.5 -460.5z" />
<glyph unicode="R" horiz-adv-x="1245" d="M225 0v1434h371q205 0 329 -108.5t124 -295.5q0 -152 -104.5 -263.5t-270.5 -139.5l573 -627h-127l-557 614h-239v-614h-99zM322 705h260q154 0 261 93t107 232q0 143 -98 228t-260 85h-270v-638z" />
<glyph unicode="S" horiz-adv-x="1140" d="M104 281l5 2q100 -102 220 -158.5t242 -56.5q135 0 231.5 78.5t96.5 197.5q0 98 -74.5 173t-279.5 169q-227 106 -307 195.5t-80 212.5q0 160 116.5 262t292.5 102q102 0 190.5 -26.5t184.5 -90.5v-110h-4q-90 70 -182 102.5t-193 32.5q-131 0 -219 -74.5t-88 -189.5 q0 -92 67.5 -161t282.5 -171q223 -104 307 -197.5t84 -220.5q0 -162 -124.5 -269.5t-305.5 -107.5q-121 0 -233.5 43t-200.5 121z" />
<glyph unicode="T" horiz-adv-x="1423" d="M63 1343v91h1299v-91h-600v-1343h-98v1343h-601z" />
<glyph unicode="U" horiz-adv-x="1599" d="M207 586v848h98v-854q0 -236 135 -375t363 -139q225 0 360 139t135 379v850h95v-846q0 -283 -161 -448t-433 -165t-432 165t-160 446z" />
<glyph unicode="V" horiz-adv-x="1570" d="M80 1434h110l596 -1282l600 1282h105l-696 -1461h-27z" />
<glyph unicode="W" horiz-adv-x="2428" d="M94 1434h107l458 -1317l547 1323h25l538 -1325l465 1319h101l-518 -1448h-97l-506 1249l-512 -1249h-94z" />
<glyph unicode="X" horiz-adv-x="1480" d="M90 0l586 727l-570 707h121l516 -639l514 639h117l-569 -707l586 -727h-121l-533 662l-530 -662h-117z" />
<glyph unicode="Y" horiz-adv-x="1337" d="M51 1434h119l502 -691l502 691h114l-567 -775v-659h-98v655z" />
<glyph unicode="Z" horiz-adv-x="1433" d="M100 16l1041 1327h-971v91h1137l8 -17l-1041 -1327h1059l-51 -90h-1173z" />
<glyph unicode="[" horiz-adv-x="813" d="M244 -266v1782h456l27 -68h-393v-1647h393l-27 -67h-456z" />
<glyph unicode="\" horiz-adv-x="874" d="M72 1516h84l731 -1782h-86z" />
<glyph unicode="]" horiz-adv-x="813" d="M86 -199h393v1647h-393l27 68h456v-1782h-456z" />
<glyph unicode="^" horiz-adv-x="1228" d="M117 686l477 799h41l477 -799h-96l-402 678l-403 -678h-94z" />
<glyph unicode="_" horiz-adv-x="1228" d="M-4 -178h1237v-76h-1237v76z" />
<glyph unicode="`" horiz-adv-x="1024" d="M223 1526v2h127l197 -320h-51z" />
<glyph unicode="a" d="M113 238q0 174 182 259t565 93v43q0 147 -71.5 225t-206.5 78q-90 0 -182.5 -36t-190.5 -112l-4 3l22 110q90 63 180.5 93t186.5 30q170 0 265 -102.5t95 -284.5v-617l-94 -32v198q-133 -109 -239.5 -157.5t-210.5 -48.5q-129 0 -213 71.5t-84 186.5zM207 242 q0 -80 60.5 -129.5t154.5 -49.5q90 0 197.5 47.5t240.5 147.5v258q-334 -10 -493.5 -76.5t-159.5 -197.5z" />
<glyph unicode="b" horiz-adv-x="1259" d="M195 0v1501l94 39v-709q98 98 193.5 143.5t201.5 45.5q197 0 332 -143.5t135 -360.5q0 -231 -147.5 -382.5t-368.5 -151.5q-86 0 -174 31.5t-182 97.5l-56 -111h-28zM289 199q90 -66 176 -98.5t168 -32.5q178 0 300 129t122 317q0 182 -114 302t-277 120 q-94 0 -184.5 -44t-190.5 -140v-553z" />
<glyph unicode="c" horiz-adv-x="1099" d="M109 500q0 221 149.5 373.5t370.5 152.5q100 0 189 -32.5t163 -98.5v-113h-4q-80 78 -168 118t-182 40q-178 0 -301 -128t-123 -308q0 -193 115.5 -318t297.5 -125q92 0 187.5 40t187.5 118l4 -4l-20 -111q-88 -66 -178 -97.5t-187 -31.5q-217 0 -359 148.5t-142 376.5z " />
<glyph unicode="d" horiz-adv-x="1261" d="M111 485q0 229 143 381t358 152q92 0 182.5 -36t180.5 -110v629l92 39v-1540h-92v172q-96 -100 -191.5 -146t-201.5 -46q-199 0 -335 143t-136 362zM205 489q0 -184 114.5 -303.5t278.5 -119.5q94 0 186.5 44t190.5 138v536q-92 76 -180 113t-174 37q-176 0 -296 -129.5 t-120 -315.5z" />
<glyph unicode="e" horiz-adv-x="1138" d="M109 506q0 219 135 370.5t338 151.5t325.5 -143.5t122.5 -368.5v-36t-2 -21h-825q14 -182 127.5 -289t290.5 -107q86 0 178 32t192 95l-35 -112q-86 -51 -170 -76t-174 -25q-227 0 -365 144.5t-138 384.5zM201 537h737q-6 184 -103 295.5t-257 111.5 q-154 0 -262.5 -118.5t-114.5 -288.5z" />
<glyph unicode="f" horiz-adv-x="751" d="M86 918v81h186v213q0 152 79 239t214 87q45 0 86 -11t84 -36l17 -100l-4 -2q-53 35 -94.5 49t-86.5 14q-92 0 -146 -63.5t-54 -171.5v-218h352v-81h-352v-918h-95v918h-186z" />
<glyph unicode="g" horiz-adv-x="1261" d="M109 508q0 217 147 363.5t362 146.5q94 0 182.5 -31t182.5 -98l55 110h29v-895q0 -229 -135.5 -362t-362.5 -133q-100 0 -197.5 23.5t-191.5 72.5l-28 111l6 2q106 -61 208.5 -92t204.5 -31q180 0 291 110.5t111 296.5v117q-98 -100 -193.5 -146t-204.5 -46 q-203 0 -334.5 136t-131.5 345zM203 510q0 -174 110.5 -286.5t280.5 -112.5q94 0 186 45t193 139v506q-94 70 -179 102.5t-173 32.5q-172 0 -295 -125t-123 -301z" />
<glyph unicode="h" horiz-adv-x="1230" d="M195 0v1501l94 39v-760q94 127 190 185.5t209 58.5q164 0 262.5 -106.5t98.5 -290.5v-627h-93v618q0 152 -76.5 236t-209.5 84q-98 0 -188.5 -56.5t-192.5 -183.5v-698h-94z" />
<glyph unicode="i" horiz-adv-x="503" d="M176 1356q0 31 22.5 53.5t53.5 22.5t53.5 -23t22.5 -53q0 -33 -21.5 -55.5t-54.5 -22.5t-54.5 22.5t-21.5 55.5zM205 0v999h94v-999h-94z" />
<glyph unicode="j" horiz-adv-x="503" d="M-63 -281q29 -12 54 -17t52 -5q74 0 120 48t46 132v1122h92v-1120q0 -125 -68.5 -195.5t-183.5 -70.5q-25 0 -50.5 5t-47.5 13zM180 1356q0 33 21.5 54.5t54.5 21.5q31 0 52.5 -23t21.5 -53q0 -33 -21.5 -55.5t-54.5 -22.5q-31 0 -52.5 22.5t-21.5 55.5z" />
<glyph unicode="k" horiz-adv-x="1062" d="M195 0v1501l94 39v-993h76l503 452h125v-4l-551 -485l576 -506v-4h-127l-531 469h-71v-469h-94z" />
<glyph unicode="l" horiz-adv-x="503" d="M205 0v1501l94 39v-1540h-94z" />
<glyph unicode="m" horiz-adv-x="1921" d="M195 0v981l94 33v-226q92 123 182 179.5t195 56.5q119 0 205.5 -64.5t121.5 -179.5q98 129 193.5 186.5t204.5 57.5q158 0 253 -107.5t95 -289.5v-627h-94v618q0 152 -73 236t-200 84q-88 0 -177 -56.5t-187 -172.5q4 -20 5 -41t1 -41v-627h-94v618q0 152 -73 236 t-200 84q-92 0 -177 -56.5t-181 -181.5v-700h-94z" />
<glyph unicode="n" horiz-adv-x="1230" d="M195 0v981l94 33v-234q94 127 190 185.5t209 58.5q164 0 262.5 -106.5t98.5 -290.5v-627h-93v618q0 152 -76.5 236t-209.5 84q-98 0 -188.5 -56.5t-192.5 -183.5v-698h-94z" />
<glyph unicode="o" horiz-adv-x="1263" d="M109 498q0 223 150.5 376.5t375.5 153.5q223 0 371.5 -152.5t148.5 -373.5q0 -223 -150.5 -377t-375.5 -154q-221 0 -370.5 154t-149.5 373zM203 502q0 -188 123 -316.5t305 -128.5q184 0 307 128.5t123 314.5q0 190 -122 317t-306 127t-307 -128t-123 -314z" />
<glyph unicode="p" horiz-adv-x="1261" d="M195 -381v1368l94 23v-181q98 98 192 144.5t201 46.5q199 0 335 -143.5t136 -362.5q0 -229 -144.5 -380.5t-357.5 -151.5q-92 0 -182 36.5t-180 110.5v-510h-94zM289 215q90 -74 178 -110.5t176 -36.5q174 0 295 128t121 314q0 184 -115 305t-280 121q-94 0 -184.5 -44 t-190.5 -140v-537z" />
<glyph unicode="q" horiz-adv-x="1259" d="M111 483q0 231 146 383t368 152q88 0 176 -32t180 -97l55 110h29v-1380h-94v551q-98 -98 -192.5 -144t-200.5 -46q-197 0 -332 142t-135 361zM205 487q0 -184 113.5 -302.5t277.5 -118.5q94 0 184 44t191 138v555q-90 66 -176 98.5t-168 32.5q-178 0 -300 -129.5 t-122 -317.5z" />
<glyph unicode="r" horiz-adv-x="800" d="M195 0v981l94 33v-262q135 158 212 211t165 53q20 0 35.5 -2t27.5 -6l10 -101q-14 6 -29.5 8.5t-33.5 2.5q-84 0 -168 -53.5t-219 -194.5v-670h-94z" />
<glyph unicode="s" horiz-adv-x="987" d="M88 238l4 2q96 -88 201.5 -132.5t222.5 -44.5t194.5 54.5t77.5 136.5q0 74 -59 119t-244 96q-211 57 -282.5 119.5t-71.5 167.5q0 117 100.5 191.5t253.5 74.5q88 0 173 -26.5t161 -75.5v-103h-6q-78 57 -165 89t-169 32q-111 0 -183.5 -49t-72.5 -125q0 -72 58.5 -116 t240.5 -95q211 -57 285 -122.5t74 -172.5q0 -121 -106.5 -201t-264.5 -80q-113 0 -216.5 36t-187.5 104z" />
<glyph unicode="t" horiz-adv-x="866" d="M74 918v81h178v250l94 41v-291h440v-81h-440v-654q0 -92 51.5 -146.5t137.5 -54.5q68 0 132 30t124 87l6 -2l-27 -110q-55 -43 -118.5 -67t-129.5 -24q-121 0 -195.5 76t-74.5 205v660h-178z" />
<glyph unicode="u" horiz-adv-x="1230" d="M182 373v626h94v-618q0 -152 76 -236t209 -84q98 0 188.5 56.5t192.5 183.5v698h94v-999h-94v219q-94 -127 -190.5 -185.5t-208.5 -58.5q-164 0 -262.5 106.5t-98.5 291.5z" />
<glyph unicode="v" horiz-adv-x="1157" d="M61 999h103l414 -864l417 864h101l-510 -1022h-25z" />
<glyph unicode="w" horiz-adv-x="1761" d="M70 999h102l332 -890l366 897h25l360 -897l340 890h97l-402 -1015h-78l-333 829l-338 -829h-78z" />
<glyph unicode="x" horiz-adv-x="1114" d="M76 0l422 514l-402 485h113l348 -426l350 426h109l-400 -483l422 -516h-112l-369 453l-371 -453h-110z" />
<glyph unicode="y" horiz-adv-x="1064" d="M45 -244l4 2q45 -31 83 -44q33 -11 68 -11h11q80 2 137.5 55.5t108.5 173.5l45 109l-445 958h103l391 -858l360 858h103l-471 -1091q-66 -154 -142 -222.5t-182 -70.5h-13q-32 0 -64 8q-38 10 -79 35z" />
<glyph unicode="z" horiz-adv-x="1062" d="M61 14l750 904h-684v81h846l6 -12l-752 -905h758l-29 -82h-888z" />
<glyph unicode="{" horiz-adv-x="1007" d="M127 604v41l125 14q109 12 162 54.5t53 115.5q0 29 -10.5 66t-46.5 113q-39 88 -52.5 134t-13.5 85q0 135 96.5 212t264.5 77h186l27 -68h-203q-131 0 -203 -56.5t-72 -156.5q0 -35 11.5 -77t50.5 -126q37 -82 48 -122t11 -72q0 -78 -50 -132.5t-149 -80.5 q98 -27 148.5 -81.5t50.5 -131.5q0 -33 -11 -73t-48 -122q-39 -84 -50.5 -126t-11.5 -77q0 -100 72 -156.5t203 -56.5h203l-27 -67h-186q-168 0 -264.5 76.5t-96.5 212.5q0 39 13.5 85t52.5 134q37 76 47 112.5t10 65.5q0 74 -53.5 116t-161.5 54z" />
<glyph unicode="|" horiz-adv-x="702" d="M307 -266v1782h88v-1782h-88z" />
<glyph unicode="}" horiz-adv-x="1007" d="M90 -199h203q131 0 202.5 56.5t71.5 156.5q0 35 -11 77t-50 126q-37 82 -48.5 122t-11.5 73q0 78 50.5 132t148.5 81q-98 27 -148.5 81t-50.5 132q0 33 11.5 72.5t48.5 121.5q39 84 50 126t11 77q0 100 -71.5 156.5t-202.5 56.5h-203l27 68h186q168 0 264.5 -77 t96.5 -212q0 -39 -13.5 -85t-52.5 -134q-37 -76 -47 -113t-10 -66q0 -74 53 -115.5t162 -54.5l125 -14v-41l-125 -14q-109 -12 -162 -54t-53 -116q0 -29 10 -66t47 -112q39 -88 52.5 -134t13.5 -85q0 -135 -96.5 -212t-264.5 -77h-186z" />
<glyph unicode="~" horiz-adv-x="1228" d="M115 598q84 160 141 217t133 57q33 0 84 -21.5t166 -88.5q98 -59 139 -77.5t66 -18.5q53 0 96 44t113 167l61 -31q-84 -162 -141.5 -219.5t-132.5 -57.5q-33 0 -84 21.5t-166 91.5q-98 59 -139 77.5t-66 18.5q-53 0 -96 -44t-113 -169z" />
<glyph unicode="&#xa1;" horiz-adv-x="499" d="M166 1362q0 35 24.5 59.5t59.5 24.5t59.5 -24.5t24.5 -59.5q0 -33 -24.5 -58.5t-59.5 -25.5t-59.5 24.5t-24.5 59.5zM201 0v311l26 740h45l27 -740v-311h-98z" />
<glyph unicode="&#xa2;" horiz-adv-x="1058" d="M111 711q0 209 139 355t344 153l22 225h74l-20 -230q70 -8 135 -32.5t131 -69.5v-111h-4q-72 57 -138.5 89t-134.5 40l-79 -835h2q94 0 189 32.5t177 94.5l2 -2l-20 -107q-76 -49 -167 -75.5t-185 -26.5h-5l-24 -225h-74l23 231q-174 29 -280.5 164t-106.5 330zM201 713 q0 -158 85 -271.5t222 -140.5l80 834q-166 -6 -276.5 -128t-110.5 -294z" />
<glyph unicode="&#xa3;" horiz-adv-x="1185" d="M117 647v80h262q-86 150 -110.5 218.5t-24.5 141.5q0 164 117.5 267.5t304.5 103.5q96 0 190 -26.5t182 -79.5l17 -115h-4q-98 66 -197.5 99.5t-191.5 33.5q-141 0 -232.5 -79t-91.5 -199q0 -63 23.5 -128t123.5 -237h453v-80h-406q25 -51 36.5 -90t11.5 -78 q0 -82 -50.5 -159.5t-214.5 -231.5h750l-27 -88h-897l-6 29q205 184 277.5 275t72.5 171q0 39 -11 75t-46 97h-311z" />
<glyph unicode="&#xa5;" horiz-adv-x="1259" d="M72 1434h114l447 -676l446 676h111l-483 -721h387v-74h-416v-213h416v-74h-416v-352h-94v352h-416v74h416v213h-416v74h387z" />
<glyph unicode="&#xa7;" horiz-adv-x="1277" d="M100 565q0 109 93.5 196t252.5 130q-106 53 -153 116.5t-47 155.5q0 129 114.5 212t292.5 83q98 0 189.5 -20.5t187.5 -63.5v-104h-2q-98 49 -194.5 74.5t-182.5 25.5q-135 0 -223 -60.5t-88 -150.5q0 -88 69.5 -144.5t299.5 -133.5q268 -90 368.5 -174t100.5 -203 q0 -109 -95.5 -197t-259.5 -131q111 -55 160 -119.5t49 -154.5q0 -125 -113.5 -208t-281.5 -83q-113 0 -222.5 32.5t-199.5 92.5l-20 121h4q104 -78 216.5 -118t225.5 -40q125 0 210 58.5t85 146.5t-77 148.5t-290 131.5q-262 88 -365.5 174t-103.5 207zM195 569 q0 -94 88 -159.5t321 -145.5q31 -10 63.5 -22.5t69.5 -26.5q162 43 254 118t92 167t-82.5 154.5t-326.5 144.5q-55 20 -90 32.5t-49 18.5q-158 -41 -249 -115t-91 -166z" />
<glyph unicode="&#xa8;" horiz-adv-x="1024" d="M223 1298q0 33 22.5 55.5t55.5 22.5t55.5 -22.5t22.5 -55.5t-22.5 -55t-55.5 -22t-55.5 22.5t-22.5 54.5zM645 1298q0 33 22.5 55.5t55.5 22.5t55.5 -22.5t22.5 -55.5t-22.5 -55t-55.5 -22t-55.5 22.5t-22.5 54.5z" />
<glyph unicode="&#xa9;" horiz-adv-x="1822" d="M86 715q0 164 63.5 313.5t180.5 263.5q117 113 268.5 174.5t314.5 61.5q166 0 315.5 -60.5t266.5 -173.5t179.5 -262t62.5 -313t-63.5 -313.5t-180.5 -264.5q-117 -113 -268.5 -174t-315.5 -61q-166 0 -315 60t-266 173t-179.5 262.5t-62.5 313.5zM143 715 q0 -315 223.5 -535.5t542.5 -220.5q322 0 546 221t224 539q0 317 -222 536.5t-544 219.5q-319 0 -544.5 -221.5t-225.5 -538.5zM465 723q0 195 138 327t339 132q90 0 169 -26t146 -77v-92h-4q-74 59 -151.5 89t-161.5 30q-164 0 -278.5 -110.5t-114.5 -270.5 q0 -170 112.5 -279.5t276.5 -109.5q88 0 170 27.5t158 85.5h4l-15 -91q-70 -47 -151.5 -72.5t-167.5 -25.5q-199 0 -334 130t-135 333z" />
<glyph unicode="&#xaa;" horiz-adv-x="962" d="M150 422v67h675v-67h-675zM160 887q0 121 131 182t405 72v33q0 100 -48 151t-142 51q-68 0 -137.5 -28.5t-139.5 -83.5l-4 2l17 90q68 47 134 69.5t138 22.5q125 0 192.5 -70.5t67.5 -201.5v-439l-78 -22v129q-82 -72 -164.5 -109t-158.5 -37q-92 0 -152.5 52.5 t-60.5 136.5zM240 895q0 -57 39.5 -92t105.5 -35t145.5 36t165.5 105v172q-229 -12 -342.5 -57t-113.5 -129z" />
<glyph unicode="&#xab;" horiz-adv-x="1288" d="M121 492v18l461 506l39 -27l-383 -487l383 -492l-39 -26zM635 492v18l461 506l39 -27l-385 -487l385 -492l-39 -26z" />
<glyph unicode="&#xad;" horiz-adv-x="727" d="M117 506v90h493v-90h-493z" />
<glyph unicode="&#xae;" horiz-adv-x="1130" d="M111 1038q0 186 133 316.5t323 130.5t321.5 -129.5t131.5 -315.5t-133 -316t-324 -130q-188 0 -320 130t-132 314zM156 1038q0 -170 118.5 -286.5t290.5 -116.5t291 117.5t119 287.5t-118 287t-290 117t-291.5 -118t-119.5 -288zM412 799v504h145q78 0 127 -41t49 -109 q0 -57 -35.5 -98t-95.5 -54l191 -202h-80l-185 198h-57v-198h-59zM471 1053h80q55 0 87 25.5t32 70.5t-32 71.5t-87 26.5h-80v-194z" />
<glyph unicode="&#xaf;" horiz-adv-x="1024" d="M182 1270v76h660v-76h-660z" />
<glyph unicode="&#xb0;" horiz-adv-x="1107" d="M123 1022q0 184 125 312t307 128q180 0 305 -128t125 -312q0 -182 -125 -309t-309 -127q-182 0 -305 127t-123 309zM211 1024q0 -152 98.5 -256t245.5 -104q145 0 244.5 105t99.5 255t-100.5 255t-243.5 105q-145 0 -244.5 -104t-99.5 -256z" />
<glyph unicode="&#xb1;" horiz-adv-x="1228" d="M125 0v84h979v-84h-979zM125 879v86h444v469h90v-469h445v-86h-445v-471h-90v471h-444z" />
<glyph unicode="&#xb4;" horiz-adv-x="1024" d="M477 1208l197 320h127v-2l-273 -318h-51z" />
<glyph unicode="&#xb5;" horiz-adv-x="1243" d="M195 -381v1380h94v-618q0 -152 75.5 -236t208.5 -84q100 0 190.5 57.5t192.5 184.5v696h93v-999h-68l-20 225q-96 -129 -190.5 -187t-203.5 -58q-96 0 -169 39.5t-122 119.5l9 -438v-82h-90z" />
<glyph unicode="&#xb6;" horiz-adv-x="1363" d="M131 995q0 193 142.5 316t355.5 123h530v-1434h-78v1346h-219v-1346h-78v555h-145q-221 0 -364.5 123t-143.5 317zM227 985q0 -156 117 -256t293 -100h147v717h-153q-174 0 -289 -100.5t-115 -260.5z" />
<glyph unicode="&#xb7;" horiz-adv-x="419" d="M127 551q0 35 24.5 59.5t59.5 24.5t59.5 -24.5t24.5 -59.5t-24.5 -59.5t-59.5 -24.5t-59.5 24.5t-24.5 59.5z" />
<glyph unicode="&#xb8;" horiz-adv-x="1024" d="M299 -309l4 4q45 -18 85 -26.5t85 -8.5q72 0 114 23.5t42 64.5q0 35 -31 53.5t-86 18.5q-29 0 -56.5 -4t-82.5 -17l-6 8l120 203h74l-82 -135q23 2 32 3t19 1q82 0 130.5 -34t48.5 -93q0 -68 -63.5 -109.5t-168.5 -41.5q-35 0 -67.5 5t-73.5 15z" />
<glyph unicode="&#xba;" horiz-adv-x="1007" d="M117 1073q0 160 112.5 271.5t278.5 111.5q162 0 272.5 -110.5t110.5 -268.5t-111.5 -270.5t-275.5 -112.5t-275.5 110.5t-111.5 268.5zM150 422v67h708v-67h-708zM197 1079q0 -131 88 -221t219 -90q133 0 220 87t87 218t-88 220t-219 89q-133 0 -220 -87t-87 -216z" />
<glyph unicode="&#xbb;" horiz-adv-x="1288" d="M154 10l383 488l-383 491l39 27l458 -506v-18l-458 -508zM666 10l385 488l-385 491l41 27l458 -506v-18l-458 -508z" />
<glyph unicode="&#xbc;" horiz-adv-x="1554" d="M55 1168v86l301 192l17 -4v-854h-82v731zM203 -4l502 737l469 705h90l-504 -740l-467 -702h-90zM819 233l457 619h80v-573h147v-68h-147v-211h-78v211h-455zM930 279h348v464z" />
<glyph unicode="&#xbd;" horiz-adv-x="1622" d="M55 1168v86l301 192l17 -4v-854h-82v731zM203 -4l502 737l469 705h90l-504 -740l-467 -702h-90zM979 25l315 358q82 94 108.5 144.5t26.5 103.5q0 68 -46 110.5t-118 42.5q-70 0 -135 -44t-127 -134h-4l-14 88q55 78 129 121t156 43q106 0 173.5 -61.5t67.5 -159.5 q0 -68 -30.5 -128t-118.5 -159l-252 -276h454l-38 -74h-541z" />
<glyph unicode="&#xbe;" horiz-adv-x="1685" d="M74 740h4q68 -47 132 -71t130 -24q86 0 141.5 43t55.5 113q0 80 -78 129t-236 68v39q154 35 225.5 84t71.5 118q0 59 -46 97t-120 38q-57 0 -120.5 -25.5t-127.5 -72.5h-4v86q63 43 127 63.5t131 20.5q111 0 177.5 -56.5t66.5 -146.5q0 -72 -54 -127t-157 -90 q109 -27 167 -85t58 -140q0 -98 -80.5 -162.5t-195.5 -64.5q-68 0 -130 18.5t-122 54.5zM334 -4l502 737l469 705h90l-504 -740l-467 -702h-90zM950 233l457 619h80v-573h147v-68h-147v-211h-78v211h-455zM1061 279h348v464z" />
<glyph unicode="&#xbf;" horiz-adv-x="985" d="M115 295q0 -137 104.5 -226t251.5 -89q137 0 243.5 61t186.5 147v117l-4 2q-92 -106 -197.5 -172.5t-222.5 -66.5q-111 0 -189.5 65.5t-78.5 161.5q0 82 54 141.5t165 134.5q115 76 170 133.5t55 126.5q0 53 -22.5 96.5t-69.5 104.5h-61q33 -53 49 -94t16 -78 q0 -53 -42 -98t-158 -125q-111 -76 -180.5 -151.5t-69.5 -190.5zM451 1362q0 -33 24.5 -58.5t59.5 -25.5t59 25.5t24 58.5q0 35 -24.5 59.5t-58.5 24.5q-35 0 -59.5 -24.5t-24.5 -59.5z" />
<glyph unicode="&#xc0;" horiz-adv-x="1585" d="M80 0l665 1446h99l661 -1446h-108l-187 412h-841l-189 -412h-100zM410 502h759l-378 837zM498 1874v2h137l197 -289h-53z" />
<glyph unicode="&#xc1;" horiz-adv-x="1585" d="M80 0l665 1446h99l661 -1446h-108l-187 412h-841l-189 -412h-100zM410 502h759l-378 837zM758 1587l197 289h137v-2l-281 -287h-53z" />
<glyph unicode="&#xc2;" horiz-adv-x="1585" d="M80 0l665 1446h99l661 -1446h-108l-187 412h-841l-189 -412h-100zM410 502h759l-378 837zM480 1587l274 289h82l274 -289h-63l-254 209l-252 -209h-61z" />
<glyph unicode="&#xc3;" horiz-adv-x="1585" d="M80 0l665 1446h99l661 -1446h-108l-187 412h-841l-189 -412h-100zM408 1606q78 145 122 192t103 47q29 0 67 -18.5t120 -77.5q70 -49 99.5 -64.5t49.5 -15.5q35 0 66.5 35t99.5 149l47 -26q-78 -145 -122 -192.5t-103 -47.5q-29 0 -67 18.5t-120 77.5q-70 49 -99.5 64.5 t-49.5 15.5q-35 0 -66.5 -34.5t-99.5 -149.5zM410 502h759l-378 837z" />
<glyph unicode="&#xc4;" horiz-adv-x="1585" d="M80 0l665 1446h99l661 -1446h-108l-187 412h-841l-189 -412h-100zM410 502h759l-378 837zM490 1669q0 33 22.5 55.5t55.5 22.5t54 -22.5t21 -55.5t-21.5 -55.5t-53.5 -22.5q-33 0 -55.5 22.5t-22.5 55.5zM947 1669q0 33 21 55.5t54 22.5t55.5 -22.5t22.5 -55.5 t-22.5 -55.5t-55.5 -22.5t-54 22.5t-21 55.5z" />
<glyph unicode="&#xc5;" horiz-adv-x="1585" d="M80 0l633 1378q-78 23 -125 84.5t-47 139.5q0 100 73.5 168.5t180.5 68.5q109 0 181.5 -68.5t72.5 -168.5q0 -78 -47.5 -139.5t-124.5 -84.5l628 -1378h-108l-187 412h-841l-189 -412h-100zM410 502h759l-376 839zM596 1602q0 -76 57.5 -130.5t141.5 -54.5t140 54.5 t56 130.5q0 78 -56 131t-142 53q-82 0 -139.5 -53.5t-57.5 -130.5z" />
<glyph unicode="&#xc6;" horiz-adv-x="1939" d="M23 0l946 1434h817l37 -91h-705v-569h604v-90h-604v-594h711l-37 -90h-772v412h-617l-272 -412h-108zM463 502h557v844z" />
<glyph unicode="&#xc7;" horiz-adv-x="1505" d="M127 715q0 150 54.5 285t156.5 239q104 104 238.5 161.5t281.5 57.5q145 0 278.5 -55t227.5 -152v-121h-4q-111 117 -240 176.5t-268 59.5q-252 0 -438.5 -191.5t-186.5 -455.5q0 -131 44 -248t128 -207q88 -94 203 -145t238 -51q150 0 286 63.5t252 185.5l4 -2l-18 -125 q-100 -98 -225 -153t-269 -62l-67 -110q23 2 32 3t19 1q82 0 130 -34t48 -93q0 -68 -63.5 -110t-167.5 -42q-35 0 -68 5.5t-74 15.5l-36 70l4 4q45 -18 85 -26.5t85 -8.5q72 0 113.5 23.5t41.5 64.5q0 35 -30.5 53.5t-85.5 18.5q-29 0 -56.5 -4.5t-83.5 -16.5l-6 8l107 178 q-283 16 -476.5 225.5t-193.5 514.5z" />
<glyph unicode="&#xc8;" d="M225 0v1434h766l37 -91h-704v-569h604v-90h-604v-594h710l-37 -90h-772zM330 1874v2h137l197 -289h-53z" />
<glyph unicode="&#xc9;" d="M225 0v1434h766l37 -91h-704v-569h604v-90h-604v-594h710l-37 -90h-772zM590 1587l197 289h137v-2l-281 -287h-53z" />
<glyph unicode="&#xca;" d="M225 0v1434h766l37 -91h-704v-569h604v-90h-604v-594h710l-37 -90h-772zM312 1587l274 289h82l274 -289h-63l-254 209l-252 -209h-61z" />
<glyph unicode="&#xcb;" d="M225 0v1434h766l37 -91h-704v-569h604v-90h-604v-594h710l-37 -90h-772zM322 1669q0 33 22.5 55.5t55.5 22.5t54 -22.5t21 -55.5t-21.5 -55.5t-53.5 -22.5q-33 0 -55.5 22.5t-22.5 55.5zM779 1669q0 33 21 55.5t54 22.5t55.5 -22.5t22.5 -55.5t-22.5 -55.5t-55.5 -22.5 t-54 22.5t-21 55.5z" />
<glyph unicode="&#xcc;" horiz-adv-x="567" d="M-12 1874v2h137l197 -289h-53zM236 0v1434h98v-1434h-98z" />
<glyph unicode="&#xcd;" horiz-adv-x="567" d="M236 0v1434h98v-1434h-98zM248 1587l197 289h137v-2l-281 -287h-53z" />
<glyph unicode="&#xce;" horiz-adv-x="567" d="M-30 1587l274 289h82l274 -289h-63l-254 209l-252 -209h-61zM236 0v1434h98v-1434h-98z" />
<glyph unicode="&#xcf;" horiz-adv-x="567" d="M-20 1669q0 33 22.5 55.5t55.5 22.5t54 -22.5t21 -55.5t-21.5 -55.5t-53.5 -22.5q-33 0 -55.5 22.5t-22.5 55.5zM236 0v1434h98v-1434h-98zM437 1669q0 33 21 55.5t54 22.5t55.5 -22.5t22.5 -55.5t-22.5 -55.5t-55.5 -22.5t-54 22.5t-21 55.5z" />
<glyph unicode="&#xd0;" horiz-adv-x="1640" d="M31 696v78h235v660h445q362 0 581 -195t219 -518q0 -326 -222 -523.5t-578 -197.5h-445v696h-235zM362 90h353q307 0 502.5 172t195.5 453q0 287 -194.5 457.5t-511.5 170.5h-345v-569h426v-78h-426v-606z" />
<glyph unicode="&#xd1;" horiz-adv-x="1693" d="M225 0v1434h92l1057 -1233v1233h94v-1440h-36l-1113 1296v-1290h-94zM459 1606q78 145 122 192t103 47q29 0 67 -18.5t120 -77.5q70 -49 99.5 -64.5t49.5 -15.5q35 0 66.5 35t99.5 149l47 -26q-78 -145 -122 -192.5t-103 -47.5q-29 0 -67 18.5t-120 77.5 q-70 49 -99.5 64.5t-49.5 15.5q-35 0 -66.5 -34.5t-99.5 -149.5z" />
<glyph unicode="&#xd2;" horiz-adv-x="1736" d="M127 715q0 313 217 530t526 217q307 0 522.5 -216t215.5 -527q0 -313 -216.5 -530.5t-525.5 -217.5q-307 0 -523 216t-216 528zM227 719q0 -274 187.5 -465t453.5 -191q264 0 452.5 190.5t188.5 461.5q0 274 -189.5 464.5t-455.5 190.5q-262 0 -449.5 -190.5 t-187.5 -460.5zM571 1884v2h137l197 -289h-53z" />
<glyph unicode="&#xd3;" horiz-adv-x="1736" d="M127 715q0 313 217 530t526 217q307 0 522.5 -216t215.5 -527q0 -313 -216.5 -530.5t-525.5 -217.5q-307 0 -523 216t-216 528zM227 719q0 -274 187.5 -465t453.5 -191q264 0 452.5 190.5t188.5 461.5q0 274 -189.5 464.5t-455.5 190.5q-262 0 -449.5 -190.5 t-187.5 -460.5zM831 1597l197 289h137v-2l-281 -287h-53z" />
<glyph unicode="&#xd4;" horiz-adv-x="1736" d="M127 715q0 313 217 530t526 217q307 0 522.5 -216t215.5 -527q0 -313 -216.5 -530.5t-525.5 -217.5q-307 0 -523 216t-216 528zM227 719q0 -274 187.5 -465t453.5 -191q264 0 452.5 190.5t188.5 461.5q0 274 -189.5 464.5t-455.5 190.5q-262 0 -449.5 -190.5 t-187.5 -460.5zM553 1597l274 289h82l274 -289h-63l-254 209l-252 -209h-61z" />
<glyph unicode="&#xd5;" horiz-adv-x="1736" d="M127 715q0 313 217 530t526 217q307 0 522.5 -216t215.5 -527q0 -313 -216.5 -530.5t-525.5 -217.5q-307 0 -523 216t-216 528zM227 719q0 -274 187.5 -465t453.5 -191q264 0 452.5 190.5t188.5 461.5q0 274 -189.5 464.5t-455.5 190.5q-262 0 -449.5 -190.5 t-187.5 -460.5zM481 1616q78 145 122 192t103 47q29 0 67 -18.5t120 -77.5q70 -49 99.5 -64.5t49.5 -15.5q35 0 66.5 35t99.5 149l47 -26q-78 -145 -122 -192.5t-103 -47.5q-29 0 -67 18.5t-120 77.5q-70 49 -99.5 64.5t-49.5 15.5q-35 0 -66.5 -34.5t-99.5 -149.5z" />
<glyph unicode="&#xd6;" horiz-adv-x="1736" d="M127 715q0 313 217 530t526 217q307 0 522.5 -216t215.5 -527q0 -313 -216.5 -530.5t-525.5 -217.5q-307 0 -523 216t-216 528zM227 719q0 -274 187.5 -465t453.5 -191q264 0 452.5 190.5t188.5 461.5q0 274 -189.5 464.5t-455.5 190.5q-262 0 -449.5 -190.5 t-187.5 -460.5zM563 1679q0 33 22.5 55.5t55.5 22.5t54 -22.5t21 -55.5t-21.5 -55.5t-53.5 -22.5q-33 0 -55.5 22.5t-22.5 55.5zM1020 1679q0 33 21 55.5t54 22.5t55.5 -22.5t22.5 -55.5t-22.5 -55.5t-55.5 -22.5t-54 22.5t-21 55.5z" />
<glyph unicode="&#xd7;" horiz-adv-x="1228" d="M172 346l383 377l-383 377l68 67l374 -383l375 381l66 -65l-381 -375l383 -375l-68 -69l-377 383l-376 -383z" />
<glyph unicode="&#xd8;" horiz-adv-x="1736" d="M127 715q0 313 217 530t526 217q121 0 236 -38t211 -111l176 209h104l-221 -260q111 -106 171.5 -246.5t60.5 -296.5q0 -313 -216 -530.5t-526 -217.5q-121 0 -235.5 38t-210.5 112l-176 -209h-105l219 262q-111 102 -171 242.5t-60 298.5zM225 717q0 -137 50.5 -259 t142.5 -214l839 999q-84 63 -183.5 96t-205.5 33q-266 0 -454.5 -191.5t-188.5 -463.5zM479 190q84 -63 183.5 -96t205.5 -33q266 0 454.5 191.5t188.5 464.5q0 139 -51 261t-145 214z" />
<glyph unicode="&#xd9;" horiz-adv-x="1599" d="M207 586v848h98v-854q0 -236 135 -375t363 -139q225 0 360 139t135 379v850h95v-846q0 -283 -161 -448t-433 -165t-432 165t-160 446zM506 1874v2h137l197 -289h-53z" />
<glyph unicode="&#xda;" horiz-adv-x="1599" d="M207 586v848h98v-854q0 -236 135 -375t363 -139q225 0 360 139t135 379v850h95v-846q0 -283 -161 -448t-433 -165t-432 165t-160 446zM766 1587l197 289h137v-2l-281 -287h-53z" />
<glyph unicode="&#xdb;" horiz-adv-x="1599" d="M207 586v848h98v-854q0 -236 135 -375t363 -139q225 0 360 139t135 379v850h95v-846q0 -283 -161 -448t-433 -165t-432 165t-160 446zM488 1587l274 289h82l274 -289h-63l-254 209l-252 -209h-61z" />
<glyph unicode="&#xdc;" horiz-adv-x="1599" d="M207 586v848h98v-854q0 -236 135 -375t363 -139q225 0 360 139t135 379v850h95v-846q0 -283 -161 -448t-433 -165t-432 165t-160 446zM498 1669q0 33 22.5 55.5t55.5 22.5t54 -22.5t21 -55.5t-21.5 -55.5t-53.5 -22.5q-33 0 -55.5 22.5t-22.5 55.5zM955 1669 q0 33 21 55.5t54 22.5t55.5 -22.5t22.5 -55.5t-22.5 -55.5t-55.5 -22.5t-54 22.5t-21 55.5z" />
<glyph unicode="&#xdd;" horiz-adv-x="1337" d="M51 1434h119l502 -691l502 691h114l-567 -775v-659h-98v655zM633 1587l197 289h137v-2l-281 -287h-53z" />
<glyph unicode="&#xde;" horiz-adv-x="1189" d="M225 0v1434h99v-281h305q205 0 330.5 -112t125.5 -298q0 -193 -132 -307t-349 -114h-280v-322h-99zM322 412h288q170 0 273.5 88.5t103.5 238.5q0 147 -101.5 235.5t-264.5 88.5h-299v-651z" />
<glyph unicode="&#xdf;" horiz-adv-x="1267" d="M86 918v81h186v117q0 190 105.5 306t281.5 116q160 0 264.5 -101.5t104.5 -254.5q0 -121 -67.5 -222.5t-217.5 -201.5q223 -66 328 -170t105 -262q0 -150 -103.5 -248t-259.5 -98q-68 0 -122 13t-130 50l-18 109l4 2q78 -47 139.5 -67.5t126.5 -20.5q113 0 191.5 74.5 t78.5 183.5q0 143 -120.5 239t-368.5 152l-10 30q203 125 276.5 220.5t73.5 208.5q0 119 -80 198.5t-197 79.5q-133 0 -211.5 -91t-78.5 -241v-1120h-95v918h-186z" />
<glyph unicode="&#xe0;" d="M113 238q0 174 182 259t565 93v43q0 147 -71.5 225t-206.5 78q-90 0 -182.5 -36t-190.5 -112l-4 3l22 110q90 63 180.5 93t186.5 30q170 0 265 -102.5t95 -284.5v-617l-94 -32v198q-133 -109 -239.5 -157.5t-210.5 -48.5q-129 0 -213 71.5t-84 186.5zM207 242 q0 -80 60.5 -129.5t154.5 -49.5q90 0 197.5 47.5t240.5 147.5v258q-334 -10 -493.5 -76.5t-159.5 -197.5zM282 1526v2h127l197 -320h-51z" />
<glyph unicode="&#xe1;" d="M113 238q0 174 182 259t565 93v43q0 147 -71.5 225t-206.5 78q-90 0 -182.5 -36t-190.5 -112l-4 3l22 110q90 63 180.5 93t186.5 30q170 0 265 -102.5t95 -284.5v-617l-94 -32v198q-133 -109 -239.5 -157.5t-210.5 -48.5q-129 0 -213 71.5t-84 186.5zM207 242 q0 -80 60.5 -129.5t154.5 -49.5q90 0 197.5 47.5t240.5 147.5v258q-334 -10 -493.5 -76.5t-159.5 -197.5zM536 1208l197 320h127v-2l-273 -318h-51z" />
<glyph unicode="&#xe2;" d="M113 238q0 174 182 259t565 93v43q0 147 -71.5 225t-206.5 78q-90 0 -182.5 -36t-190.5 -112l-4 3l22 110q90 63 180.5 93t186.5 30q170 0 265 -102.5t95 -284.5v-617l-94 -32v198q-133 -109 -239.5 -157.5t-210.5 -48.5q-129 0 -213 71.5t-84 186.5zM207 242 q0 -80 60.5 -129.5t154.5 -49.5q90 0 197.5 47.5t240.5 147.5v258q-334 -10 -493.5 -76.5t-159.5 -197.5zM272 1208l254 320h90l254 -320h-53l-246 234l-246 -234h-53z" />
<glyph unicode="&#xe3;" d="M113 238q0 174 182 259t565 93v43q0 147 -71.5 225t-206.5 78q-90 0 -182.5 -36t-190.5 -112l-4 3l22 110q90 63 180.5 93t186.5 30q170 0 265 -102.5t95 -284.5v-617l-94 -32v198q-133 -109 -239.5 -157.5t-210.5 -48.5q-129 0 -213 71.5t-84 186.5zM182 1235 q76 158 122 211t105 53q29 0 67 -20t118 -86q70 -55 99.5 -72.5t49.5 -17.5q35 0 68.5 41.5t99.5 166.5l49 -28q-78 -158 -124 -211t-103 -53q-29 0 -67 20.5t-118 85.5q-70 55 -99.5 72.5t-49.5 17.5q-35 0 -68.5 -42t-99.5 -165zM207 242q0 -80 60.5 -129.5t154.5 -49.5 q90 0 197.5 47.5t240.5 147.5v258q-334 -10 -493.5 -76.5t-159.5 -197.5z" />
<glyph unicode="&#xe4;" d="M113 238q0 174 182 259t565 93v43q0 147 -71.5 225t-206.5 78q-90 0 -182.5 -36t-190.5 -112l-4 3l22 110q90 63 180.5 93t186.5 30q170 0 265 -102.5t95 -284.5v-617l-94 -32v198q-133 -109 -239.5 -157.5t-210.5 -48.5q-129 0 -213 71.5t-84 186.5zM207 242 q0 -80 60.5 -129.5t154.5 -49.5q90 0 197.5 47.5t240.5 147.5v258q-334 -10 -493.5 -76.5t-159.5 -197.5zM282 1298q0 33 22.5 55.5t55.5 22.5t55.5 -22.5t22.5 -55.5t-22.5 -55t-55.5 -22t-55.5 22.5t-22.5 54.5zM704 1298q0 33 22.5 55.5t55.5 22.5t55.5 -22.5t22.5 -55.5 t-22.5 -55t-55.5 -22t-55.5 22.5t-22.5 54.5z" />
<glyph unicode="&#xe5;" d="M113 238q0 174 182 259t565 93v43q0 147 -71.5 225t-206.5 78q-90 0 -182.5 -36t-190.5 -112l-4 3l22 110q90 63 180.5 93t186.5 30q170 0 265 -102.5t95 -284.5v-617l-94 -32v198q-133 -109 -239.5 -157.5t-210.5 -48.5q-129 0 -213 71.5t-84 186.5zM207 242 q0 -80 60.5 -129.5t154.5 -49.5q90 0 197.5 47.5t240.5 147.5v258q-334 -10 -493.5 -76.5t-159.5 -197.5zM319 1458q0 104 74 178t178 74q106 0 179 -73.5t73 -178.5q0 -106 -73 -180t-179 -74t-179 74t-73 180zM376 1458q0 -84 56.5 -142.5t140.5 -58.5q82 0 137.5 58.5 t55.5 142.5t-57.5 141.5t-139.5 57.5q-80 0 -136.5 -58.5t-56.5 -140.5z" />
<glyph unicode="&#xe6;" horiz-adv-x="1857" d="M113 238q0 174 178 258t553 94v57q0 141 -66.5 215t-195.5 74q-90 0 -182.5 -36t-190.5 -112l-4 3l22 110q90 63 180.5 93t186.5 30q129 0 212 -58.5t112 -170.5q63 111 165.5 172t225.5 61q201 0 320.5 -143.5t119.5 -368.5v-36t-2 -21h-809q14 -182 126 -289t284 -107 q82 0 171 30.5t191 96.5l-35 -112q-88 -51 -169 -76t-167 -25q-141 0 -250.5 60.5t-175.5 173.5q-141 -117 -265 -174t-234 -57q-131 0 -216 71.5t-85 186.5zM207 242q0 -80 61.5 -129.5t153.5 -49.5t212 56.5t249 159.5q-18 51 -28.5 108t-10.5 119v10 q-326 -12 -481.5 -77.5t-155.5 -196.5zM936 537h721q-6 186 -101 296.5t-253 110.5q-150 0 -255.5 -118.5t-111.5 -288.5z" />
<glyph unicode="&#xe7;" horiz-adv-x="1099" d="M109 500q0 221 149.5 373.5t370.5 152.5q100 0 189 -32.5t163 -98.5v-113h-4q-80 78 -168 118t-182 40q-178 0 -301 -128t-123 -308q0 -193 115.5 -318t297.5 -125q92 0 187.5 40t187.5 118l4 -4l-20 -111q-80 -61 -167 -92.5t-179 -36.5l-62 -102q23 2 32 3t19 1 q82 0 130.5 -34t48.5 -93q0 -68 -63.5 -109.5t-168.5 -41.5q-35 0 -67.5 5t-73.5 15l-37 70l4 4q45 -18 85 -26.5t85 -8.5q72 0 114 23.5t42 64.5q0 35 -31 53.5t-86 18.5q-29 0 -56.5 -4t-82.5 -17l-6 8l102 172q-199 20 -323.5 166t-124.5 357z" />
<glyph unicode="&#xe8;" horiz-adv-x="1138" d="M109 506q0 219 135 370.5t338 151.5t325.5 -143.5t122.5 -368.5v-36t-2 -21h-825q14 -182 127.5 -289t290.5 -107q86 0 178 32t192 95l-35 -112q-86 -51 -170 -76t-174 -25q-227 0 -365 144.5t-138 384.5zM201 537h737q-6 184 -103 295.5t-257 111.5 q-154 0 -262.5 -118.5t-114.5 -288.5zM297 1528v2h127l197 -320h-51z" />
<glyph unicode="&#xe9;" horiz-adv-x="1138" d="M109 506q0 219 135 370.5t338 151.5t325.5 -143.5t122.5 -368.5v-36t-2 -21h-825q14 -182 127.5 -289t290.5 -107q86 0 178 32t192 95l-35 -112q-86 -51 -170 -76t-174 -25q-227 0 -365 144.5t-138 384.5zM201 537h737q-6 184 -103 295.5t-257 111.5 q-154 0 -262.5 -118.5t-114.5 -288.5zM551 1210l197 320h127v-2l-273 -318h-51z" />
<glyph unicode="&#xea;" horiz-adv-x="1138" d="M109 506q0 219 135 370.5t338 151.5t325.5 -143.5t122.5 -368.5v-36t-2 -21h-825q14 -182 127.5 -289t290.5 -107q86 0 178 32t192 95l-35 -112q-86 -51 -170 -76t-174 -25q-227 0 -365 144.5t-138 384.5zM201 537h737q-6 184 -103 295.5t-257 111.5 q-154 0 -262.5 -118.5t-114.5 -288.5zM287 1210l254 320h90l254 -320h-53l-246 234l-246 -234h-53z" />
<glyph unicode="&#xeb;" horiz-adv-x="1138" d="M109 506q0 219 135 370.5t338 151.5t325.5 -143.5t122.5 -368.5v-36t-2 -21h-825q14 -182 127.5 -289t290.5 -107q86 0 178 32t192 95l-35 -112q-86 -51 -170 -76t-174 -25q-227 0 -365 144.5t-138 384.5zM201 537h737q-6 184 -103 295.5t-257 111.5 q-154 0 -262.5 -118.5t-114.5 -288.5zM297 1300q0 33 22.5 55.5t55.5 22.5t55.5 -22.5t22.5 -55.5t-22.5 -55t-55.5 -22t-55.5 22.5t-22.5 54.5zM719 1300q0 33 22.5 55.5t55.5 22.5t55.5 -22.5t22.5 -55.5t-22.5 -55t-55.5 -22t-55.5 22.5t-22.5 54.5z" />
<glyph unicode="&#xec;" horiz-adv-x="503" d="M-37 1526v2h127l197 -320h-51zM205 0v999h94v-999h-94z" />
<glyph unicode="&#xed;" horiz-adv-x="503" d="M205 0v999h94v-999h-94zM217 1208l197 320h127v-2l-273 -318h-51z" />
<glyph unicode="&#xee;" horiz-adv-x="503" d="M-47 1208l254 320h90l254 -320h-53l-246 234l-246 -234h-53zM205 0v999h94v-999h-94z" />
<glyph unicode="&#xef;" horiz-adv-x="503" d="M-37 1298q0 33 22.5 55.5t55.5 22.5t55.5 -22.5t22.5 -55.5t-22.5 -55t-55.5 -22t-55.5 22.5t-22.5 54.5zM205 0v999h94v-999h-94zM385 1298q0 33 22.5 55.5t55.5 22.5t55.5 -22.5t22.5 -55.5t-22.5 -55t-55.5 -22t-55.5 22.5t-22.5 54.5z" />
<glyph unicode="&#xf0;" horiz-adv-x="1236" d="M109 455q0 205 139 347t348 142q127 0 228.5 -50t166.5 -146q-41 143 -133 275t-242 259l-143 -158l-55 47l143 156q-43 35 -92 71t-107 72l54 70q53 -35 104 -71.5t101 -75.5l135 147l55 -47l-137 -147q217 -188 324.5 -396.5t107.5 -439.5q0 -129 -36 -225t-112 -172 q-70 -70 -161.5 -106t-198.5 -36q-209 0 -349 141.5t-140 342.5zM203 459q0 -172 113.5 -287t285.5 -115q180 0 295 117t115 301q0 170 -115 278.5t-293 108.5q-172 0 -286.5 -116.5t-114.5 -286.5z" />
<glyph unicode="&#xf1;" horiz-adv-x="1230" d="M195 0v981l94 33v-234q94 127 190 185.5t209 58.5q164 0 262.5 -106.5t98.5 -290.5v-627h-93v618q0 152 -76.5 236t-209.5 84q-98 0 -188.5 -56.5t-192.5 -183.5v-698h-94zM234 1235q76 158 122 211t105 53q29 0 67 -20t118 -86q70 -55 99.5 -72.5t49.5 -17.5 q35 0 68.5 41.5t99.5 166.5l49 -28q-78 -158 -124 -211t-103 -53q-29 0 -67 20.5t-118 85.5q-70 55 -99.5 72.5t-49.5 17.5q-35 0 -68.5 -42t-99.5 -165z" />
<glyph unicode="&#xf2;" horiz-adv-x="1263" d="M109 498q0 223 150.5 376.5t375.5 153.5q223 0 371.5 -152.5t148.5 -373.5q0 -223 -150.5 -377t-375.5 -154q-221 0 -370.5 154t-149.5 373zM203 502q0 -188 123 -316.5t305 -128.5q184 0 307 128.5t123 314.5q0 190 -122 317t-306 127t-307 -128t-123 -314zM344 1528v2 h127l197 -320h-51z" />
<glyph unicode="&#xf3;" horiz-adv-x="1263" d="M109 498q0 223 150.5 376.5t375.5 153.5q223 0 371.5 -152.5t148.5 -373.5q0 -223 -150.5 -377t-375.5 -154q-221 0 -370.5 154t-149.5 373zM203 502q0 -188 123 -316.5t305 -128.5q184 0 307 128.5t123 314.5q0 190 -122 317t-306 127t-307 -128t-123 -314zM598 1210 l197 320h127v-2l-273 -318h-51z" />
<glyph unicode="&#xf4;" horiz-adv-x="1263" d="M109 498q0 223 150.5 376.5t375.5 153.5q223 0 371.5 -152.5t148.5 -373.5q0 -223 -150.5 -377t-375.5 -154q-221 0 -370.5 154t-149.5 373zM203 502q0 -188 123 -316.5t305 -128.5q184 0 307 128.5t123 314.5q0 190 -122 317t-306 127t-307 -128t-123 -314zM334 1210 l254 320h90l254 -320h-53l-246 234l-246 -234h-53z" />
<glyph unicode="&#xf5;" horiz-adv-x="1263" d="M109 498q0 223 150.5 376.5t375.5 153.5q223 0 371.5 -152.5t148.5 -373.5q0 -223 -150.5 -377t-375.5 -154q-221 0 -370.5 154t-149.5 373zM203 502q0 -188 123 -316.5t305 -128.5q184 0 307 128.5t123 314.5q0 190 -122 317t-306 127t-307 -128t-123 -314zM244 1237 q76 158 122 211t105 53q29 0 67 -20t118 -86q70 -55 99.5 -72.5t49.5 -17.5q35 0 68.5 41.5t99.5 166.5l49 -28q-78 -158 -124 -211t-103 -53q-29 0 -67 20.5t-118 85.5q-70 55 -99.5 72.5t-49.5 17.5q-35 0 -68.5 -42t-99.5 -165z" />
<glyph unicode="&#xf6;" horiz-adv-x="1263" d="M109 498q0 223 150.5 376.5t375.5 153.5q223 0 371.5 -152.5t148.5 -373.5q0 -223 -150.5 -377t-375.5 -154q-221 0 -370.5 154t-149.5 373zM203 502q0 -188 123 -316.5t305 -128.5q184 0 307 128.5t123 314.5q0 190 -122 317t-306 127t-307 -128t-123 -314zM344 1300 q0 33 22.5 55.5t55.5 22.5t55.5 -22.5t22.5 -55.5t-22.5 -55t-55.5 -22t-55.5 22.5t-22.5 54.5zM766 1300q0 33 22.5 55.5t55.5 22.5t55.5 -22.5t22.5 -55.5t-22.5 -55t-55.5 -22t-55.5 22.5t-22.5 54.5z" />
<glyph unicode="&#xf7;" horiz-adv-x="1228" d="M102 678v86h1024v-86h-1024zM530 305q0 35 25 59.5t59 24.5q35 0 59.5 -24.5t24.5 -59.5t-24.5 -59.5t-59.5 -24.5t-59.5 24.5t-24.5 59.5zM530 1137q0 35 25 59.5t59 24.5q35 0 59.5 -25t24.5 -59q0 -35 -24.5 -59.5t-59.5 -24.5t-59.5 24.5t-24.5 59.5z" />
<glyph unicode="&#xf8;" horiz-adv-x="1263" d="M104 -102l168 213q-78 74 -120.5 176t-42.5 211q0 223 150.5 376.5t375.5 153.5q82 0 156.5 -22.5t138.5 -67.5l129 164h100l-168 -213q78 -76 121 -176t43 -211q0 -223 -150.5 -377t-375.5 -154q-82 0 -157 22.5t-138 67.5l-129 -163h-101zM201 498q0 -92 32.5 -175 t94.5 -145l549 694q-53 37 -113.5 55.5t-128.5 18.5q-186 0 -310 -129t-124 -319zM389 127q53 -35 113.5 -53.5t126.5 -18.5q186 0 310 128t124 319q0 94 -33 177t-94 144z" />
<glyph unicode="&#xf9;" horiz-adv-x="1230" d="M182 373v626h94v-618q0 -152 76 -236t209 -84q98 0 188.5 56.5t192.5 183.5v698h94v-999h-94v219q-94 -127 -190.5 -185.5t-208.5 -58.5q-164 0 -262.5 106.5t-98.5 291.5zM321 1526v2h127l197 -320h-51z" />
<glyph unicode="&#xfa;" horiz-adv-x="1230" d="M182 373v626h94v-618q0 -152 76 -236t209 -84q98 0 188.5 56.5t192.5 183.5v698h94v-999h-94v219q-94 -127 -190.5 -185.5t-208.5 -58.5q-164 0 -262.5 106.5t-98.5 291.5zM575 1208l197 320h127v-2l-273 -318h-51z" />
<glyph unicode="&#xfb;" horiz-adv-x="1230" d="M182 373v626h94v-618q0 -152 76 -236t209 -84q98 0 188.5 56.5t192.5 183.5v698h94v-999h-94v219q-94 -127 -190.5 -185.5t-208.5 -58.5q-164 0 -262.5 106.5t-98.5 291.5zM311 1208l254 320h90l254 -320h-53l-246 234l-246 -234h-53z" />
<glyph unicode="&#xfc;" horiz-adv-x="1230" d="M182 373v626h94v-618q0 -152 76 -236t209 -84q98 0 188.5 56.5t192.5 183.5v698h94v-999h-94v219q-94 -127 -190.5 -185.5t-208.5 -58.5q-164 0 -262.5 106.5t-98.5 291.5zM321 1298q0 33 22.5 55.5t55.5 22.5t55.5 -22.5t22.5 -55.5t-22.5 -55t-55.5 -22t-55.5 22.5 t-22.5 54.5zM743 1298q0 33 22.5 55.5t55.5 22.5t55.5 -22.5t22.5 -55.5t-22.5 -55t-55.5 -22t-55.5 22.5t-22.5 54.5z" />
<glyph unicode="&#xfd;" horiz-adv-x="1064" d="M45 -244l4 2q45 -31 83 -44t79 -11q80 2 137.5 55.5t108.5 173.5l45 109l-445 958h103l391 -858l360 858h103l-471 -1091q-66 -154 -142 -222.5t-182 -70.5q-39 -2 -77 8t-79 35zM495 1208l197 320h127v-2l-273 -318h-51z" />
<glyph unicode="&#xfe;" horiz-adv-x="1269" d="M203 -381v1882l94 39v-711q98 100 192.5 145.5t200.5 45.5q199 0 335 -143.5t136 -362.5q0 -229 -145.5 -380.5t-358.5 -151.5q-92 0 -182 36.5t-178 108.5v-508h-94zM297 213q92 -74 180 -109.5t172 -35.5q176 0 296 128t120 314q0 184 -114.5 305t-278.5 121 q-94 0 -184.5 -44t-190.5 -140v-539z" />
<glyph unicode="&#xff;" horiz-adv-x="1064" d="M45 -244l4 2q45 -31 83 -44t79 -11q80 2 137.5 55.5t108.5 173.5l45 109l-445 958h103l391 -858l360 858h103l-471 -1091q-66 -154 -142 -222.5t-182 -70.5q-39 -2 -77 8t-79 35zM241 1298q0 33 22.5 55.5t55.5 22.5t55.5 -22.5t22.5 -55.5t-22.5 -55t-55.5 -22 t-55.5 22.5t-22.5 54.5zM663 1298q0 33 22.5 55.5t55.5 22.5t55.5 -22.5t22.5 -55.5t-22.5 -55t-55.5 -22t-55.5 22.5t-22.5 54.5z" />
<glyph unicode="&#x152;" horiz-adv-x="1974" d="M129 713q0 326 222 523.5t579 197.5h891l37 -91h-705v-569h604v-90h-604v-594h711l-37 -90h-897q-362 0 -581.5 194.5t-219.5 518.5zM227 719q0 -287 194.5 -458t512.5 -171h121v1253h-129q-307 0 -503 -171.5t-196 -452.5z" />
<glyph unicode="&#x153;" horiz-adv-x="2060" d="M109 498q0 221 145 375.5t362 154.5q154 0 276 -83t181 -224q57 143 172 225t260 82q203 0 325 -143.5t122 -368.5v-36t-2 -21h-826q14 -182 128 -289t290 -107q86 0 178 32t193 95l-35 -112q-88 -51 -171 -76t-171 -25q-164 0 -286 80t-177 224q-59 -143 -184 -226.5 t-281 -83.5q-213 0 -356 154t-143 373zM203 502q0 -188 117.5 -316.5t293.5 -128.5t295 128.5t119 314.5q0 190 -117.5 317t-296.5 127q-176 0 -293.5 -128t-117.5 -314zM1122 537h738q-6 184 -103.5 295.5t-257.5 111.5q-154 0 -262.5 -118.5t-114.5 -288.5z" />
<glyph unicode="&#x178;" horiz-adv-x="1337" d="M51 1434h119l502 -691l502 691h114l-567 -775v-659h-98v655zM365 1669q0 33 22.5 55.5t55.5 22.5t54 -22.5t21 -55.5t-21.5 -55.5t-53.5 -22.5q-33 0 -55.5 22.5t-22.5 55.5zM822 1669q0 33 21 55.5t54 22.5t55.5 -22.5t22.5 -55.5t-22.5 -55.5t-55.5 -22.5t-54 22.5 t-21 55.5z" />
<glyph unicode="&#x2c6;" horiz-adv-x="1024" d="M213 1208l254 320h90l254 -320h-53l-246 234l-246 -234h-53z" />
<glyph unicode="&#x2dc;" horiz-adv-x="1024" d="M123 1235q76 158 122 211t105 53q29 0 67 -20t118 -86q70 -55 99.5 -72.5t49.5 -17.5q35 0 68.5 41.5t99.5 166.5l49 -28q-78 -158 -124 -211t-103 -53q-29 0 -67 20.5t-118 85.5q-70 55 -99.5 72.5t-49.5 17.5q-35 0 -68.5 -42t-99.5 -165z" />
<glyph unicode="&#x2000;" horiz-adv-x="943" />
<glyph unicode="&#x2001;" horiz-adv-x="1886" />
<glyph unicode="&#x2002;" horiz-adv-x="943" />
<glyph unicode="&#x2003;" horiz-adv-x="1886" />
<glyph unicode="&#x2004;" horiz-adv-x="628" />
<glyph unicode="&#x2005;" horiz-adv-x="471" />
<glyph unicode="&#x2006;" horiz-adv-x="314" />
<glyph unicode="&#x2007;" horiz-adv-x="314" />
<glyph unicode="&#x2008;" horiz-adv-x="235" />
<glyph unicode="&#x2009;" horiz-adv-x="377" />
<glyph unicode="&#x200a;" horiz-adv-x="104" />
<glyph unicode="&#x2010;" horiz-adv-x="727" d="M117 506v90h493v-90h-493z" />
<glyph unicode="&#x2011;" horiz-adv-x="727" d="M117 506v90h493v-90h-493z" />
<glyph unicode="&#x2012;" horiz-adv-x="727" d="M117 506v90h493v-90h-493z" />
<glyph unicode="&#x2013;" horiz-adv-x="1103" d="M117 508v86h868v-86h-868z" />
<glyph unicode="&#x2014;" horiz-adv-x="1882" d="M117 508v86h1646v-86h-1646z" />
<glyph unicode="&#x2018;" horiz-adv-x="380" d="M84 1108q0 61 35 128t157 208l37 -27q-74 -100 -106.5 -169t-32.5 -122q0 -51 21.5 -100t95.5 -160h-109q-57 90 -77.5 141.5t-20.5 100.5z" />
<glyph unicode="&#x2019;" horiz-adv-x="380" d="M68 883q74 100 106.5 169t32.5 122q0 51 -21.5 100t-95.5 160h109q59 -94 78.5 -144.5t19.5 -99.5q0 -61 -36 -129t-159 -205z" />
<glyph unicode="&#x201a;" horiz-adv-x="368" d="M58 -329q74 100 106.5 169t32.5 122q0 51 -21.5 100t-95.5 160h109q59 -94 78.5 -144.5t19.5 -99.5q0 -61 -36 -129t-159 -205z" />
<glyph unicode="&#x201c;" horiz-adv-x="731" d="M84 1108q0 61 35 128t157 208l37 -27q-74 -100 -106.5 -169t-32.5 -122q0 -51 21.5 -100t95.5 -160h-109q-57 90 -77.5 141.5t-20.5 100.5zM434 1108q0 61 35 128t158 208l37 -27q-74 -100 -107 -169t-33 -122q0 -51 21.5 -100t95.5 -160h-109q-57 90 -77.5 141.5 t-20.5 100.5z" />
<glyph unicode="&#x201d;" horiz-adv-x="731" d="M68 883q74 100 106.5 169t32.5 122q0 51 -21.5 100t-95.5 160h109q59 -94 78.5 -144.5t19.5 -99.5q0 -61 -36 -129t-159 -205zM418 883q74 100 106.5 169t32.5 122q0 51 -21.5 100t-95.5 160h109q59 -94 78.5 -144.5t19.5 -99.5q0 -61 -36 -129t-158 -205z" />
<glyph unicode="&#x201e;" horiz-adv-x="718" d="M58 -329q74 100 106.5 169t32.5 122q0 51 -21.5 100t-95.5 160h109q59 -94 78.5 -144.5t19.5 -99.5q0 -61 -36 -129t-159 -205zM408 -329q74 100 106.5 169t32.5 122q0 51 -21.5 100t-95.5 160h109q59 -94 78.5 -144.5t19.5 -99.5q0 -61 -36 -129t-158 -205z" />
<glyph unicode="&#x2022;" horiz-adv-x="819" d="M221 733q0 78 56.5 133.5t132.5 55.5q80 0 134 -55.5t54 -133.5q0 -80 -54 -135t-134 -55q-78 0 -133.5 55t-55.5 135z" />
<glyph unicode="&#x2026;" horiz-adv-x="1009" d="M84 70q0 35 24.5 58.5t57.5 23.5q35 0 58.5 -24t23.5 -58q0 -35 -23.5 -58.5t-58.5 -23.5t-58.5 23.5t-23.5 58.5zM424 70q0 35 24.5 58.5t57.5 23.5q35 0 58.5 -24t23.5 -58q0 -35 -23.5 -58.5t-58.5 -23.5t-58.5 23.5t-23.5 58.5zM762 70q0 35 24.5 58.5t57.5 23.5 q35 0 58.5 -24t23.5 -58q0 -35 -23.5 -58.5t-58.5 -23.5t-58.5 23.5t-23.5 58.5z" />
<glyph unicode="&#x202f;" horiz-adv-x="377" />
<glyph unicode="&#x2039;" horiz-adv-x="794" d="M121 492v18l481 506l39 -27l-403 -487l403 -492l-39 -26z" />
<glyph unicode="&#x203a;" horiz-adv-x="794" d="M154 10l403 488l-403 491l39 27l479 -506v-18l-479 -508z" />
<glyph unicode="&#x205f;" horiz-adv-x="471" />
<glyph unicode="&#x20ac;" horiz-adv-x="1353" d="M66 514v74h221q-2 31 -4 63.5t-2 65.5q0 39 2 71.5t6 61.5h-223v74h233q47 250 199.5 392t369.5 142q98 0 182.5 -21.5t176.5 -72.5v-104h-4q-106 63 -183 86.5t-170 23.5q-176 0 -302 -118.5t-171 -327.5h643v-74h-655q-4 -29 -6 -61.5t-2 -71.5t2 -70t6 -59h655v-74 h-645q41 -211 168 -331t303 -120q92 0 177 27t178 84h4l-17 -106q-88 -51 -166.5 -72t-179.5 -21q-221 0 -371.5 142.5t-193.5 396.5h-231z" />
<glyph unicode="&#x2122;" horiz-adv-x="2066" d="M45 1364v70h752v-70h-336v-739h-78v739h-338zM956 631v803h113l367 -689l366 689h111v-803h-76v717l-393 -727h-21l-391 727v-717h-76z" />
<glyph unicode="&#x25fc;" horiz-adv-x="1003" d="M0 0v1004h1004v-1004h-1004z" />
<glyph unicode="&#xfb03;" horiz-adv-x="2004" d="M86 918v81h186v213q0 152 79 239t214 87q45 0 86 -11t84 -36l17 -100l-4 -2q-53 35 -94.5 49t-86.5 14q-92 0 -146 -63.5t-54 -171.5v-218h352v-81h-352v-918h-95v918h-186zM838 918v81h186v213q0 152 79 239t214 87q45 0 86 -11t84 -36l17 -100l-4 -2q-53 35 -94.5 49 t-86.5 14q-92 0 -146 -63.5t-54 -171.5v-218h352v-81h-352v-918h-95v918h-186zM1677 1356q0 31 22.5 53.5t53.5 22.5t53.5 -23t22.5 -53q0 -33 -21.5 -55.5t-54.5 -22.5t-54.5 22.5t-21.5 55.5zM1706 0v999h94v-999h-94z" />
<glyph unicode="&#xfb04;" horiz-adv-x="2004" d="M86 918v81h186v213q0 152 79 239t214 87q45 0 86 -11t84 -36l17 -100l-4 -2q-53 35 -94.5 49t-86.5 14q-92 0 -146 -63.5t-54 -171.5v-218h352v-81h-352v-918h-95v918h-186zM838 918v81h186v213q0 152 79 239t214 87q45 0 86 -11t84 -36l17 -100l-4 -2q-53 35 -94.5 49 t-86.5 14q-92 0 -146 -63.5t-54 -171.5v-218h352v-81h-352v-918h-95v918h-186zM1706 0v1501l94 39v-1540h-94z" />
</font>
</defs>
</svg>
