<?xml version="1.0" standalone="no"?>
<!DOCTYPE svg PUBLIC "-//W3C//DTD SVG 1.1//EN" "http://www.w3.org/Graphics/SVG/1.1/DTD/svg11.dtd" >
<svg xmlns="http://www.w3.org/2000/svg">
<metadata></metadata>
<defs>
<font id="mallory_extra_lightitalic" horiz-adv-x="1228" >
<font-face units-per-em="2048" ascent="1638" descent="-410" />
<missing-glyph horiz-adv-x="448" />
<glyph unicode="&#xfb01;" horiz-adv-x="1251" d="M150 0l227 918h-189l23 81h186l60 240q37 147 123 223t219 76q47 0 89 -11t73 -34l22 -104l-4 -5q-41 35 -85 51.5t-97 16.5q-96 0 -159 -58.5t-93 -174.5l-53 -220h350l-21 -81h-350l-229 -918h-92zM832 0l248 999h94l-248 -999h-94zM1135 1356q0 33 21.5 54.5 t54.5 21.5q31 0 52 -23t21 -53q0 -33 -21.5 -55.5t-53.5 -22.5q-31 0 -52.5 22.5t-21.5 55.5z" />
<glyph unicode="&#xfb02;" horiz-adv-x="1251" d="M150 0l227 918h-189l23 81h186l60 240q37 147 123 223t219 76q47 0 89 -11t73 -34l22 -104l-4 -5q-41 35 -85 51.5t-97 16.5q-96 0 -159 -58.5t-93 -174.5l-53 -220h350l-21 -81h-350l-229 -918h-92zM832 0l373 1499l104 41l-383 -1540h-94z" />
<glyph horiz-adv-x="0" />
<glyph horiz-adv-x="0" />
<glyph horiz-adv-x="682" />
<glyph unicode="&#xd;" horiz-adv-x="681" />
<glyph unicode=" "  horiz-adv-x="448" />
<glyph unicode="&#x09;" horiz-adv-x="448" />
<glyph unicode="&#xa0;" horiz-adv-x="448" />
<glyph unicode="!" horiz-adv-x="499" d="M63 72q0 35 26 59.5t58 24.5q35 0 59.5 -25t24.5 -59q0 -37 -23.5 -60.5t-60.5 -23.5q-35 0 -59.5 24.5t-24.5 59.5zM197 383l157 737l78 314h100l-79 -314l-209 -737h-47z" />
<glyph unicode="&#x22;" horiz-adv-x="806" d="M186 872l326 562h129l-412 -586zM551 872l326 562h131l-414 -586z" />
<glyph unicode="#" horiz-adv-x="1372" d="M90 406l21 88h280l115 446h-283l23 88h282l105 410h76l-105 -410h451l104 410h76l-105 -410h261l-23 -88h-260l-117 -446h266l-22 -88h-266l-105 -410h-73l104 410h-453l-104 -410h-74l105 410h-279zM465 494h453l114 446h-450z" />
<glyph unicode="$" horiz-adv-x="1202" d="M41 303l4 2q92 -90 202.5 -146.5t227.5 -70.5l152 608q-180 80 -260 168t-80 203q0 162 130 266.5t337 104.5h36t21 -2l61 250h76l-63 -261q88 -16 171 -52t152 -89l11 -110l-5 -3q-80 66 -171 110t-183 60l-145 -583q180 -84 257 -170t77 -201q0 -174 -135.5 -282.5 t-356.5 -108.5h-29l-82 -330h-75l84 338q-106 14 -209 59.5t-180 110.5zM379 1075q0 -86 62.5 -152.5t207.5 -136.5l142 564q-6 2 -14.5 2h-24.5q-164 0 -268.5 -79t-104.5 -198zM547 82h14q176 0 285.5 83t109.5 214q0 88 -61 154.5t-203 132.5z" />
<glyph unicode="%" horiz-adv-x="1888" d="M256 979q0 205 111.5 344t271.5 139q121 0 196.5 -90t75.5 -237q0 -205 -111.5 -344.5t-271.5 -139.5q-121 0 -196.5 90t-75.5 238zM328 -4l641 741l602 701h98l-641 -742l-602 -700h-98zM342 983q0 -117 52 -185.5t138 -68.5q119 0 206 117.5t87 283.5q0 117 -52 184.5 t-138 67.5q-117 0 -205 -117.5t-88 -281.5zM1085 299q0 205 112 344t271 139q121 0 197 -90t76 -237q0 -205 -111.5 -344.5t-271.5 -139.5q-121 0 -197 90.5t-76 237.5zM1171 303q0 -117 52.5 -184.5t138.5 -67.5q117 0 205 118t88 282q0 117 -52.5 185.5t-140.5 68.5 q-117 0 -204 -118t-87 -284z" />
<glyph unicode="&#x26;" horiz-adv-x="1378" d="M57 305q0 156 119 272.5t354 190.5q-45 88 -64.5 157.5t-19.5 135.5q0 176 112 288.5t282 112.5q135 0 220 -79.5t85 -204.5q0 -147 -121 -259t-367 -194q51 -92 116 -186.5t142 -194.5q82 78 170.5 171t180.5 202h106v-4q-115 -135 -215 -244t-188 -190q45 -57 101 -124 t132 -151v-4h-115q-45 49 -91 102.5t-97 114.5q-141 -121 -262 -177t-240 -56q-152 0 -246 89t-94 232zM152 311q0 -109 69.5 -174t184.5 -65q98 0 205.5 51t234.5 160q-84 111 -153.5 214t-123.5 197q-213 -70 -315 -163t-102 -220zM541 1069q0 -66 18.5 -129t58.5 -145 q231 82 332 170t101 209q0 92 -59.5 148t-157.5 56q-123 0 -208 -88t-85 -221z" />
<glyph unicode="'" horiz-adv-x="440" d="M186 872l326 562h129l-412 -586z" />
<glyph unicode="(" horiz-adv-x="794" d="M190 430q0 336 190.5 614.5t563.5 489.5l27 -43q-348 -227 -519 -489.5t-171 -569.5q0 -184 64.5 -353t195.5 -331l-39 -33q-158 162 -235 339t-77 376z" />
<glyph unicode=")" horiz-adv-x="794" d="M-115 -242q350 225 521.5 488.5t171.5 570.5q0 182 -64.5 351t-196.5 333l39 33q158 -162 235 -339t77 -376q0 -336 -190.5 -614.5t-563.5 -489.5z" />
<glyph unicode="*" horiz-adv-x="1089" d="M270 1200l62 105l280 -238l-14 -20zM303 786l303 189l17 -19l-244 -258zM682 1098l43 366l113 -28l-136 -346zM688 940l23 8l180 -309l-109 -39zM752 1008v24l358 80l6 -121z" />
<glyph unicode="+" d="M147 678l21 86h467l117 469h90l-117 -469h467l-21 -86h-469l-116 -471h-90l116 471h-465z" />
<glyph unicode="," horiz-adv-x="333" d="M-223 -285q111 82 165 165t89 218l10 43h102q-41 -170 -114.5 -270t-229.5 -190z" />
<glyph unicode="-" horiz-adv-x="727" d="M119 506l22 90h494l-23 -90h-493z" />
<glyph unicode="." horiz-adv-x="333" d="M-23 72q0 35 25 59.5t57 24.5q35 0 59.5 -25t24.5 -59q0 -37 -23.5 -60.5t-60.5 -23.5q-35 0 -58.5 24.5t-23.5 59.5z" />
<glyph unicode="/" horiz-adv-x="874" d="M-205 -266l1176 1782h92l-1174 -1782h-94z" />
<glyph unicode="0" horiz-adv-x="1331" d="M178 506q0 166 40 323.5t116 288.5q96 164 227 254t277 90q193 0 307.5 -143t114.5 -391q0 -166 -40 -324t-116 -289q-94 -164 -225 -254t-277 -90q-195 0 -309.5 143.5t-114.5 391.5zM276 506q0 -211 89.5 -329t244.5 -118q121 0 232.5 86t191.5 240q61 119 95 259 t34 284q0 211 -89 328.5t-245 117.5q-121 0 -232.5 -86t-190.5 -239q-61 -119 -95.5 -259.5t-34.5 -283.5z" />
<glyph unicode="1" horiz-adv-x="845" d="M217 1028l29 113l532 313l23 -10l-361 -1444h-94l322 1292l-447 -266z" />
<glyph unicode="2" horiz-adv-x="1161" d="M18 29l650 598q193 180 267.5 290.5t74.5 215.5q0 102 -73 167.5t-187 65.5q-123 0 -236 -67.5t-227 -211.5h-4l4 121q92 119 215 183.5t254 64.5q154 0 252 -89t98 -230q0 -121 -85 -250t-292 -320l-520 -479h768l-72 -88h-882z" />
<glyph unicode="3" horiz-adv-x="1132" d="M43 221l4 2q88 -78 191.5 -117.5t220.5 -39.5q178 0 291.5 88t113.5 227q0 135 -115.5 214t-342.5 97l10 49q297 55 449.5 157.5t152.5 242.5q0 102 -79 164.5t-206 62.5q-115 0 -222.5 -42t-219.5 -130l-4 2l28 117q90 68 200 105.5t220 37.5q168 0 273.5 -86 t105.5 -225q0 -147 -118.5 -256t-344.5 -168q145 -37 228.5 -129t83.5 -217q0 -176 -140.5 -288t-361.5 -112q-121 0 -225.5 33t-178.5 94z" />
<glyph unicode="4" horiz-adv-x="1255" d="M57 403l1028 1041h84l-245 -987h245l-22 -82h-244l-92 -375h-92l94 375h-750zM221 457h613l202 823z" />
<glyph unicode="5" horiz-adv-x="1161" d="M57 195l4 2q92 -68 190.5 -101t203.5 -33q203 0 339 118t136 292q0 139 -96.5 218t-264.5 79q-82 0 -156.5 -15.5t-148.5 -45.5l-22 14l227 711h754l-23 -88h-668l-165 -523q53 18 109 26.5t116 8.5q197 0 316.5 -103.5t119.5 -277.5q0 -215 -164 -358.5t-413 -143.5 q-106 0 -203.5 28t-175.5 81z" />
<glyph unicode="6" horiz-adv-x="1175" d="M117 387q0 168 93 329t318 388l332 330h129l-379 -377q-53 -53 -99 -102.5t-85 -94.5q41 10 84 14.5t92 4.5q205 0 328 -111t123 -295q0 -207 -146.5 -354.5t-357.5 -147.5q-190 0 -311 116t-121 300zM213 389q0 -147 95 -238.5t247 -91.5q166 0 283.5 121t117.5 289 q0 154 -102 240t-287 86q-53 0 -104 -5.5t-107 -15.5q-76 -104 -109.5 -195.5t-33.5 -189.5z" />
<glyph unicode="7" horiz-adv-x="1116" d="M172 0l940 1346h-836l62 88h922l8 -23l-983 -1411h-113z" />
<glyph unicode="8" d="M106 342q0 154 105.5 263.5t286.5 142.5q-92 43 -143.5 121.5t-51.5 183.5q0 174 134 289.5t335 115.5q178 0 295 -102.5t117 -257.5q0 -141 -91.5 -245.5t-246.5 -141.5q102 -43 159.5 -128t57.5 -194q0 -184 -140.5 -299t-365.5 -115q-199 0 -325 102.5t-126 264.5z M201 346q0 -125 102.5 -204t261.5 -79q176 0 289 93.5t113 238.5q0 129 -97.5 210t-255.5 81q-176 0 -294.5 -98.5t-118.5 -241.5zM397 1053q0 -127 89 -206t231 -79q160 0 265 92t105 232q0 123 -91 201.5t-232 78.5q-154 0 -260.5 -93t-106.5 -226z" />
<glyph unicode="9" horiz-adv-x="1175" d="M231 956q0 209 147.5 357.5t356.5 148.5q190 0 311 -115.5t121 -299.5q0 -168 -93 -329t-318 -388l-332 -330h-129l379 377q45 45 87 89t83 91q-41 -8 -80 -12t-82 -4q-203 0 -327 113.5t-124 301.5zM328 961q0 -158 102 -247t285 -89q47 0 96 4t104 14q82 104 119 200.5 t37 200.5q0 147 -94 238.5t-246 91.5q-166 0 -284.5 -121.5t-118.5 -291.5z" />
<glyph unicode=":" horiz-adv-x="368" d="M-4 72q0 35 24.5 59.5t59.5 24.5t59.5 -25t24.5 -59q0 -35 -24.5 -59.5t-59.5 -24.5t-59.5 24.5t-24.5 59.5zM205 928q0 35 24.5 59.5t59.5 24.5t59.5 -24.5t24.5 -59.5t-24.5 -59.5t-59.5 -24.5t-59.5 24.5t-24.5 59.5z" />
<glyph unicode=";" horiz-adv-x="368" d="M-209 -285q111 82 165 165t89 218l10 43h103q-41 -170 -114.5 -270t-229.5 -190zM209 928q0 35 24.5 59.5t59.5 24.5q37 0 60.5 -23.5t23.5 -60.5t-23.5 -60.5t-60.5 -23.5q-35 0 -59.5 24.5t-24.5 59.5z" />
<glyph unicode="&#x3c;" d="M199 700l10 43l1036 496l-26 -104l-887 -422l676 -422l-21 -88z" />
<glyph unicode="=" d="M117 473l20 86h983l-20 -86h-983zM219 883l21 86h983l-21 -86h-983z" />
<glyph unicode="&#x3e;" d="M94 203l27 104l885 422l-676 424l22 86l789 -496l-13 -43z" />
<glyph unicode="?" horiz-adv-x="985" d="M248 1149l28 127q84 84 199 131t232 47q143 0 232 -75.5t89 -196.5q0 -115 -71.5 -199t-249.5 -168q-164 -78 -222.5 -137.5t-58.5 -134.5q0 -31 9 -64t30 -78h-53q-31 45 -46.5 86t-15.5 78q0 94 64.5 165t249.5 161q152 72 211 135.5t59 149.5t-63.5 138t-170.5 52 q-113 0 -224 -54.5t-224 -162.5h-4zM258 72q0 35 24.5 59.5t59.5 24.5t59.5 -25t24.5 -59q0 -35 -24.5 -59.5t-59.5 -24.5t-59.5 24.5t-24.5 59.5z" />
<glyph unicode="@" horiz-adv-x="2148" d="M154 436q0 213 84 413t235 353q154 156 352.5 240t413.5 84q369 0 592 -213t223 -568q0 -264 -135 -441t-336 -177q-104 0 -170.5 60.5t-66.5 158.5q-129 -113 -235.5 -166t-201.5 -53q-123 0 -198.5 82t-75.5 215q0 109 48 217.5t134 196.5q88 90 194.5 138t217.5 48 q70 0 136.5 -22.5t125.5 -63.5l55 74h33l-135 -582q-6 -25 -8 -44t-2 -38q0 -78 44 -121t121 -43q164 0 281 163t117 396q0 336 -207 533t-555 197q-203 0 -389.5 -80t-331.5 -228q-143 -147 -222 -336.5t-79 -388.5q0 -356 214 -560t589 -204q154 0 287 24t266 75v-58 q-143 -51 -275.5 -73.5t-277.5 -22.5q-399 0 -630.5 219t-231.5 596zM727 434q0 -104 55.5 -163.5t149.5 -59.5q80 0 188.5 55.5t235.5 161.5l100 438q-51 37 -111.5 56.5t-123.5 19.5q-188 0 -341 -160t-153 -348z" />
<glyph unicode="A" horiz-adv-x="1572" d="M-45 0l1018 1446h98l297 -1446h-98l-82 412h-834l-288 -412h-111zM418 502h751l-165 837z" />
<glyph unicode="B" horiz-adv-x="1222" d="M100 0l357 1434h344q184 0 291.5 -85t107.5 -231q0 -139 -93 -244.5t-257 -148.5q104 -39 162.5 -118t58.5 -181q0 -190 -159.5 -308t-417.5 -118h-394zM219 88h289q209 0 337 95t128 249q0 113 -87 184.5t-227 71.5h-290zM389 774h279q186 0 310 94.5t124 239.5 q0 115 -82 176.5t-234 61.5h-256z" />
<glyph unicode="C" horiz-adv-x="1490" d="M180 604q0 168 61.5 322.5t176.5 275.5q117 123 269.5 189.5t316.5 66.5q158 0 288.5 -65.5t231.5 -194.5l-21 -117h-4q-102 143 -226 214t-274 71q-141 0 -275 -60.5t-237 -170.5q-100 -106 -154 -242.5t-54 -282.5q0 -242 144 -392t372 -150q137 0 269 59t263 180l4 -4 l-59 -147q-98 -86 -225.5 -133.5t-260.5 -47.5q-266 0 -436 176.5t-170 452.5z" />
<glyph unicode="D" horiz-adv-x="1587" d="M100 0l357 1434h374q315 0 502 -162t187 -434q0 -184 -81 -345t-231 -278q-135 -104 -309 -159.5t-367 -55.5h-432zM221 90h309q377 0 635 212q256 210 256 518q-1 245 -163 385q-160 138 -441 138h-285z" />
<glyph unicode="E" horiz-adv-x="1130" d="M100 0l357 1434h776l-23 -91h-678l-141 -569h588l-23 -90h-587l-148 -594h707l-62 -90h-766z" />
<glyph unicode="F" horiz-adv-x="1089" d="M100 0l357 1434h747l29 -91h-701l-149 -598h561l-22 -90h-560l-163 -655h-99z" />
<glyph unicode="G" horiz-adv-x="1605" d="M178 602q0 174 65.5 331t188.5 277q121 119 279.5 182.5t335.5 63.5q147 0 279 -42t245 -126l-25 -100q-115 88 -239.5 132t-264.5 44q-319 0 -541 -219t-222 -537q0 -244 144 -390t384 -146q113 0 213 26.5t197 81.5l118 443h-501l22 90h600l-160 -590 q-113 -72 -238.5 -107.5t-258.5 -35.5q-276 0 -448.5 172t-172.5 450z" />
<glyph unicode="H" horiz-adv-x="1644" d="M100 0l357 1434h98l-162 -652h1000l161 652h99l-357 -1434h-98l172 690h-999l-172 -690h-99z" />
<glyph unicode="I" horiz-adv-x="567" d="M111 0l356 1434h98l-356 -1434h-98z" />
<glyph unicode="J" horiz-adv-x="913" d="M2 195l4 2q55 -63 121.5 -94t144.5 -31q100 0 171 65.5t100 186.5l276 1110h99l-283 -1135q-39 -156 -131 -236.5t-232 -80.5q-74 0 -139 22.5t-113 65.5z" />
<glyph unicode="K" horiz-adv-x="1370" d="M100 0l357 1434h98l-162 -654h92l904 654h139v-4l-979 -705l637 -721v-4h-123l-604 692h-88l-172 -692h-99z" />
<glyph unicode="L" horiz-adv-x="1050" d="M100 0l357 1434h98l-334 -1344h670l-23 -90h-768z" />
<glyph unicode="M" horiz-adv-x="2058" d="M39 0l467 1438h129l297 -1282l948 1282h141l-247 -1438h-97l230 1321l-998 -1341h-28l-318 1339l-428 -1319h-96z" />
<glyph unicode="N" horiz-adv-x="1681" d="M100 0l357 1434h92l737 -1244l309 1244h93l-357 -1440h-37l-776 1309l-323 -1303h-95z" />
<glyph unicode="O" horiz-adv-x="1716" d="M182 623q0 166 61.5 317.5t176.5 269.5q115 121 266.5 186.5t312.5 65.5q283 0 461 -181t178 -470q0 -166 -61 -317.5t-174 -270.5q-117 -121 -267.5 -186.5t-312.5 -65.5q-285 0 -463 181.5t-178 470.5zM283 623q0 -250 152.5 -405t395.5 -155q141 0 272.5 59.5 t233.5 168.5q96 106 149.5 240.5t53.5 279.5q0 250 -152.5 404.5t-396.5 154.5q-141 0 -272 -59.5t-234 -167.5q-96 -106 -149 -240.5t-53 -279.5z" />
<glyph unicode="P" horiz-adv-x="1153" d="M100 0l357 1434h321q186 0 300 -97.5t114 -257.5q0 -217 -160 -351t-420 -134h-266l-147 -594h-99zM367 684h262q203 0 334 109.5t131 275.5q0 129 -88 201.5t-244 72.5h-230z" />
<glyph unicode="Q" horiz-adv-x="1716" d="M182 623q0 166 61.5 317.5t176.5 269.5q115 121 266.5 186.5t312.5 65.5q283 0 461 -181t178 -470q0 -319 -208.5 -558t-514.5 -276q82 -121 151 -172t157 -51q47 0 91 8.5t89 26.5l4 -4l-47 -94q-35 -12 -73 -19.5t-79 -7.5q-127 0 -218 67.5t-204 239.5 q-270 12 -437 192.5t-167 459.5zM283 623q0 -250 152.5 -405t395.5 -155q141 0 272.5 59.5t233.5 168.5q96 106 149.5 240.5t53.5 279.5q0 250 -152.5 404.5t-396.5 154.5q-141 0 -272 -59.5t-234 -167.5q-96 -106 -149 -240.5t-53 -279.5z" />
<glyph unicode="R" horiz-adv-x="1239" d="M100 0l357 1434h303q193 0 305.5 -95.5t112.5 -259.5q0 -188 -140.5 -314t-369.5 -144l452 -621h-116l-445 614h-207l-153 -614h-99zM373 705h231q209 0 342 102t133 264q0 131 -87 201.5t-244 70.5h-218z" />
<glyph unicode="S" horiz-adv-x="1132" d="M43 305l4 2q106 -119 222 -179t239 -60q150 0 249 80.5t99 203.5q0 88 -52.5 160t-197.5 174q-172 121 -231.5 207t-59.5 194q0 160 122 265.5t308 105.5q102 0 196.5 -32.5t176.5 -96.5l10 -121l-4 -2q-82 80 -178 120t-205 40q-141 0 -234 -78t-93 -192q0 -84 51 -153 t199 -173q168 -119 228 -207t60 -201q0 -170 -126 -278.5t-320 -108.5q-121 0 -234.5 48.5t-199.5 132.5z" />
<glyph unicode="T" horiz-adv-x="1394" d="M272 1343l23 91h1270l-23 -91h-581l-334 -1343h-99l334 1343h-590z" />
<glyph unicode="U" horiz-adv-x="1581" d="M215 451q0 41 7 92t20 102l196 789h99l-201 -807q-10 -45 -16.5 -89t-6.5 -81q0 -178 115 -284.5t305 -106.5q209 0 356.5 131t206.5 370l215 867h97l-222 -887q-68 -279 -238.5 -425.5t-424.5 -146.5q-227 0 -367.5 132.5t-140.5 343.5z" />
<glyph unicode="V" horiz-adv-x="1554" d="M311 1434h103l268 -1280l911 1280h115l-1051 -1461h-26z" />
<glyph unicode="W" horiz-adv-x="2414" d="M328 1434h98l129 -1323l846 1329h24l230 -1327l786 1321h111l-873 -1448h-96l-215 1245l-790 -1245h-101z" />
<glyph unicode="X" horiz-adv-x="1466" d="M-35 0v4l766 731l-387 699h113l348 -637l663 637h127v-4l-743 -711l395 -719h-110l-361 659l-684 -659h-127z" />
<glyph unicode="Y" horiz-adv-x="1320" d="M283 1434h104l328 -693l665 693h121v-2l-756 -781l-161 -651h-99l166 664z" />
<glyph unicode="Z" horiz-adv-x="1421" d="M2 18l1307 1325h-973l24 91h1139l4 -19l-1306 -1325h1040l-70 -90h-1159z" />
<glyph unicode="[" horiz-adv-x="813" d="M53 -266l443 1782h456l11 -68h-392l-411 -1647h393l-43 -67h-457z" />
<glyph unicode="\" horiz-adv-x="874" d="M322 1516h79l285 -1782h-78z" />
<glyph unicode="]" horiz-adv-x="813" d="M-86 -199h391l410 1647h-393l45 68h456l-442 -1782h-457z" />
<glyph unicode="^" d="M145 686l691 799h43l292 -799h-86l-247 680l-588 -680h-105z" />
<glyph unicode="_" d="M-197 -254l21 76h1243l-18 -76h-1246z" />
<glyph unicode="`" horiz-adv-x="1024" d="M485 1528h117l123 -320h-49z" />
<glyph unicode="a" horiz-adv-x="1118" d="M51 223q0 168 152.5 260t435.5 92q57 0 113.5 -3t107.5 -9l2 4q8 35 13.5 70t5.5 63q0 109 -71 172.5t-192 63.5q-92 0 -185 -33t-193 -100l-2 2l43 115q80 51 169 77.5t181 26.5q156 0 249 -86t93 -231q0 -39 -6 -80t-17 -78l-143 -531l-102 -32l53 194 q-145 -109 -250 -154.5t-201 -45.5q-115 0 -185.5 67.5t-70.5 175.5zM143 233q0 -78 50.5 -124t132.5 -46q94 0 199.5 45.5t252.5 147.5l64 236q-49 6 -97.5 9t-99.5 3q-238 0 -370 -72t-132 -199z" />
<glyph unicode="b" horiz-adv-x="1243" d="M70 2l372 1497l105 41l-180 -725q104 104 204.5 154.5t204.5 50.5q162 0 264.5 -110.5t102.5 -286.5q0 -131 -48.5 -248t-138.5 -209q-88 -88 -201.5 -136t-234.5 -48q-92 0 -179 30.5t-167 91.5l-80 -108zM209 184q72 -59 149.5 -87.5t167.5 -28.5q207 0 365 161.5 t158 384.5q0 145 -80 233.5t-211 88.5q-100 0 -202.5 -52.5t-213.5 -160.5z" />
<glyph unicode="c" horiz-adv-x="1079" d="M106 412q0 256 173.5 435t420.5 179q102 0 194.5 -42t149.5 -114l-16 -106h-6q-63 88 -145 132t-185 44q-201 0 -346 -154.5t-145 -367.5q0 -162 92 -259.5t244 -97.5q98 0 187 37t183 115l4 -4l-51 -125q-66 -51 -154 -80t-182 -29q-184 0 -301 121t-117 316z" />
<glyph unicode="d" horiz-adv-x="1245" d="M100 377q0 131 48.5 247.5t138.5 209.5q90 88 202.5 136t231.5 48q98 0 185 -33t151 -94l151 608l105 41l-385 -1540h-94l47 186q-104 -106 -206 -156t-208 -50q-160 0 -263.5 110.5t-103.5 286.5zM195 385q0 -145 79.5 -232t212.5 -87q102 0 205 52t211 161l133 526 q-70 66 -146.5 97.5t-168.5 31.5q-209 0 -367.5 -162t-158.5 -387z" />
<glyph unicode="e" horiz-adv-x="1128" d="M104 403q0 256 170 440.5t402 184.5q162 0 264 -103.5t102 -271.5q0 -51 -7 -100t-21 -94h-815q-2 -8 -2 -18.5v-28.5q0 -162 92 -255.5t250 -93.5q88 0 178 31t180 92l2 -4l-25 -100q-76 -51 -166 -78t-182 -27q-190 0 -306 116t-116 310zM211 537h727q6 29 9 56t3 54 q0 135 -77.5 216t-204.5 81q-156 0 -286 -116.5t-171 -290.5z" />
<glyph unicode="f" horiz-adv-x="751" d="M150 0l227 918h-189l23 81h186l60 240q37 147 123 223t219 76q47 0 89 -11t73 -34l22 -104l-4 -5q-41 35 -85 51.5t-97 16.5q-96 0 -159 -58.5t-93 -174.5l-53 -220h350l-21 -81h-350l-229 -918h-92z" />
<glyph unicode="g" horiz-adv-x="1243" d="M-12 -160l4 2q94 -74 200.5 -110.5t223.5 -36.5q166 0 275.5 89t154.5 259l49 193q-106 -106 -210.5 -157.5t-215.5 -51.5q-162 0 -263.5 103t-101.5 271q0 260 182.5 438.5t436.5 178.5q92 0 178 -30t170 -91l78 107l27 -7l-244 -977q-51 -203 -182 -307t-336 -104 q-115 0 -220.5 30.5t-185.5 88.5zM199 408q0 -137 77.5 -217t210.5 -80q104 0 210 53t214 158l125 497q-78 59 -155.5 88t-161.5 29q-207 0 -363.5 -155.5t-156.5 -372.5z" />
<glyph unicode="h" horiz-adv-x="1214" d="M70 0l372 1499l105 41l-189 -756q106 121 211 180.5t207 59.5q129 0 212 -85t83 -220q0 -35 -4 -71t-14 -75l-144 -573h-94l148 590q8 31 11 58t3 54q0 106 -60.5 171t-156.5 65q-100 0 -202.5 -60.5t-223.5 -191.5l-170 -686h-94z" />
<glyph unicode="i" horiz-adv-x="501" d="M80 0l248 999h94l-248 -999h-94zM383 1356q0 33 21.5 54.5t54.5 21.5q31 0 52 -23t21 -53q0 -33 -21.5 -55.5t-53.5 -22.5q-31 0 -52.5 22.5t-21.5 55.5z" />
<glyph unicode="j" horiz-adv-x="501" d="M-246 -276l4 2q23 -14 48.5 -21.5t56.5 -7.5q78 0 122 42t66 134l281 1126h92l-283 -1142q-31 -127 -95 -185.5t-173 -58.5q-27 0 -53.5 5t-44.5 13zM385 1356q0 31 22.5 53.5t53.5 22.5t53.5 -23t22.5 -53q0 -33 -21.5 -55.5t-54.5 -22.5t-54.5 22.5t-21.5 55.5z" />
<glyph unicode="k" horiz-adv-x="1028" d="M70 0l372 1499l105 41l-248 -993h74l604 452h131v-4l-670 -497l443 -494v-4h-113l-418 469h-69l-117 -469h-94z" />
<glyph unicode="l" horiz-adv-x="501" d="M80 0l373 1499l104 41l-383 -1540h-94z" />
<glyph unicode="m" horiz-adv-x="1888" d="M70 0l243 979l103 35l-54 -215q102 115 196.5 170t189.5 55q106 0 183 -62.5t97 -166.5q123 123 223.5 176t204.5 53q125 0 207 -85t82 -220q0 -31 -5 -66t-16 -80l-141 -573h-94l147 590q8 31 11.5 58.5t3.5 53.5q0 104 -59.5 170t-151.5 66q-94 0 -188.5 -51 t-215.5 -166v-2q0 -31 -5 -66t-15 -80l-144 -573h-94l148 590q8 35 12 62t4 50q0 104 -59.5 170t-153.5 66q-90 0 -184 -58.5t-209 -183.5l-172 -696h-94z" />
<glyph unicode="n" horiz-adv-x="1214" d="M70 0l243 979l103 35l-58 -230q106 121 211 180.5t207 59.5q129 0 212 -85t83 -220q0 -35 -4 -71t-14 -75l-144 -573h-94l148 590q8 31 11 58t3 54q0 106 -60.5 171t-156.5 65q-100 0 -202.5 -60.5t-223.5 -191.5l-170 -686h-94z" />
<glyph unicode="o" horiz-adv-x="1247" d="M109 430q0 252 168.5 425t410.5 173q199 0 325 -128t126 -329q0 -254 -169 -427t-411 -173q-199 0 -324.5 128t-125.5 331zM203 432q0 -168 101.5 -271.5t262.5 -103.5q199 0 338 148.5t139 361.5q0 170 -101 273.5t-263 103.5q-197 0 -337 -149.5t-140 -362.5z" />
<glyph unicode="p" horiz-adv-x="1245" d="M-25 -381l338 1360l103 35l-51 -199q106 106 206.5 155.5t206.5 49.5q162 0 264.5 -110.5t102.5 -286.5q0 -133 -48.5 -250t-138.5 -205q-88 -90 -200.5 -138t-231.5 -48q-96 0 -184 32.5t-154 94.5l-120 -490h-93zM211 193q66 -63 143.5 -94t171.5 -31q209 0 367 160.5 t158 385.5q0 147 -80 234.5t-213 87.5q-100 0 -202.5 -52.5t-213.5 -160.5z" />
<glyph unicode="q" horiz-adv-x="1243" d="M100 377q0 131 48.5 248.5t138.5 208.5q88 88 201.5 136t234.5 48q90 0 178 -31t170 -92l78 109l25 -7l-343 -1378h-94l142 569q-104 -106 -205 -157t-207 -51q-162 0 -264.5 110.5t-102.5 286.5zM195 385q0 -145 79.5 -232t210.5 -87q102 0 204 52t212 158l133 539 q-74 59 -151.5 89t-165.5 30q-207 0 -364.5 -162t-157.5 -387z" />
<glyph unicode="r" horiz-adv-x="788" d="M70 0l243 979l103 35l-68 -269q154 162 239 216.5t175 54.5q18 0 36.5 -2t39.5 -8l-15 -99q-16 6 -33.5 8.5t-41.5 2.5q-82 0 -178.5 -60t-243.5 -201l-162 -657h-94z" />
<glyph unicode="s" horiz-adv-x="966" d="M27 246l4 2q90 -90 191.5 -138.5t205.5 -48.5q115 0 192.5 54.5t77.5 134.5q0 61 -45 107.5t-176 109.5q-158 74 -216 138.5t-58 154.5q0 115 98 188.5t250 73.5q90 0 175 -29.5t159 -87.5l6 -112l-4 -2q-78 74 -165 110.5t-179 36.5q-106 0 -177 -49t-71 -121 q0 -63 45 -109.5t178 -107.5q154 -74 213.5 -139.5t59.5 -153.5q0 -123 -104.5 -202t-266.5 -79q-100 0 -199.5 39t-175.5 109z" />
<glyph unicode="t" horiz-adv-x="862" d="M178 918l23 81h186l66 248l104 43l-78 -291h426l-20 -81h-428l-156 -578q-8 -25 -11 -50.5t-3 -53.5q0 -76 49 -124.5t127 -48.5q59 0 121.5 26t134.5 81l4 -2l-35 -113q-57 -39 -116.5 -58.5t-122.5 -19.5q-113 0 -183.5 70t-70.5 180q0 35 4 65t14 60l152 566h-187z " />
<glyph unicode="u" horiz-adv-x="1214" d="M143 281q0 31 5.5 65.5t15.5 79.5l141 573h94l-147 -589q-8 -29 -11 -56.5t-3 -56.5q0 -106 60 -171t159 -65q98 0 201.5 62.5t224.5 193.5l170 682h92l-248 -999h-94l55 217q-109 -123 -212 -182.5t-206 -59.5q-131 0 -214 84t-83 222z" />
<glyph unicode="v" horiz-adv-x="1144" d="M184 999h97l196 -856l621 856h110l-753 -1022h-25z" />
<glyph unicode="w" horiz-adv-x="1753" d="M193 999h94l116 -888l574 895h24l146 -895l557 888h104l-649 -1015h-78l-135 827l-534 -827h-76z" />
<glyph unicode="x" horiz-adv-x="1105" d="M-45 0v4l545 516l-275 479h105l237 -424l445 424h116v-4l-514 -485l291 -510h-104l-256 455l-475 -455h-115z" />
<glyph unicode="y" horiz-adv-x="1060" d="M-160 -233l4 2q39 -33 80 -49.5t88 -16.5q78 0 146.5 51t142.5 162l86 131l-205 952h97l176 -860l571 860h109l-758 -1126q-94 -139 -178.5 -198.5t-186.5 -59.5q-41 0 -81 12.5t-68 32.5z" />
<glyph unicode="z" horiz-adv-x="1046" d="M-43 14l926 904h-688l20 81h850l4 -14l-926 -903h742l-54 -82h-870z" />
<glyph unicode="{" horiz-adv-x="1007" d="M154 604l12 41l127 14q133 14 199.5 64.5t66.5 136.5q0 23 -3 53.5t-13 100.5q-12 74 -15.5 107.5t-3.5 58.5q0 158 106.5 247t295.5 89h217l12 -68h-235q-141 0 -221.5 -71.5t-80.5 -196.5q0 -23 3.5 -54.5t13.5 -99.5q12 -72 15 -104.5t3 -57.5q0 -94 -65.5 -159.5 t-181.5 -88.5q66 -25 102.5 -70.5t36.5 -103.5q0 -45 -23.5 -97t-97.5 -150q-66 -88 -85.5 -131.5t-19.5 -77.5q0 -90 65 -137.5t189 -47.5h172l-43 -67h-161q-152 0 -236 65.5t-84 182.5q0 51 23.5 104t99.5 154q63 84 82.5 125t19.5 75q0 61 -45 101.5t-129 48.5z" />
<glyph unicode="|" horiz-adv-x="610" d="M72 -266l442 1782h88l-442 -1782h-88z" />
<glyph unicode="}" horiz-adv-x="1007" d="M-86 -199h236q141 0 221 72t80 197q0 23 -3.5 54.5t-13.5 98.5q-10 72 -13 104.5t-3 57.5q0 94 64.5 159.5t181.5 88.5q-66 25 -103 71t-37 103q0 45 23.5 97t97.5 151q66 88 85.5 131t19.5 78q0 90 -64.5 137t-189.5 47h-172l43 68h161q152 0 237 -66t85 -182 q0 -51 -24.5 -104.5t-100.5 -153.5q-63 -84 -82.5 -125t-19.5 -76q0 -61 45 -101t129 -49l118 -14l-12 -41l-127 -14q-133 -14 -199.5 -64.5t-66.5 -136.5q0 -23 3 -53.5t15 -99.5q10 -74 14.5 -107.5t4.5 -58.5q0 -158 -106.5 -247t-297.5 -89h-217z" />
<glyph unicode="~" d="M139 604q106 156 171 212t132 56q33 0 83 -20t163 -88q102 -61 146.5 -79.5t70.5 -18.5q45 0 96.5 45t141.5 166l55 -37q-102 -154 -167.5 -212.5t-133.5 -58.5q-33 0 -83 21.5t-165 89.5q-102 61 -145 79.5t-70 18.5q-45 0 -93 -42t-146 -171z" />
<glyph unicode="&#xa1;" horiz-adv-x="499" d="M76 0l78 313l211 738h45l-156 -738l-80 -313h-98zM375 1362q0 35 24.5 59.5t59.5 24.5t59.5 -24.5t24.5 -59.5t-24.5 -59.5t-59.5 -24.5t-59.5 24.5t-24.5 59.5z" />
<glyph unicode="&#xa2;" horiz-adv-x="1058" d="M160 625q0 246 168 420t399 174l57 225h74l-59 -230q84 -10 156.5 -44.5t127.5 -90.5l-16 -96h-6q-63 68 -134 104.5t-151 45.5l-215 -838h19q94 0 178 32.5t176 106.5l4 -2l-49 -123q-66 -47 -149 -72.5t-169 -25.5h-30l-60 -225h-73l61 235q-143 31 -226 139.5 t-83 264.5zM250 631q0 -129 63.5 -215t175.5 -111l216 830q-190 -12 -322.5 -157.5t-132.5 -346.5z" />
<glyph unicode="&#xa3;" horiz-adv-x="1185" d="M16 29q285 193 382.5 298t97.5 203q0 27 -4.5 55.5t-12.5 61.5h-323l18 80h285q-33 113 -47.5 184.5t-14.5 122.5q0 184 129 304t328 120q102 0 201.5 -39t181.5 -108l4 -107l-4 -2q-94 84 -191.5 126t-195.5 42q-154 0 -256 -95t-102 -239q0 -43 10 -99t53 -210h512 l-18 -80h-471q6 -29 9 -57.5t3 -57.5q0 -111 -76 -208t-281 -236h736l-60 -88h-886z" />
<glyph unicode="&#xa5;" horiz-adv-x="1259" d="M131 352l19 74h413l53 213h-413l18 74h387l-303 721h103l276 -678l619 678h118l-661 -721h387l-19 -74h-417l-54 -213h418l-18 -74h-416l-88 -352h-94l88 352h-416z" />
<glyph unicode="&#xa7;" horiz-adv-x="1277" d="M39 -129l4 2q98 -86 208.5 -130t229.5 -44q139 0 227.5 59.5t88.5 153.5q0 82 -69 143.5t-241 139.5q-207 98 -284.5 174.5t-77.5 187.5q0 125 114.5 209t340.5 125q-92 57 -133 116.5t-41 143.5q0 137 117.5 222t307.5 85q104 0 203 -27.5t183 -80.5l8 -107l-4 -2 q-92 66 -189.5 97.5t-206.5 31.5q-143 0 -234 -59.5t-91 -153.5q0 -84 67.5 -144.5t241.5 -140.5q205 -92 285 -170.5t80 -189.5q0 -127 -114 -211t-341 -123q92 -57 133 -117.5t41 -142.5q0 -135 -117 -221t-301 -86q-115 0 -223.5 36t-188.5 97zM219 563 q0 -86 68.5 -146.5t249.5 -142.5q25 -10 49 -22t51 -27q213 39 326.5 111t113.5 170q0 84 -69.5 145.5t-245.5 143.5q-12 6 -24.5 11t-37.5 17q-14 8 -22 12.5t-14 6.5q-213 -37 -329 -110t-116 -169z" />
<glyph unicode="&#xa8;" horiz-adv-x="1024" d="M410 1298q0 33 22.5 55.5t54.5 22.5q33 0 55.5 -22.5t22.5 -55.5t-22.5 -55t-55.5 -22t-55 22.5t-22 54.5zM829 1298q0 31 24 54.5t54 23.5q33 0 55.5 -22.5t22.5 -55.5t-22.5 -55t-55.5 -22t-55.5 22.5t-22.5 54.5z" />
<glyph unicode="&#xa9;" horiz-adv-x="1871" d="M164 715q0 164 63.5 313.5t180.5 263.5q117 113 268 174.5t315 61.5q166 0 315.5 -60.5t266.5 -173.5t179.5 -262t62.5 -313t-63.5 -313.5t-180.5 -264.5q-117 -113 -268.5 -174t-315.5 -61q-166 0 -315 60t-266 173t-179.5 262.5t-62.5 313.5zM221 715 q0 -315 224.5 -535.5t543.5 -220.5q322 0 546 221t224 539q0 315 -223 535.5t-545 220.5q-154 0 -293.5 -58t-248.5 -162q-109 -106 -168.5 -246.5t-59.5 -293.5zM543 723q0 195 139 327t340 132q88 0 168 -27t145 -76v-92h-4q-74 59 -150.5 89t-160.5 30 q-164 0 -278.5 -110.5t-114.5 -270.5q0 -170 112.5 -279.5t274.5 -109.5q90 0 172 28.5t155 84.5h5l-15 -91q-70 -47 -151.5 -72.5t-167.5 -25.5q-199 0 -334 130t-135 333z" />
<glyph unicode="&#xaa;" horiz-adv-x="962" d="M129 422l18 67h676l-16 -67h-678zM262 879q0 121 117 188.5t330 67.5q37 0 73.5 -1t77.5 -6q6 20 9 44t3 47q0 70 -48 113.5t-126 43.5q-70 0 -138 -24.5t-146 -77.5l-4 2l41 96q59 39 123.5 57.5t134.5 18.5q106 0 174.5 -63.5t68.5 -161.5q0 -25 -4 -52.5t-14 -58.5 l-111 -381l-84 -24l41 141q-92 -76 -173 -112t-156 -36q-84 0 -136.5 49.5t-52.5 129.5zM342 887q0 -53 34 -85t93 -32q70 0 149.5 36t182.5 112l43 153q-57 2 -86 3t-53 1q-170 0 -266.5 -50t-96.5 -138z" />
<glyph unicode="&#xab;" horiz-adv-x="1288" d="M119 492l4 18l586 506l32 -33l-503 -491l262 -482l-41 -26zM633 492l4 18l586 506l32 -33l-503 -489l260 -484l-39 -26z" />
<glyph unicode="&#xad;" horiz-adv-x="727" d="M119 506l22 90h494l-23 -90h-493z" />
<glyph unicode="&#xae;" horiz-adv-x="1157" d="M258 1038q0 186 133 316.5t324 130.5q190 0 321 -129.5t131 -315.5t-133 -316t-323 -130q-188 0 -320.5 130t-132.5 314zM303 1038q0 -170 119 -286.5t291 -116.5t290.5 117.5t118.5 287.5t-117.5 287t-289.5 117t-292 -118t-120 -288zM559 799v504h146q78 0 127 -41 t49 -109q0 -57 -36 -98t-95 -54l190 -202h-80l-184 198h-58v-198h-59zM618 1053h80q55 0 87 25.5t32 70.5t-32 71.5t-87 26.5h-80v-194z" />
<glyph unicode="&#xaf;" horiz-adv-x="1024" d="M365 1270l20 76h655l-20 -76h-655z" />
<glyph unicode="&#xb0;" horiz-adv-x="1107" d="M256 971q0 205 141.5 348t337.5 143q164 0 270.5 -107.5t106.5 -277.5q0 -205 -141.5 -348t-337.5 -143q-164 0 -270.5 107.5t-106.5 277.5zM342 973q0 -139 82 -224t213 -85q160 0 274.5 120.5t114.5 290.5q0 139 -82 224t-213 85q-158 0 -273.5 -120.5t-115.5 -290.5z " />
<glyph unicode="&#xb1;" d="M2 0l21 84h976l-20 -84h-977zM219 879l23 86h442l117 469h90l-117 -469h445l-23 -86h-444l-117 -471h-90l117 471h-443z" />
<glyph unicode="&#xb4;" horiz-adv-x="1024" d="M635 1208l274 320h131v-4l-344 -316h-61z" />
<glyph unicode="&#xb5;" horiz-adv-x="1226" d="M-27 -381l344 1380h95l-148 -589q-8 -29 -11 -56.5t-3 -56.5q0 -106 60.5 -171t156.5 -65q100 0 203.5 62.5t222.5 193.5l170 682h94l-248 -999h-84l47 221q-106 -121 -210.5 -181t-206.5 -60q-96 0 -166.5 53t-95.5 147l-107 -479l-20 -82h-93z" />
<glyph unicode="&#xb6;" horiz-adv-x="1363" d="M254 936q0 211 176 354.5t440 143.5h521l-357 -1434h-78l334 1346h-219l-334 -1346h-78l138 555h-111q-195 0 -313.5 105.5t-118.5 275.5zM350 936q0 -141 94.5 -224t255.5 -83h115l178 717h-137q-215 0 -360.5 -118t-145.5 -292z" />
<glyph unicode="&#xb7;" horiz-adv-x="419" d="M139 551q0 35 24.5 59.5t59.5 24.5t59.5 -24.5t24.5 -59.5t-24.5 -59.5t-59.5 -24.5t-59.5 24.5t-24.5 59.5z" />
<glyph unicode="&#xb8;" horiz-adv-x="1024" d="M119 -303l4 4q49 -23 91 -32t87 -9q74 0 117 24.5t43 63.5q0 33 -30 52.5t-81 19.5q-29 0 -61.5 -5t-73.5 -18l-4 8l149 205h76l-100 -135q18 2 27.5 3t17.5 1q68 0 114 -37t46 -90q0 -70 -62.5 -110.5t-173.5 -40.5q-41 0 -80 7t-73 19z" />
<glyph unicode="&#xba;" horiz-adv-x="1007" d="M131 422l16 67h709l-16 -67h-709zM264 1038q0 176 122 297t298 121q150 0 248 -97t98 -247q0 -176 -122 -297t-296 -121q-152 0 -250 97.5t-98 246.5zM346 1042q0 -123 75 -198.5t193 -75.5q139 0 237.5 99.5t98.5 240.5q0 123 -74.5 198.5t-195.5 75.5 q-139 0 -236.5 -99t-97.5 -241z" />
<glyph unicode="&#xbb;" horiz-adv-x="1288" d="M33 16l502 494l-261 481l41 25l340 -506l-4 -18l-585 -508zM545 16l504 492l-261 483l39 25l340 -506l-2 -18l-587 -508z" />
<glyph unicode="&#xbc;" horiz-adv-x="1576" d="M97 -4l663 741l623 701h92l-664 -742l-620 -700h-94zM221 1166l22 90l348 190l15 -6l-213 -852h-80l180 725l-270 -150zM779 233l606 619h88l-144 -573h146l-17 -68h-145l-53 -211h-78l53 211h-454zM914 279h338l116 466z" />
<glyph unicode="&#xbd;" horiz-adv-x="1644" d="M97 -4l663 741l623 701h92l-664 -742l-620 -700h-94zM221 1166l22 90l348 190l15 -6l-213 -852h-80l180 725l-270 -150zM893 0v25l385 350q117 109 158 168t41 114q0 57 -40 92t-106 35q-76 0 -145.5 -39.5t-138.5 -123.5h-4l10 100q53 63 128 100t157 37q98 0 159.5 -53 t61.5 -139q0 -72 -48.5 -143.5t-177.5 -190.5l-284 -258h442l-55 -74h-543z" />
<glyph unicode="&#xbe;" horiz-adv-x="1740" d="M131 742l4 2q53 -49 116.5 -74t135.5 -25q98 0 161.5 46.5t63.5 117.5q0 74 -64.5 118t-199.5 60l8 35q174 39 260 96.5t86 135.5q0 53 -42 86.5t-109 33.5q-68 0 -133.5 -24.5t-135.5 -75.5l-4 2l23 88q55 41 120.5 61.5t137.5 20.5q98 0 162.5 -52t64.5 -134 q0 -84 -69.5 -149.5t-196.5 -102.5q84 -25 130 -76t46 -125q0 -104 -86 -168.5t-223 -64.5q-72 0 -135.5 20.5t-108.5 56.5zM258 -4l663 741l623 701h92l-664 -742l-620 -700h-94zM943 233l606 619h88l-144 -573h146l-17 -68h-145l-53 -211h-78l53 211h-454zM1078 279h338 l116 466z" />
<glyph unicode="&#xbf;" horiz-adv-x="985" d="M66 252q0 115 71.5 199t249.5 167q164 78 222.5 137.5t58.5 135.5q0 31 -9.5 63.5t-29.5 77.5h53q31 -49 46 -89t15 -75q0 -94 -64.5 -164.5t-248.5 -160.5q-152 -72 -211 -135.5t-59 -149.5t63.5 -138t167.5 -52q113 0 226.5 54t224.5 163h4l-31 -127 q-84 -84 -198.5 -131t-231.5 -47q-143 0 -231 75.5t-88 196.5zM668 1362q0 35 24.5 59.5t59.5 24.5t59.5 -24.5t24.5 -59.5t-25 -59.5t-59 -24.5q-35 0 -59.5 24.5t-24.5 59.5z" />
<glyph unicode="&#xc0;" horiz-adv-x="1572" d="M-45 0l1018 1446h98l297 -1446h-98l-82 412h-834l-288 -412h-111zM418 502h751l-165 837zM844 1874v2h129l112 -289h-51z" />
<glyph unicode="&#xc1;" horiz-adv-x="1572" d="M-45 0l1018 1446h98l297 -1446h-98l-82 412h-834l-288 -412h-111zM418 502h751l-165 837zM993 1587l254 289h145v-2l-333 -287h-66z" />
<glyph unicode="&#xc2;" horiz-adv-x="1572" d="M-45 0l1018 1446h98l297 -1446h-98l-82 412h-834l-288 -412h-111zM418 502h751l-165 837zM735 1587v2l344 287h82l203 -289h-58l-198 207l-305 -207h-68z" />
<glyph unicode="&#xc3;" horiz-adv-x="1572" d="M-45 0l1018 1446h98l297 -1446h-98l-82 412h-834l-288 -412h-111zM418 502h751l-165 837zM674 1610q80 139 130 187t111 48q33 0 73 -18.5t120 -77.5q63 -51 93 -65.5t52 -14.5q39 0 79 39t114 145l43 -30q-80 -139 -130.5 -187.5t-111.5 -48.5q-33 0 -73 18.5t-120 77.5 q-63 51 -92.5 65.5t-52.5 14.5q-39 0 -79 -38.5t-113 -145.5z" />
<glyph unicode="&#xc4;" horiz-adv-x="1572" d="M-45 0l1018 1446h98l297 -1446h-98l-82 412h-834l-288 -412h-111zM418 502h751l-165 837zM751 1669q0 33 22.5 55.5t55.5 22.5t54.5 -22.5t21.5 -55.5t-21.5 -55.5t-54.5 -22.5t-55.5 22.5t-22.5 55.5zM1206 1669q0 33 22.5 55.5t55.5 22.5t54.5 -22.5t21.5 -55.5 t-21.5 -55.5t-54.5 -22.5t-55.5 22.5t-22.5 55.5z" />
<glyph unicode="&#xc5;" horiz-adv-x="1572" d="M-45 0l973 1386q-61 27 -96 80.5t-35 120.5q0 102 78.5 177t187.5 75q100 0 166.5 -62.5t66.5 -158.5q0 -88 -59 -157.5t-150 -88.5l281 -1372h-98l-82 412h-836l-286 -412h-111zM416 502h753l-165 837zM854 1589q0 -76 50 -124t128 -48q84 0 145.5 59.5t61.5 139.5 q0 74 -50 122t-128 48q-86 0 -146.5 -58.5t-60.5 -138.5z" />
<glyph unicode="&#xc6;" horiz-adv-x="1929" d="M-98 0v2l1292 1432h836l-23 -91h-678l-141 -569h588l-23 -90h-588l-147 -594h706l-61 -90h-766l102 412h-610l-371 -412h-116zM471 502h551l209 844z" />
<glyph unicode="&#xc7;" horiz-adv-x="1490" d="M180 604q0 168 61.5 322.5t176.5 275.5q117 123 269.5 189.5t316.5 66.5q158 0 288.5 -65.5t231.5 -194.5l-21 -117h-4q-102 143 -226 214t-274 71q-141 0 -275 -60.5t-237 -170.5q-100 -106 -154 -242.5t-54 -282.5q0 -242 144 -392t372 -150q137 0 269 59t263 180l4 -4 l-59 -147q-98 -86 -225 -133.5t-261 -47.5h-8l-82 -110q18 2 27.5 3t17.5 1q68 0 114 -37t46 -90q0 -70 -62.5 -111t-172.5 -41q-41 0 -80 7.5t-74 19.5l-33 70l4 4q49 -23 91 -32t88 -9q74 0 116.5 24.5t42.5 63.5q0 33 -29.5 52.5t-80.5 19.5q-29 0 -62 -5.5t-74 -17.5 l-4 8l136 185q-238 29 -382.5 199.5t-144.5 424.5z" />
<glyph unicode="&#xc8;" horiz-adv-x="1130" d="M100 0l357 1434h776l-23 -91h-678l-141 -569h588l-23 -90h-587l-148 -594h707l-62 -90h-766zM668 1874v2h129l112 -289h-51z" />
<glyph unicode="&#xc9;" horiz-adv-x="1130" d="M100 0l357 1434h776l-23 -91h-678l-141 -569h588l-23 -90h-587l-148 -594h707l-62 -90h-766zM817 1587l254 289h145v-2l-333 -287h-66z" />
<glyph unicode="&#xca;" horiz-adv-x="1130" d="M100 0l357 1434h776l-23 -91h-678l-141 -569h588l-23 -90h-587l-148 -594h707l-62 -90h-766zM559 1587v2l344 287h82l203 -289h-58l-198 207l-305 -207h-68z" />
<glyph unicode="&#xcb;" horiz-adv-x="1130" d="M100 0l357 1434h776l-23 -91h-678l-141 -569h588l-23 -90h-587l-148 -594h707l-62 -90h-766zM575 1669q0 33 22.5 55.5t55.5 22.5t54.5 -22.5t21.5 -55.5t-21.5 -55.5t-54.5 -22.5t-55.5 22.5t-22.5 55.5zM1030 1669q0 33 22.5 55.5t55.5 22.5t54.5 -22.5t21.5 -55.5 t-21.5 -55.5t-54.5 -22.5t-55.5 22.5t-22.5 55.5z" />
<glyph unicode="&#xcc;" horiz-adv-x="567" d="M111 0l356 1434h98l-356 -1434h-98zM349 1874v2h129l112 -289h-51z" />
<glyph unicode="&#xcd;" horiz-adv-x="567" d="M111 0l356 1434h98l-356 -1434h-98zM498 1587l254 289h145v-2l-333 -287h-66z" />
<glyph unicode="&#xce;" horiz-adv-x="567" d="M111 0l356 1434h98l-356 -1434h-98zM240 1587v2l344 287h82l203 -289h-58l-198 207l-305 -207h-68z" />
<glyph unicode="&#xcf;" horiz-adv-x="567" d="M111 0l356 1434h98l-356 -1434h-98zM256 1669q0 33 22.5 55.5t55.5 22.5t54.5 -22.5t21.5 -55.5t-21.5 -55.5t-54.5 -22.5t-55.5 22.5t-22.5 55.5zM711 1669q0 33 22.5 55.5t55.5 22.5t54.5 -22.5t21.5 -55.5t-21.5 -55.5t-54.5 -22.5t-55.5 22.5t-22.5 55.5z" />
<glyph unicode="&#xd0;" horiz-adv-x="1628" d="M80 696l20 80h234l164 658h391q301 0 486.5 -164t185.5 -432q0 -184 -81 -345t-231 -278q-135 -104 -309 -159.5t-367 -55.5h-432l174 696h-235zM260 90h311q377 0 634 211t257 524q0 236 -160.5 377t-427.5 141h-303l-141 -567h426l-20 -80h-424z" />
<glyph unicode="&#xd1;" horiz-adv-x="1681" d="M100 0l357 1434h92l737 -1244l309 1244h93l-357 -1440h-37l-776 1309l-323 -1303h-95zM725 1610q80 139 130 187t111 48q33 0 73 -18.5t120 -77.5q63 -51 93 -65.5t52 -14.5q39 0 79 39t114 145l43 -30q-80 -139 -130.5 -187.5t-111.5 -48.5q-33 0 -73 18.5t-120 77.5 q-63 51 -92.5 65.5t-52.5 14.5q-39 0 -79 -38.5t-113 -145.5z" />
<glyph unicode="&#xd2;" horiz-adv-x="1716" d="M182 623q0 166 61.5 317.5t176.5 269.5q115 121 266.5 186.5t312.5 65.5q283 0 461 -181t178 -470q0 -166 -61 -317.5t-174 -270.5q-117 -121 -267.5 -186.5t-312.5 -65.5q-285 0 -463 181.5t-178 470.5zM283 623q0 -250 152.5 -405t395.5 -155q141 0 272.5 59.5 t233.5 168.5q96 106 149.5 240.5t53.5 279.5q0 250 -152.5 404.5t-396.5 154.5q-141 0 -272 -59.5t-234 -167.5q-96 -106 -149 -240.5t-53 -279.5zM883 1884v2h129l112 -289h-51z" />
<glyph unicode="&#xd3;" horiz-adv-x="1716" d="M182 623q0 166 61.5 317.5t176.5 269.5q115 121 266.5 186.5t312.5 65.5q283 0 461 -181t178 -470q0 -166 -61 -317.5t-174 -270.5q-117 -121 -267.5 -186.5t-312.5 -65.5q-285 0 -463 181.5t-178 470.5zM283 623q0 -250 152.5 -405t395.5 -155q141 0 272.5 59.5 t233.5 168.5q96 106 149.5 240.5t53.5 279.5q0 250 -152.5 404.5t-396.5 154.5q-141 0 -272 -59.5t-234 -167.5q-96 -106 -149 -240.5t-53 -279.5zM1032 1597l254 289h145v-2l-333 -287h-66z" />
<glyph unicode="&#xd4;" horiz-adv-x="1716" d="M182 623q0 166 61.5 317.5t176.5 269.5q115 121 266.5 186.5t312.5 65.5q283 0 461 -181t178 -470q0 -166 -61 -317.5t-174 -270.5q-117 -121 -267.5 -186.5t-312.5 -65.5q-285 0 -463 181.5t-178 470.5zM283 623q0 -250 152.5 -405t395.5 -155q141 0 272.5 59.5 t233.5 168.5q96 106 149.5 240.5t53.5 279.5q0 250 -152.5 404.5t-396.5 154.5q-141 0 -272 -59.5t-234 -167.5q-96 -106 -149 -240.5t-53 -279.5zM774 1597v2l344 287h82l203 -289h-58l-198 207l-305 -207h-68z" />
<glyph unicode="&#xd5;" horiz-adv-x="1716" d="M182 623q0 166 61.5 317.5t176.5 269.5q115 121 266.5 186.5t312.5 65.5q283 0 461 -181t178 -470q0 -166 -61 -317.5t-174 -270.5q-117 -121 -267.5 -186.5t-312.5 -65.5q-285 0 -463 181.5t-178 470.5zM283 623q0 -250 152.5 -405t395.5 -155q141 0 272.5 59.5 t233.5 168.5q96 106 149.5 240.5t53.5 279.5q0 250 -152.5 404.5t-396.5 154.5q-141 0 -272 -59.5t-234 -167.5q-96 -106 -149 -240.5t-53 -279.5zM713 1620q80 139 130 187t111 48q33 0 73 -18.5t120 -77.5q63 -51 93 -65.5t52 -14.5q39 0 79 39t114 145l43 -30 q-80 -139 -130.5 -187.5t-111.5 -48.5q-33 0 -73 18.5t-120 77.5q-63 51 -92.5 65.5t-52.5 14.5q-39 0 -79 -38.5t-113 -145.5z" />
<glyph unicode="&#xd6;" horiz-adv-x="1716" d="M182 623q0 166 61.5 317.5t176.5 269.5q115 121 266.5 186.5t312.5 65.5q283 0 461 -181t178 -470q0 -166 -61 -317.5t-174 -270.5q-117 -121 -267.5 -186.5t-312.5 -65.5q-285 0 -463 181.5t-178 470.5zM283 623q0 -250 152.5 -405t395.5 -155q141 0 272.5 59.5 t233.5 168.5q96 106 149.5 240.5t53.5 279.5q0 250 -152.5 404.5t-396.5 154.5q-141 0 -272 -59.5t-234 -167.5q-96 -106 -149 -240.5t-53 -279.5zM790 1679q0 33 22.5 55.5t55.5 22.5t54.5 -22.5t21.5 -55.5t-21.5 -55.5t-54.5 -22.5t-55.5 22.5t-22.5 55.5zM1245 1679 q0 33 22.5 55.5t55.5 22.5t54.5 -22.5t21.5 -55.5t-21.5 -55.5t-54.5 -22.5t-55.5 22.5t-22.5 55.5z" />
<glyph unicode="&#xd7;" d="M135 348l477 377l-293 379l74 59l283 -387l473 385l53 -71l-477 -377l293 -379l-74 -58l-282 386l-472 -383z" />
<glyph unicode="&#xd8;" horiz-adv-x="1716" d="M35 -84l289 283q-70 86 -106 193.5t-36 230.5q0 166 61.5 317.5t176.5 269.5q115 121 266.5 186.5t312.5 65.5q131 0 246 -44t201 -126l231 230h111v-4l-291 -283q70 -86 105.5 -193.5t35.5 -230.5q0 -166 -61 -317.5t-174 -270.5q-117 -121 -267.5 -186.5t-312.5 -65.5 q-131 0 -245.5 43t-200.5 125l-232 -227h-110v4zM281 623q0 -106 28.5 -197.5t83.5 -165.5l985 971q-74 70 -173 105.5t-214 35.5q-141 0 -273.5 -59t-232.5 -170q-98 -104 -151 -239.5t-53 -280.5zM444 203q74 -70 173 -106t214 -36q141 0 273.5 59.5t232.5 170.5 q98 106 151.5 240.5t53.5 279.5q0 106 -28.5 197.5t-83.5 165.5z" />
<glyph unicode="&#xd9;" horiz-adv-x="1581" d="M215 451q0 41 7 92t20 102l196 789h99l-201 -807q-10 -45 -16.5 -89t-6.5 -81q0 -178 115 -284.5t305 -106.5q209 0 356.5 131t206.5 370l215 867h97l-222 -887q-68 -279 -238.5 -425.5t-424.5 -146.5q-227 0 -367.5 132.5t-140.5 343.5zM840 1874v2h129l112 -289h-51z " />
<glyph unicode="&#xda;" horiz-adv-x="1581" d="M215 451q0 41 7 92t20 102l196 789h99l-201 -807q-10 -45 -16.5 -89t-6.5 -81q0 -178 115 -284.5t305 -106.5q209 0 356.5 131t206.5 370l215 867h97l-222 -887q-68 -279 -238.5 -425.5t-424.5 -146.5q-227 0 -367.5 132.5t-140.5 343.5zM989 1587l254 289h145v-2 l-333 -287h-66z" />
<glyph unicode="&#xdb;" horiz-adv-x="1581" d="M215 451q0 41 7 92t20 102l196 789h99l-201 -807q-10 -45 -16.5 -89t-6.5 -81q0 -178 115 -284.5t305 -106.5q209 0 356.5 131t206.5 370l215 867h97l-222 -887q-68 -279 -238.5 -425.5t-424.5 -146.5q-227 0 -367.5 132.5t-140.5 343.5zM731 1587v2l344 287h82l203 -289 h-58l-198 207l-305 -207h-68z" />
<glyph unicode="&#xdc;" horiz-adv-x="1581" d="M215 451q0 41 7 92t20 102l196 789h99l-201 -807q-10 -45 -16.5 -89t-6.5 -81q0 -178 115 -284.5t305 -106.5q209 0 356.5 131t206.5 370l215 867h97l-222 -887q-68 -279 -238.5 -425.5t-424.5 -146.5q-227 0 -367.5 132.5t-140.5 343.5zM747 1669q0 33 22.5 55.5 t55.5 22.5t54.5 -22.5t21.5 -55.5t-21.5 -55.5t-54.5 -22.5t-55.5 22.5t-22.5 55.5zM1202 1669q0 33 22.5 55.5t55.5 22.5t54.5 -22.5t21.5 -55.5t-21.5 -55.5t-54.5 -22.5t-55.5 22.5t-22.5 55.5z" />
<glyph unicode="&#xdd;" horiz-adv-x="1320" d="M283 1434h104l328 -693l665 693h121v-2l-756 -781l-161 -651h-99l166 664zM850 1587l254 289h145v-2l-333 -287h-66z" />
<glyph unicode="&#xde;" horiz-adv-x="1193" d="M100 0l357 1434h98l-70 -281h252q186 0 300 -97t114 -257q0 -213 -161 -345t-419 -132h-292l-80 -322h-99zM299 412h283q209 0 340 106.5t131 272.5q0 127 -88 199.5t-242 72.5h-260z" />
<glyph unicode="&#xdf;" horiz-adv-x="1282" d="M150 0l229 918h-191l23 81h188l31 125q47 195 167 304.5t286 109.5q145 0 234 -85t89 -222t-98 -253t-309 -226q162 -63 243.5 -160.5t81.5 -224.5q0 -156 -113.5 -266.5t-283.5 -118.5q-72 -2 -139.5 15t-122.5 52l-12 101l2 2q66 -45 132 -65.5t138 -18.5q125 4 215 93 t90 206q0 119 -98 211t-285 147v35q244 119 353.5 228.5t109.5 236.5q0 102 -64.5 164.5t-168.5 62.5q-125 0 -221.5 -93t-137.5 -253l-276 -1106h-92z" />
<glyph unicode="&#xe0;" horiz-adv-x="1118" d="M51 223q0 168 152.5 260t435.5 92q57 0 113.5 -3t107.5 -9l2 4q8 35 13.5 70t5.5 63q0 109 -71 172.5t-192 63.5q-92 0 -185 -33t-193 -100l-2 2l43 115q80 51 169 77.5t181 26.5q156 0 249 -86t93 -231q0 -39 -6 -80t-17 -78l-143 -531l-102 -32l53 194 q-145 -109 -250 -154.5t-201 -45.5q-115 0 -185.5 67.5t-70.5 175.5zM143 233q0 -78 50.5 -124t132.5 -46q94 0 199.5 45.5t252.5 147.5l64 236q-49 6 -97.5 9t-99.5 3q-238 0 -370 -72t-132 -199zM503 1528h117l123 -320h-49z" />
<glyph unicode="&#xe1;" horiz-adv-x="1118" d="M51 223q0 168 152.5 260t435.5 92q57 0 113.5 -3t107.5 -9l2 4q8 35 13.5 70t5.5 63q0 109 -71 172.5t-192 63.5q-92 0 -185 -33t-193 -100l-2 2l43 115q80 51 169 77.5t181 26.5q156 0 249 -86t93 -231q0 -39 -6 -80t-17 -78l-143 -531l-102 -32l53 194 q-145 -109 -250 -154.5t-201 -45.5q-115 0 -185.5 67.5t-70.5 175.5zM143 233q0 -78 50.5 -124t132.5 -46q94 0 199.5 45.5t252.5 147.5l64 236q-49 6 -97.5 9t-99.5 3q-238 0 -370 -72t-132 -199zM653 1208l274 320h131v-4l-344 -316h-61z" />
<glyph unicode="&#xe2;" horiz-adv-x="1118" d="M51 223q0 168 152.5 260t435.5 92q57 0 113.5 -3t107.5 -9l2 4q8 35 13.5 70t5.5 63q0 109 -71 172.5t-192 63.5q-92 0 -185 -33t-193 -100l-2 2l43 115q80 51 169 77.5t181 26.5q156 0 249 -86t93 -231q0 -39 -6 -80t-17 -78l-143 -531l-102 -32l53 194 q-145 -109 -250 -154.5t-201 -45.5q-115 0 -185.5 67.5t-70.5 175.5zM143 233q0 -78 50.5 -124t132.5 -46q94 0 199.5 45.5t252.5 147.5l64 236q-49 6 -97.5 9t-99.5 3q-238 0 -370 -72t-132 -199zM409 1208v2l330 318h90l170 -320h-53l-176 232l-303 -232h-58z" />
<glyph unicode="&#xe3;" horiz-adv-x="1118" d="M51 223q0 168 152.5 260t435.5 92q57 0 113.5 -3t107.5 -9l2 4q8 35 13.5 70t5.5 63q0 109 -71 172.5t-192 63.5q-92 0 -185 -33t-193 -100l-2 2l43 115q80 51 169 77.5t181 26.5q156 0 249 -86t93 -231q0 -39 -6 -80t-17 -78l-143 -531l-102 -32l53 194 q-145 -109 -250 -154.5t-201 -45.5q-115 0 -185.5 67.5t-70.5 175.5zM143 233q0 -78 50.5 -124t132.5 -46q94 0 199.5 45.5t252.5 147.5l64 236q-49 6 -97.5 9t-99.5 3q-238 0 -370 -72t-132 -199zM333 1239q86 154 137.5 207t108.5 53q31 0 71 -21t122 -87 q68 -55 97.5 -71.5t49.5 -16.5q35 0 75 41.5t118 164.5l45 -28q-86 -156 -137.5 -209t-108.5 -53q-31 0 -72 21.5t-123 86.5q-66 55 -95.5 71.5t-49.5 16.5q-35 0 -76 -42t-119 -163z" />
<glyph unicode="&#xe4;" horiz-adv-x="1118" d="M51 223q0 168 152.5 260t435.5 92q57 0 113.5 -3t107.5 -9l2 4q8 35 13.5 70t5.5 63q0 109 -71 172.5t-192 63.5q-92 0 -185 -33t-193 -100l-2 2l43 115q80 51 169 77.5t181 26.5q156 0 249 -86t93 -231q0 -39 -6 -80t-17 -78l-143 -531l-102 -32l53 194 q-145 -109 -250 -154.5t-201 -45.5q-115 0 -185.5 67.5t-70.5 175.5zM143 233q0 -78 50.5 -124t132.5 -46q94 0 199.5 45.5t252.5 147.5l64 236q-49 6 -97.5 9t-99.5 3q-238 0 -370 -72t-132 -199zM428 1298q0 33 22.5 55.5t54.5 22.5q33 0 55.5 -22.5t22.5 -55.5t-22.5 -55 t-55.5 -22t-55 22.5t-22 54.5zM847 1298q0 31 24 54.5t54 23.5q33 0 55.5 -22.5t22.5 -55.5t-22.5 -55t-55.5 -22t-55.5 22.5t-22.5 54.5z" />
<glyph unicode="&#xe5;" horiz-adv-x="1118" d="M51 223q0 168 152.5 260t435.5 92q57 0 113.5 -3t107.5 -9l2 4q8 35 13.5 70t5.5 63q0 109 -71 172.5t-192 63.5q-92 0 -185 -33t-193 -100l-2 2l43 115q80 51 169 77.5t181 26.5q156 0 249 -86t93 -231q0 -39 -6 -80t-17 -78l-143 -531l-102 -32l53 194 q-145 -109 -250 -154.5t-201 -45.5q-115 0 -185.5 67.5t-70.5 175.5zM143 233q0 -78 50.5 -124t132.5 -46q94 0 199.5 45.5t252.5 147.5l64 236q-49 6 -97.5 9t-99.5 3q-238 0 -370 -72t-132 -199zM518 1438q0 113 76.5 192.5t185.5 79.5q98 0 164.5 -66.5t66.5 -166.5 q0 -113 -76.5 -193t-185.5 -80q-98 0 -164.5 66.5t-66.5 167.5zM575 1440q0 -80 50 -131.5t126 -51.5q84 0 143.5 64.5t59.5 153.5q0 80 -50 131t-126 51q-84 0 -143.5 -63.5t-59.5 -153.5z" />
<glyph unicode="&#xe6;" horiz-adv-x="1832" d="M51 223q0 168 150.5 260t427.5 92q55 0 110.5 -3t104.5 -9l2 4q8 29 13 64t5 69q0 111 -68.5 173.5t-187.5 62.5q-90 0 -181 -33t-187 -100l-2 2l43 115q76 51 163.5 77.5t178.5 26.5q129 0 216 -63.5t109 -174.5q78 113 195 177.5t246 64.5q160 0 260 -103.5t100 -271.5 q0 -47 -8 -96t-23 -98h-798q-2 -8 -2 -18.5v-28.5q0 -162 90 -255.5t243 -93.5q86 0 175.5 31t175.5 92l2 -4l-25 -100q-76 -51 -164 -78t-178 -27q-137 0 -236.5 64.5t-144.5 181.5q-168 -131 -291 -187t-246 -56q-121 0 -194.5 67.5t-73.5 175.5zM143 233q0 -78 52.5 -124 t138.5 -46q102 0 218 55.5t282 184.5q-4 33 -6.5 56.5t-2.5 43.5q0 23 1 44.5t5 44.5q-51 6 -98 9t-98 3q-233 0 -362.5 -72t-129.5 -199zM932 537h710q6 29 9.5 56t3.5 54q0 135 -76 216t-201 81q-154 0 -280.5 -116.5t-165.5 -290.5z" />
<glyph unicode="&#xe7;" horiz-adv-x="1079" d="M106 412q0 256 173.5 435t420.5 179q102 0 194.5 -42t149.5 -114l-16 -106h-6q-63 88 -145 132t-185 44q-201 0 -346 -154.5t-145 -367.5q0 -162 92 -259.5t244 -97.5q98 0 187 37t183 115l4 -4l-51 -125q-66 -51 -154 -80t-182 -29h-14l-76 -102q18 2 27.5 3t17.5 1 q68 0 114 -37t46 -90q0 -70 -62.5 -110.5t-173.5 -40.5q-41 0 -79.5 7t-73.5 19l-33 70l4 4q49 -23 91 -32t87 -9q74 0 117 24.5t43 63.5q0 33 -29.5 52.5t-80.5 19.5q-29 0 -62 -5.5t-74 -17.5l-4 8l131 181q-152 27 -243 142.5t-91 285.5z" />
<glyph unicode="&#xe8;" horiz-adv-x="1128" d="M104 403q0 256 170 440.5t402 184.5q162 0 264 -103.5t102 -271.5q0 -51 -7 -100t-21 -94h-815q-2 -8 -2 -18.5v-28.5q0 -162 92 -255.5t250 -93.5q88 0 178 31t180 92l2 -4l-25 -100q-76 -51 -166 -78t-182 -27q-190 0 -306 116t-116 310zM211 537h727q6 29 9 56t3 54 q0 135 -77.5 216t-204.5 81q-156 0 -286 -116.5t-171 -290.5zM534 1530h117l123 -320h-49z" />
<glyph unicode="&#xe9;" horiz-adv-x="1128" d="M104 403q0 256 170 440.5t402 184.5q162 0 264 -103.5t102 -271.5q0 -51 -7 -100t-21 -94h-815q-2 -8 -2 -18.5v-28.5q0 -162 92 -255.5t250 -93.5q88 0 178 31t180 92l2 -4l-25 -100q-76 -51 -166 -78t-182 -27q-190 0 -306 116t-116 310zM211 537h727q6 29 9 56t3 54 q0 135 -77.5 216t-204.5 81q-156 0 -286 -116.5t-171 -290.5zM684 1210l274 320h131v-4l-344 -316h-61z" />
<glyph unicode="&#xea;" horiz-adv-x="1128" d="M104 403q0 256 170 440.5t402 184.5q162 0 264 -103.5t102 -271.5q0 -51 -7 -100t-21 -94h-815q-2 -8 -2 -18.5v-28.5q0 -162 92 -255.5t250 -93.5q88 0 178 31t180 92l2 -4l-25 -100q-76 -51 -166 -78t-182 -27q-190 0 -306 116t-116 310zM211 537h727q6 29 9 56t3 54 q0 135 -77.5 216t-204.5 81q-156 0 -286 -116.5t-171 -290.5zM440 1210v2l330 318h90l170 -320h-53l-176 232l-303 -232h-58z" />
<glyph unicode="&#xeb;" horiz-adv-x="1128" d="M104 403q0 256 170 440.5t402 184.5q162 0 264 -103.5t102 -271.5q0 -51 -7 -100t-21 -94h-815q-2 -8 -2 -18.5v-28.5q0 -162 92 -255.5t250 -93.5q88 0 178 31t180 92l2 -4l-25 -100q-76 -51 -166 -78t-182 -27q-190 0 -306 116t-116 310zM211 537h727q6 29 9 56t3 54 q0 135 -77.5 216t-204.5 81q-156 0 -286 -116.5t-171 -290.5zM459 1300q0 33 22.5 55.5t54.5 22.5q33 0 55.5 -22.5t22.5 -55.5t-22.5 -55t-55.5 -22t-55 22.5t-22 54.5zM878 1300q0 31 24 54.5t54 23.5q33 0 55.5 -22.5t22.5 -55.5t-22.5 -55t-55.5 -22t-55.5 22.5 t-22.5 54.5z" />
<glyph unicode="&#xec;" horiz-adv-x="501" d="M80 0l248 999h94l-248 -999h-94zM223 1528h117l123 -320h-49z" />
<glyph unicode="&#xed;" horiz-adv-x="501" d="M80 0l248 999h94l-248 -999h-94zM373 1208l274 320h131v-4l-344 -316h-61z" />
<glyph unicode="&#xee;" horiz-adv-x="501" d="M80 0l248 999h94l-248 -999h-94zM129 1208v2l330 318h90l170 -320h-53l-176 232l-303 -232h-58z" />
<glyph unicode="&#xef;" horiz-adv-x="501" d="M80 0l248 999h94l-248 -999h-94zM148 1298q0 33 22.5 55.5t54.5 22.5q33 0 55.5 -22.5t22.5 -55.5t-22.5 -55t-55.5 -22t-55 22.5t-22 54.5zM567 1298q0 31 24 54.5t54 23.5q33 0 55.5 -22.5t22.5 -55.5t-22.5 -55t-55.5 -22t-55.5 22.5t-22.5 54.5z" />
<glyph unicode="&#xf0;" horiz-adv-x="1236" d="M100 410q0 219 159 376.5t376 157.5q115 0 207 -45t155 -133q-35 154 -103.5 279.5t-180.5 238.5l-160 -145l-49 53l158 141q-35 35 -79 70t-98 74l56 63q53 -37 99 -73.5t85 -75.5l164 149l49 -51l-162 -148q160 -166 240 -362.5t80 -421.5q0 -258 -154 -422t-391 -164 q-199 0 -325 123t-126 316zM197 414q0 -158 100 -257.5t258 -99.5q188 0 317 133t129 332q0 150 -102 245t-258 95q-180 0 -312 -133t-132 -315z" />
<glyph unicode="&#xf1;" horiz-adv-x="1214" d="M70 0l243 979l103 35l-58 -230q106 121 211 180.5t207 59.5q129 0 212 -85t83 -220q0 -35 -4 -71t-14 -75l-144 -573h-94l148 590q8 31 11 58t3 54q0 106 -60.5 171t-156.5 65q-100 0 -202.5 -60.5t-223.5 -191.5l-170 -686h-94zM389 1239q86 154 137.5 207t108.5 53 q31 0 71 -21t122 -87q68 -55 97.5 -71.5t49.5 -16.5q35 0 75 41.5t118 164.5l45 -28q-86 -156 -137.5 -209t-108.5 -53q-31 0 -72 21.5t-123 86.5q-66 55 -95.5 71.5t-49.5 16.5q-35 0 -76 -42t-119 -163z" />
<glyph unicode="&#xf2;" horiz-adv-x="1247" d="M109 430q0 252 168.5 425t410.5 173q199 0 325 -128t126 -329q0 -254 -169 -427t-411 -173q-199 0 -324.5 128t-125.5 331zM203 432q0 -168 101.5 -271.5t262.5 -103.5q199 0 338 148.5t139 361.5q0 170 -101 273.5t-263 103.5q-197 0 -337 -149.5t-140 -362.5zM569 1530 h117l123 -320h-49z" />
<glyph unicode="&#xf3;" horiz-adv-x="1247" d="M109 430q0 252 168.5 425t410.5 173q199 0 325 -128t126 -329q0 -254 -169 -427t-411 -173q-199 0 -324.5 128t-125.5 331zM203 432q0 -168 101.5 -271.5t262.5 -103.5q199 0 338 148.5t139 361.5q0 170 -101 273.5t-263 103.5q-197 0 -337 -149.5t-140 -362.5zM719 1210 l274 320h131v-4l-344 -316h-61z" />
<glyph unicode="&#xf4;" horiz-adv-x="1247" d="M109 430q0 252 168.5 425t410.5 173q199 0 325 -128t126 -329q0 -254 -169 -427t-411 -173q-199 0 -324.5 128t-125.5 331zM203 432q0 -168 101.5 -271.5t262.5 -103.5q199 0 338 148.5t139 361.5q0 170 -101 273.5t-263 103.5q-197 0 -337 -149.5t-140 -362.5zM475 1210 v2l330 318h90l170 -320h-53l-176 232l-303 -232h-58z" />
<glyph unicode="&#xf5;" horiz-adv-x="1247" d="M109 430q0 252 168.5 425t410.5 173q199 0 325 -128t126 -329q0 -254 -169 -427t-411 -173q-199 0 -324.5 128t-125.5 331zM203 432q0 -168 101.5 -271.5t262.5 -103.5q199 0 338 148.5t139 361.5q0 170 -101 273.5t-263 103.5q-197 0 -337 -149.5t-140 -362.5zM399 1241 q86 154 137.5 207t108.5 53q31 0 71 -21t122 -87q68 -55 97.5 -71.5t49.5 -16.5q35 0 75 41.5t118 164.5l45 -28q-86 -156 -137.5 -209t-108.5 -53q-31 0 -72 21.5t-123 86.5q-66 55 -95.5 71.5t-49.5 16.5q-35 0 -76 -42t-119 -163z" />
<glyph unicode="&#xf6;" horiz-adv-x="1247" d="M109 430q0 252 168.5 425t410.5 173q199 0 325 -128t126 -329q0 -254 -169 -427t-411 -173q-199 0 -324.5 128t-125.5 331zM203 432q0 -168 101.5 -271.5t262.5 -103.5q199 0 338 148.5t139 361.5q0 170 -101 273.5t-263 103.5q-197 0 -337 -149.5t-140 -362.5zM494 1300 q0 33 22.5 55.5t54.5 22.5q33 0 55.5 -22.5t22.5 -55.5t-22.5 -55t-55.5 -22t-55 22.5t-22 54.5zM913 1300q0 31 24 54.5t54 23.5q33 0 55.5 -22.5t22.5 -55.5t-22.5 -55t-55.5 -22t-55.5 22.5t-22.5 54.5z" />
<glyph unicode="&#xf7;" d="M147 678l21 86h1024l-21 -86h-1024zM481 305q0 35 25.5 59.5t58.5 24.5q35 0 59.5 -24.5t24.5 -59.5q0 -37 -23.5 -60.5t-60.5 -23.5q-35 0 -59.5 24.5t-24.5 59.5zM688 1137q0 35 25.5 59.5t58.5 24.5q35 0 59.5 -25t24.5 -59q0 -37 -23.5 -60.5t-60.5 -23.5 q-35 0 -59.5 24.5t-24.5 59.5z" />
<glyph unicode="&#xf8;" horiz-adv-x="1247" d="M-29 -98l234 235q-47 57 -71.5 133t-24.5 160q0 252 168.5 425t410.5 173q86 0 165 -28.5t138 -81.5l185 184h100v-4l-234 -234q47 -59 72 -134t25 -159q0 -254 -169 -427t-411 -173q-86 0 -163 28t-140 81l-184 -182h-101v4zM201 432q0 -68 17.5 -127t49.5 -106l660 659 q-47 43 -110.5 65.5t-137.5 22.5q-197 0 -338 -150.5t-141 -363.5zM319 141q49 -43 111.5 -64.5t136.5 -21.5q197 0 338.5 149.5t141.5 362.5q0 68 -17.5 127.5t-50.5 108.5z" />
<glyph unicode="&#xf9;" horiz-adv-x="1214" d="M143 281q0 31 5.5 65.5t15.5 79.5l141 573h94l-147 -589q-8 -29 -11 -56.5t-3 -56.5q0 -106 60 -171t159 -65q98 0 201.5 62.5t224.5 193.5l170 682h92l-248 -999h-94l55 217q-109 -123 -212 -182.5t-206 -59.5q-131 0 -214 84t-83 222zM555 1528h117l123 -320h-49z" />
<glyph unicode="&#xfa;" horiz-adv-x="1214" d="M143 281q0 31 5.5 65.5t15.5 79.5l141 573h94l-147 -589q-8 -29 -11 -56.5t-3 -56.5q0 -106 60 -171t159 -65q98 0 201.5 62.5t224.5 193.5l170 682h92l-248 -999h-94l55 217q-109 -123 -212 -182.5t-206 -59.5q-131 0 -214 84t-83 222zM705 1208l274 320h131v-4 l-344 -316h-61z" />
<glyph unicode="&#xfb;" horiz-adv-x="1214" d="M143 281q0 31 5.5 65.5t15.5 79.5l141 573h94l-147 -589q-8 -29 -11 -56.5t-3 -56.5q0 -106 60 -171t159 -65q98 0 201.5 62.5t224.5 193.5l170 682h92l-248 -999h-94l55 217q-109 -123 -212 -182.5t-206 -59.5q-131 0 -214 84t-83 222zM461 1208v2l330 318h90l170 -320 h-53l-176 232l-303 -232h-58z" />
<glyph unicode="&#xfc;" horiz-adv-x="1214" d="M143 281q0 31 5.5 65.5t15.5 79.5l141 573h94l-147 -589q-8 -29 -11 -56.5t-3 -56.5q0 -106 60 -171t159 -65q98 0 201.5 62.5t224.5 193.5l170 682h92l-248 -999h-94l55 217q-109 -123 -212 -182.5t-206 -59.5q-131 0 -214 84t-83 222zM480 1298q0 33 22.5 55.5 t54.5 22.5q33 0 55.5 -22.5t22.5 -55.5t-22.5 -55t-55.5 -22t-55 22.5t-22 54.5zM899 1298q0 31 24 54.5t54 23.5q33 0 55.5 -22.5t22.5 -55.5t-22.5 -55t-55.5 -22t-55.5 22.5t-22.5 54.5z" />
<glyph unicode="&#xfd;" horiz-adv-x="1060" d="M-160 -233l4 2q39 -33 80 -49.5t88 -16.5q78 0 146.5 51t142.5 162l86 131l-205 952h97l176 -860l571 860h109l-758 -1126q-94 -139 -178.5 -198.5t-186.5 -59.5q-41 0 -81 12.5t-68 32.5zM631 1208l274 320h131v-4l-344 -316h-61z" />
<glyph unicode="&#xfe;" horiz-adv-x="1245" d="M-25 -381l467 1880l105 41l-180 -725q106 106 205.5 155.5t205.5 49.5q162 0 264.5 -110.5t102.5 -286.5q0 -133 -48.5 -250t-138.5 -205q-88 -90 -200.5 -138t-231.5 -48q-98 0 -185 32.5t-151 94.5l-122 -490h-93zM211 193q66 -63 143.5 -94t171.5 -31q209 0 367 160.5 t158 385.5q0 147 -80 234.5t-213 87.5q-100 0 -202.5 -52.5t-213.5 -160.5z" />
<glyph unicode="&#xff;" horiz-adv-x="1060" d="M-160 -233l4 2q39 -33 80 -49.5t88 -16.5q78 0 146.5 51t142.5 162l86 131l-205 952h97l176 -860l571 860h109l-758 -1126q-94 -139 -178.5 -198.5t-186.5 -59.5q-41 0 -81 12.5t-68 32.5zM406 1298q0 33 22.5 55.5t54.5 22.5q33 0 55.5 -22.5t22.5 -55.5t-22.5 -55 t-55.5 -22t-55 22.5t-22 54.5zM825 1298q0 31 24 54.5t54 23.5q33 0 55.5 -22.5t22.5 -55.5t-22.5 -55t-55.5 -22t-55.5 22.5t-22.5 54.5z" />
<glyph unicode="&#x152;" horiz-adv-x="1957" d="M176 596q0 184 81 345t230 278q135 104 309.5 159.5t366.5 55.5h895l-22 -91h-678l-141 -569h589l-24 -90h-588l-147 -594h706l-61 -90h-828q-315 0 -501.5 162t-186.5 434zM274 608q2 -242 163 -380t442 -138h69l312 1253h-95q-377 0 -635 -212t-256 -523z" />
<glyph unicode="&#x153;" horiz-adv-x="2027" d="M109 430q0 252 165.5 425t401.5 173q152 0 261.5 -85t147.5 -232q76 145 208 231t284 86q162 0 264.5 -103.5t102.5 -271.5q0 -47 -8.5 -96t-22.5 -98h-813q-2 -8 -2 -18.5v-28.5q0 -162 92 -255.5t250 -93.5q88 0 178 31t178 92l4 -4l-26 -100q-74 -51 -165.5 -78 t-183.5 -27q-152 0 -257 77t-142 212q-74 -137 -204 -216t-281 -79q-190 0 -311 128t-121 331zM203 432q0 -168 95 -271.5t251 -103.5q190 0 327.5 148.5t137.5 361.5q0 170 -95.5 273.5t-250.5 103.5q-190 0 -327.5 -149.5t-137.5 -362.5zM1112 537h725q6 29 9 56t3 54 q0 135 -76.5 216t-205.5 81q-154 0 -284 -116.5t-171 -290.5z" />
<glyph unicode="&#x178;" horiz-adv-x="1320" d="M283 1434h104l328 -693l665 693h121v-2l-756 -781l-161 -651h-99l166 664zM608 1669q0 33 22.5 55.5t55.5 22.5t54.5 -22.5t21.5 -55.5t-21.5 -55.5t-54.5 -22.5t-55.5 22.5t-22.5 55.5zM1063 1669q0 33 22.5 55.5t55.5 22.5t54.5 -22.5t21.5 -55.5t-21.5 -55.5 t-54.5 -22.5t-55.5 22.5t-22.5 55.5z" />
<glyph unicode="&#x2c6;" horiz-adv-x="1024" d="M391 1208v2l330 318h90l170 -320h-53l-176 232l-303 -232h-58z" />
<glyph unicode="&#x2dc;" horiz-adv-x="1024" d="M315 1239q86 154 137.5 207t108.5 53q31 0 71 -21t122 -87q68 -55 97.5 -71.5t49.5 -16.5q35 0 75 41.5t118 164.5l45 -28q-86 -156 -137.5 -209t-108.5 -53q-31 0 -72 21.5t-123 86.5q-66 55 -95.5 71.5t-49.5 16.5q-35 0 -76 -42t-119 -163z" />
<glyph unicode="&#x2000;" horiz-adv-x="943" />
<glyph unicode="&#x2001;" horiz-adv-x="1886" />
<glyph unicode="&#x2002;" horiz-adv-x="943" />
<glyph unicode="&#x2003;" horiz-adv-x="1886" />
<glyph unicode="&#x2004;" horiz-adv-x="628" />
<glyph unicode="&#x2005;" horiz-adv-x="471" />
<glyph unicode="&#x2006;" horiz-adv-x="314" />
<glyph unicode="&#x2007;" horiz-adv-x="314" />
<glyph unicode="&#x2008;" horiz-adv-x="235" />
<glyph unicode="&#x2009;" horiz-adv-x="377" />
<glyph unicode="&#x200a;" horiz-adv-x="104" />
<glyph unicode="&#x2010;" horiz-adv-x="727" d="M119 506l22 90h494l-23 -90h-493z" />
<glyph unicode="&#x2011;" horiz-adv-x="727" d="M119 506l22 90h494l-23 -90h-493z" />
<glyph unicode="&#x2012;" horiz-adv-x="727" d="M119 506l22 90h494l-23 -90h-493z" />
<glyph unicode="&#x2013;" horiz-adv-x="1103" d="M119 508l22 86h869l-23 -86h-868z" />
<glyph unicode="&#x2014;" horiz-adv-x="1882" d="M119 508l22 86h1647l-23 -86h-1646z" />
<glyph unicode="&#x2018;" horiz-adv-x="380" d="M236 1079q0 80 57 159t219 206l29 -33q-133 -131 -174 -196.5t-41 -124.5q0 -45 16 -92.5t64 -131.5h-103q-37 63 -52 113.5t-15 99.5z" />
<glyph unicode="&#x2019;" horiz-adv-x="380" d="M164 889q129 125 172 192.5t43 126.5q0 47 -16.5 94.5t-63.5 131.5h102q35 -61 51.5 -112.5t16.5 -100.5q0 -80 -59.5 -161t-216.5 -204z" />
<glyph unicode="&#x201a;" horiz-adv-x="368" d="M-141 -323q129 125 172 192.5t43 126.5q0 47 -16.5 94.5t-63.5 131.5h102q35 -61 51.5 -112.5t16.5 -100.5q0 -80 -59.5 -161t-216.5 -204z" />
<glyph unicode="&#x201c;" horiz-adv-x="731" d="M236 1079q0 80 57 159t219 206l29 -33q-133 -131 -174 -196.5t-41 -124.5q0 -45 16 -92.5t64 -131.5h-103q-37 63 -52 113.5t-15 99.5zM586 1079q0 80 57 159t219 206l29 -33q-133 -131 -174 -196.5t-41 -124.5q0 -45 16.5 -92.5t63.5 -131.5h-103q-37 63 -52 113.5 t-15 99.5z" />
<glyph unicode="&#x201d;" horiz-adv-x="731" d="M164 889q129 125 172 192.5t43 126.5q0 47 -16.5 94.5t-63.5 131.5h102q35 -61 51.5 -112.5t16.5 -100.5q0 -80 -59.5 -161t-216.5 -204zM514 889q129 125 172 192.5t43 126.5q0 47 -16.5 94.5t-63.5 131.5h103q35 -61 51 -112.5t16 -100.5q0 -80 -59.5 -161t-216.5 -204 z" />
<glyph unicode="&#x201e;" horiz-adv-x="718" d="M-141 -323q129 125 172 192.5t43 126.5q0 47 -16.5 94.5t-63.5 131.5h102q35 -61 51.5 -112.5t16.5 -100.5q0 -80 -59.5 -161t-216.5 -204zM209 -323q129 125 172 192.5t43 126.5q0 47 -16.5 94.5t-63.5 131.5h103q35 -61 51 -112.5t16 -100.5q0 -80 -59.5 -161 t-216.5 -204z" />
<glyph unicode="&#x2022;" horiz-adv-x="819" d="M283 725q0 82 56 139.5t136 57.5q78 0 128 -51.5t50 -131.5q0 -82 -56 -139t-136 -57q-78 0 -128 51t-50 131z" />
<glyph unicode="&#x2026;" horiz-adv-x="1009" d="M-23 70q0 35 25 58.5t57 23.5q35 0 58.5 -24t23.5 -58q0 -35 -23.5 -58.5t-58.5 -23.5t-58.5 23.5t-23.5 58.5zM315 70q0 35 25 58.5t57 23.5q35 0 58.5 -24t23.5 -58q0 -35 -23.5 -58.5t-58.5 -23.5t-58.5 23.5t-23.5 58.5zM653 70q0 35 24.5 58.5t57.5 23.5 q35 0 58.5 -24t23.5 -58q0 -35 -23.5 -58.5t-58.5 -23.5t-58.5 23.5t-23.5 58.5z" />
<glyph unicode="&#x202f;" horiz-adv-x="377" />
<glyph unicode="&#x2039;" horiz-adv-x="794" d="M119 492l4 18l606 506l33 -33l-522 -491l280 -482l-41 -26z" />
<glyph unicode="&#x203a;" horiz-adv-x="794" d="M33 16l522 492l-281 483l41 25l361 -506l-4 -18l-606 -508z" />
<glyph unicode="&#x205f;" horiz-adv-x="471" />
<glyph unicode="&#x20ac;" horiz-adv-x="1353" d="M70 514l18 74h238q2 68 13 133t28 129h-213l18 74h219q86 242 271.5 388t404.5 146q98 0 190.5 -36t161.5 -99l-14 -98h-4q-74 72 -158 108.5t-176 36.5q-182 0 -339 -121t-236 -325h655l-19 -74h-663q-18 -66 -29.5 -131.5t-13.5 -130.5h641l-19 -74h-622 q8 -209 107.5 -330t265.5 -121q90 0 178 33t184 105l2 -2l-43 -121q-74 -49 -158 -76t-170 -27q-205 0 -329.5 145.5t-132.5 393.5h-256z" />
<glyph unicode="&#x2122;" horiz-adv-x="2045" d="M262 1364l17 70h751l-16 -70h-336l-184 -739h-78l184 739h-338zM969 631l241 803h101l172 -684l514 684h112l-153 -803h-74l139 723l-553 -733h-20l-188 733l-218 -723h-73z" />
<glyph unicode="&#x25fc;" horiz-adv-x="1003" d="M0 0v1004h1004v-1004h-1004z" />
<glyph unicode="&#xfb03;" horiz-adv-x="2002" d="M150 0l227 918h-189l23 81h186l60 240q37 147 123 223t219 76q47 0 89 -11t73 -34l22 -104l-4 -5q-41 35 -85 51.5t-97 16.5q-96 0 -159 -58.5t-93 -174.5l-53 -220h350l-21 -81h-350l-229 -918h-92zM902 0l227 918h-189l23 81h186l60 240q37 147 123 223t219 76 q47 0 89 -11t73 -34l22 -104l-4 -5q-41 35 -85 51.5t-97 16.5q-96 0 -159 -58.5t-93 -174.5l-53 -220h350l-21 -81h-350l-229 -918h-92zM1581 0l248 999h94l-248 -999h-94zM1884 1356q0 33 21.5 54.5t54.5 21.5q31 0 52 -23t21 -53q0 -33 -21.5 -55.5t-53.5 -22.5 q-31 0 -52.5 22.5t-21.5 55.5z" />
<glyph unicode="&#xfb04;" horiz-adv-x="2002" d="M150 0l227 918h-189l23 81h186l60 240q37 147 123 223t219 76q47 0 89 -11t73 -34l22 -104l-4 -5q-41 35 -85 51.5t-97 16.5q-96 0 -159 -58.5t-93 -174.5l-53 -220h350l-21 -81h-350l-229 -918h-92zM902 0l227 918h-189l23 81h186l60 240q37 147 123 223t219 76 q47 0 89 -11t73 -34l22 -104l-4 -5q-41 35 -85 51.5t-97 16.5q-96 0 -159 -58.5t-93 -174.5l-53 -220h350l-21 -81h-350l-229 -918h-92zM1581 0l373 1499l104 41l-383 -1540h-94z" />
</font>
</defs>
</svg>
