<?xml version="1.0" standalone="no"?>
<!DOCTYPE svg PUBLIC "-//W3C//DTD SVG 1.1//EN" "http://www.w3.org/Graphics/SVG/1.1/DTD/svg11.dtd" >
<svg xmlns="http://www.w3.org/2000/svg">
<metadata></metadata>
<defs>
<font id="mallory_lightregular" horiz-adv-x="1228" >
<font-face units-per-em="2048" ascent="1638" descent="-410" />
<missing-glyph horiz-adv-x="446" />
<glyph unicode="&#xfb01;" horiz-adv-x="1308" d="M84 893v119h184v188q0 160 85 252t233 92q47 0 88 -10t82 -33l24 -141l-4 -2q-57 35 -98 48t-86 13q-86 0 -136 -57t-50 -156v-194h344v-119h-344v-893h-138v893h-184zM946 1372q0 41 29.5 71t70.5 30t69.5 -30t28.5 -71q0 -43 -28.5 -71.5t-71.5 -28.5q-41 0 -69.5 29.5 t-28.5 70.5zM977 0v1012h137v-1012h-137z" />
<glyph unicode="&#xfb02;" horiz-adv-x="1308" d="M84 893v119h184v188q0 160 85 252t233 92q47 0 88 -10t82 -33l24 -141l-4 -2q-57 35 -98 48t-86 13q-86 0 -136 -57t-50 -156v-194h344v-119h-344v-893h-138v893h-184zM977 0v1495l137 51v-1546h-137z" />
<glyph horiz-adv-x="0" />
<glyph horiz-adv-x="0" />
<glyph horiz-adv-x="682" />
<glyph unicode="&#xd;" horiz-adv-x="681" />
<glyph unicode=" "  horiz-adv-x="446" />
<glyph unicode="&#x09;" horiz-adv-x="446" />
<glyph unicode="&#xa0;" horiz-adv-x="446" />
<glyph unicode="!" horiz-adv-x="514" d="M147 94q0 45 32 77t77 32t78 -32t33 -77t-33 -76.5t-78 -31.5t-77 31.5t-32 76.5zM184 1161v273h146v-273l-41 -743h-64z" />
<glyph unicode="&#x22;" horiz-adv-x="854" d="M90 864l178 570h174l-292 -592zM469 864l180 570h172l-293 -592z" />
<glyph unicode="#" horiz-adv-x="1372" d="M61 385v127h279l96 410h-272v127h301l92 389h98l-92 -389h418l92 389h98l-92 -389h232v-127h-260l-97 -410h254v-127h-282l-92 -389h-99l92 389h-417l-93 -389h-98l92 389h-250zM438 512h418l96 410h-417z" />
<glyph unicode="$" horiz-adv-x="1185" d="M92 311l4 2q98 -74 204 -122t204 -62l51 547q-231 66 -322.5 157t-91.5 238q0 164 127 265.5t330 101.5h29l24 248h99l-25 -259q74 -10 144.5 -37.5t134.5 -68.5v-154h-5q-68 49 -141.5 82t-146.5 49l-52 -522q229 -66 319.5 -158t90.5 -239q0 -174 -134 -278.5 t-349 -104.5l-33 -330h-98l34 336q-100 12 -194 49t-170 92zM270 1081q0 -98 66.5 -160.5t230.5 -115.5l49 506q-6 2 -13 2h-21q-137 0 -224.5 -64.5t-87.5 -167.5zM596 121q156 0 250 68.5t94 183.5q0 100 -66.5 163.5t-226.5 112.5z" />
<glyph unicode="%" horiz-adv-x="1886" d="M106 1053q0 180 95.5 294.5t244.5 114.5q150 0 244 -114.5t94 -292.5q0 -180 -95 -295t-245 -115t-244 113.5t-94 294.5zM225 1055q0 -133 62.5 -218t161.5 -85q96 0 156.5 84t60.5 215q0 135 -62 220t-160 85q-96 0 -157.5 -85t-61.5 -216zM395 -4l508 747l459 695h129 l-506 -748l-461 -694h-129zM1104 379q0 180 95 294.5t245 114.5t244 -113.5t94 -293.5t-95.5 -295t-244.5 -115q-150 0 -244 115t-94 293zM1223 383q0 -135 61.5 -220t159.5 -85q94 0 156.5 85t62.5 216q0 135 -61.5 219t-161.5 84q-94 0 -155.5 -84t-61.5 -215z" />
<glyph unicode="&#x26;" horiz-adv-x="1404" d="M92 330q0 125 86 225t279 197q-82 115 -118 200.5t-36 165.5q0 150 105.5 247t267.5 97q139 0 233.5 -90t94.5 -225q0 -119 -91.5 -227.5t-271.5 -204.5q63 -78 134 -156t153 -158q47 57 104.5 133t143.5 197h151l-2 -6q-109 -152 -180.5 -245t-130.5 -163 q78 -74 163 -151.5t181 -159.5v-6h-180q-84 74 -141.5 127t-104.5 98q-121 -125 -232.5 -182t-234.5 -57q-164 0 -268.5 97t-104.5 247zM227 340q0 -98 71 -164.5t177 -66.5q94 0 182 48t187 152q-98 96 -177 183.5t-141 166.5q-162 -86 -230.5 -159.5t-68.5 -159.5z M438 1122q0 -72 31 -144.5t104 -174.5q147 82 221 166t74 170q0 90 -58 149.5t-144 59.5q-96 0 -162 -64.5t-66 -161.5z" />
<glyph unicode="'" horiz-adv-x="473" d="M90 864l178 570h174l-292 -592z" />
<glyph unicode="(" horiz-adv-x="815" d="M164 625q0 266 128 482t419 429l43 -51q-236 -195 -347.5 -404.5t-111.5 -455.5t111.5 -456t347.5 -405l-43 -51q-291 213 -419 429t-128 483z" />
<glyph unicode=")" horiz-adv-x="815" d="M59 -236q238 195 349.5 405t111.5 456t-111.5 455.5t-349.5 404.5l43 51q291 -211 419 -428t128 -483t-128 -483.5t-419 -428.5z" />
<glyph unicode="*" horiz-adv-x="1073" d="M100 1075l47 152l320 -176l-10 -29zM219 713l262 245l23 -18l-158 -317zM459 1454h157l-65 -360h-29zM571 940l23 18l262 -245l-129 -90zM608 1051l318 176l49 -152l-357 -53z" />
<glyph unicode="+" d="M102 659v121h449v451h127v-451h448v-121h-448v-454h-127v454h-449z" />
<glyph unicode="," horiz-adv-x="374" d="M-27 -291q100 123 130 205t30 217v49h141q0 -160 -49 -265.5t-209 -244.5z" />
<glyph unicode="-" horiz-adv-x="759" d="M123 492v129h512v-129h-512z" />
<glyph unicode="." horiz-adv-x="374" d="M78 94q0 45 31.5 77t76.5 32t77 -32t32 -77t-32 -76.5t-77 -31.5t-76.5 31.5t-31.5 76.5z" />
<glyph unicode="/" horiz-adv-x="901" d="M-12 -266l725 1782h121l-728 -1782h-118z" />
<glyph unicode="0" horiz-adv-x="1353" d="M133 715q0 328 151.5 537.5t393.5 209.5t392.5 -207.5t150.5 -535.5t-151.5 -538t-393.5 -210t-392.5 208t-150.5 536zM274 719q0 -272 113 -445.5t293 -173.5q176 0 287.5 172t111.5 443q0 272 -113.5 445t-291.5 173q-176 0 -288 -172t-112 -442z" />
<glyph unicode="1" horiz-adv-x="866" d="M88 981v154l487 321l31 -8v-1448h-139v1235z" />
<glyph unicode="2" horiz-adv-x="1171" d="M111 33l522 612q123 145 169 235.5t46 184.5q0 113 -75 187.5t-191 74.5q-115 0 -220.5 -72.5t-203.5 -222.5h-4l-25 160q94 133 209 197.5t250 64.5q176 0 286.5 -104.5t110.5 -272.5q0 -117 -50 -220t-187 -265l-406 -465h733l-69 -127h-883z" />
<glyph unicode="3" horiz-adv-x="1124" d="M106 268l5 2q119 -88 218 -126t206 -38q135 0 227 74t92 189q0 137 -127 221t-375 108v60q246 63 359.5 146t113.5 202q0 98 -72.5 160.5t-189.5 62.5q-94 0 -193.5 -40t-209.5 -126h-4v156q113 76 209 106.5t206 30.5q178 0 288 -93t110 -245q0 -121 -83 -214t-245 -154 q170 -43 263 -143.5t93 -239.5q0 -168 -134 -279t-324 -111q-109 0 -199 27t-207 96z" />
<glyph unicode="4" horiz-adv-x="1265" d="M66 393l751 1051l8 -4v4h125v-971h240v-117h-240v-356h-133v356h-743zM260 473h559v787z" />
<glyph unicode="5" horiz-adv-x="1173" d="M135 229q106 -66 206.5 -96.5t203.5 -30.5q160 0 265 95.5t105 240.5t-96 231.5t-258 86.5q-88 0 -180 -22.5t-170 -63.5l-29 16l54 748h761v-129h-639l-34 -471q66 27 129 38t135 11q211 0 341 -120t130 -319q0 -203 -143.5 -336t-368.5 -133q-106 0 -202.5 25 t-186.5 74z" />
<glyph unicode="6" horiz-adv-x="1200" d="M121 469q0 143 64.5 289.5t232.5 374.5l225 301h166l-266 -355q-47 -63 -86 -120.5t-72 -110.5q70 27 133.5 38t132.5 11q190 0 317.5 -123.5t127.5 -318.5q0 -205 -141.5 -344.5t-354.5 -139.5q-219 0 -349 135.5t-130 362.5zM262 473q0 -172 93.5 -274.5t248.5 -102.5 q154 0 253 100.5t99 249.5q0 158 -99 245t-271 87q-59 0 -123 -10t-137 -31q-33 -68 -48.5 -132t-15.5 -132z" />
<glyph unicode="7" horiz-adv-x="1144" d="M92 1434h977l10 -25l-671 -1409h-154l637 1307h-768z" />
<glyph unicode="8" horiz-adv-x="1239" d="M125 369q0 119 72.5 215t199.5 145q-109 51 -171 142.5t-62 199.5q0 164 131 275.5t326 111.5t324.5 -111.5t129.5 -275.5q0 -109 -61.5 -199t-169.5 -141q127 -51 198.5 -146t71.5 -216q0 -168 -142.5 -281t-353.5 -113t-352 113t-141 281zM264 385q0 -125 102.5 -206 t256.5 -81q152 0 253 81t101 206q0 117 -108 200t-251 83t-248.5 -82t-105.5 -201zM303 1065q0 -117 93 -198t225 -81q133 0 225 81t92 198t-91.5 193.5t-230.5 76.5q-137 0 -225 -76.5t-88 -193.5z" />
<glyph unicode="9" horiz-adv-x="1200" d="M104 971q0 207 141.5 349t354.5 142q217 0 347 -135t130 -362q0 -145 -64.5 -292t-232.5 -372l-223 -301h-166l264 354q41 55 78 107.5t70 105.5q-66 -23 -127.5 -34t-126.5 -11q-193 0 -319 125t-126 324zM244 979q0 -162 98 -250t272 -88q55 0 117 9t135 30 q35 74 52.5 141.5t17.5 139.5q0 172 -92 274t-248 102q-154 0 -253 -102t-99 -256z" />
<glyph unicode=":" horiz-adv-x="407" d="M94 94q0 45 32 77t77 32t77.5 -32t32.5 -77t-32.5 -76.5t-77.5 -31.5t-77 31.5t-32 76.5zM94 918q0 45 32 76.5t77 31.5t77.5 -31.5t32.5 -76.5t-31.5 -77t-78.5 -32q-45 0 -77 31.5t-32 77.5z" />
<glyph unicode=";" horiz-adv-x="407" d="M-16 -291q100 123 129.5 205t29.5 217v49h142q0 -160 -49 -265.5t-209 -244.5zM100 918q0 45 32 76.5t77 31.5t76.5 -31.5t31.5 -76.5t-30.5 -77t-77.5 -32q-45 0 -77 31.5t-32 77.5z" />
<glyph unicode="&#x3c;" d="M131 696v47l946 494v-133l-741 -383l741 -383v-137z" />
<glyph unicode="=" d="M123 455v120h983v-120h-983zM123 864v121h983v-121h-983z" />
<glyph unicode="&#x3e;" d="M152 201v135l741 383l-741 383v135l946 -494v-47z" />
<glyph unicode="?" horiz-adv-x="987" d="M88 1100v157q94 98 200.5 147.5t223.5 49.5q162 0 264.5 -91t102.5 -237q0 -98 -53.5 -173.5t-198.5 -166.5q-115 -70 -153 -108.5t-38 -85.5q0 -31 13.5 -67t48.5 -97h-84q-61 78 -81 119t-20 88q0 59 44 110.5t178 133.5q121 72 164.5 126t43.5 123q0 86 -67.5 142.5 t-169.5 56.5q-104 0 -204.5 -55t-209.5 -174zM336 94q0 45 31.5 77t76.5 32t77 -32t32 -77t-32 -76.5t-77 -31.5t-76.5 31.5t-31.5 76.5z" />
<glyph unicode="@" horiz-adv-x="2138" d="M119 426q0 213 84 414.5t237 357.5q156 158 354.5 243t415.5 85q367 0 590 -212t223 -560q0 -272 -136 -451.5t-349 -179.5q-104 0 -175 54t-79 140q-117 -100 -216 -147t-191 -47q-127 0 -204 82t-77 221q0 111 49 221.5t139 200.5q88 86 198 134t224 48q61 0 123 -18.5 t119 -53.5l70 58h41l-142 -598q-6 -27 -8 -44.5t-2 -33.5q0 -72 42 -112t118 -40q164 0 279.5 165t115.5 399q0 328 -205 522t-549 194q-203 0 -390 -80.5t-333 -230.5q-145 -147 -224 -337.5t-79 -389.5q0 -350 213 -549.5t590 -199.5q158 0 297 24.5t274 77.5v-64 q-145 -51 -282 -74.5t-291 -23.5q-401 0 -632.5 216t-231.5 589zM723 440q0 -96 51 -149t141 -53q76 0 169.5 45t209.5 137l107 442q-47 29 -98.5 42.5t-106.5 13.5q-186 0 -329.5 -149t-143.5 -329z" />
<glyph unicode="A" horiz-adv-x="1599" d="M70 0l667 1444h137l652 -1444h-156l-174 391h-799l-178 -391h-149zM455 520h684l-338 762z" />
<glyph unicode="B" horiz-adv-x="1243" d="M215 0v1434h410q201 0 317.5 -99.5t116.5 -269.5q0 -109 -59.5 -191.5t-168.5 -130.5q141 -39 218 -129t77 -217q0 -180 -136 -288.5t-357 -108.5h-418zM354 127h285q158 0 251 74.5t93 197.5t-95 197t-251 74h-283v-543zM354 793h246q139 0 227 73.5t88 190.5 q0 115 -81 182.5t-220 67.5h-260v-514z" />
<glyph unicode="C" horiz-adv-x="1492" d="M121 717q0 150 55 285t158 239q104 104 239.5 160.5t282.5 56.5q141 0 268 -50t228 -144v-174h-4q-117 119 -241 177t-257 58q-238 0 -410 -178t-172 -426q0 -260 168 -436t404 -176q143 0 276 61t252 182l4 -4l-22 -172q-113 -100 -243.5 -150.5t-277.5 -50.5 q-299 0 -503.5 211t-204.5 531z" />
<glyph unicode="D" horiz-adv-x="1601" d="M215 0v1434h459q367 0 586 -193.5t219 -519.5q0 -324 -224.5 -522.5t-580.5 -198.5h-459zM358 131h320q287 0 470 162t183 424q0 268 -181 427t-480 159h-312v-1172z" />
<glyph unicode="E" horiz-adv-x="1167" d="M215 0v1434h786l48 -131h-691v-508h586v-131h-586v-533h697l-47 -131h-793z" />
<glyph unicode="F" horiz-adv-x="1099" d="M215 0v1434h815l-47 -131h-625v-535h545v-131h-545v-637h-143z" />
<glyph unicode="G" horiz-adv-x="1624" d="M121 711q0 324 221 533.5t559 209.5q137 0 260 -32.5t234 -98.5v-162q-121 78 -246 118t-252 40q-268 0 -448.5 -173t-180.5 -431q0 -268 169 -435t433 -167q119 0 217.5 26.5t194.5 81.5v375h-457v133h598v-584q-141 -88 -274 -126.5t-289 -38.5q-326 0 -532.5 202.5 t-206.5 528.5z" />
<glyph unicode="H" horiz-adv-x="1667" d="M215 0v1434h143v-633h951v633h143v-1434h-143v668h-951v-668h-143z" />
<glyph unicode="I" horiz-adv-x="595" d="M225 0v1434h144v-1434h-144z" />
<glyph unicode="J" horiz-adv-x="927" d="M72 231l4 2q66 -59 132 -88.5t132 -29.5q106 0 168.5 68.5t62.5 185.5v1065h144v-1080q0 -172 -96.5 -273t-260.5 -101q-72 0 -134 20t-118 61z" />
<glyph unicode="K" horiz-adv-x="1392" d="M215 0v1434h143v-637h74l721 637h188v-7l-794 -690l807 -731v-6h-195l-729 672h-72v-672h-143z" />
<glyph unicode="L" horiz-adv-x="1079" d="M215 0v1434h143v-1303h652v-131h-795z" />
<glyph unicode="M" horiz-adv-x="2082" d="M215 0v1434h209l616 -1205l615 1205h213v-1434h-142v1284l-673 -1307h-29l-674 1303v-1280h-135z" />
<glyph unicode="N" horiz-adv-x="1689" d="M215 0v1434h135l985 -1137v1137h138v-1442h-52l-1069 1235v-1227h-137z" />
<glyph unicode="O" horiz-adv-x="1730" d="M121 715q0 313 216 530t529 217q311 0 527.5 -216t216.5 -527q0 -313 -217.5 -530.5t-530.5 -217.5q-311 0 -526 216t-215 528zM268 719q0 -258 174 -436.5t422 -178.5q246 0 422 178.5t176 432.5q0 256 -176 435t-426 179q-246 0 -419 -178t-173 -432z" />
<glyph unicode="P" horiz-adv-x="1177" d="M215 0v1434h389q219 0 352.5 -115.5t133.5 -314.5q0 -203 -139.5 -324t-364.5 -121h-228v-559h-143zM358 688h230q162 0 259 86t97 230q0 135 -95 218t-251 83h-240v-617z" />
<glyph unicode="Q" horiz-adv-x="1730" d="M121 715q0 313 216 530t529 217q311 0 527.5 -216t216.5 -527q0 -270 -165 -474t-425 -257q76 -94 159 -136t193 -42q45 0 91 7t89 19l2 -2l-45 -137q-43 -10 -79.5 -15.5t-71.5 -5.5q-162 0 -284 70t-238 225q-303 10 -509 225.5t-206 518.5zM268 719q0 -258 174 -436.5 t422 -178.5q246 0 422 178.5t176 432.5q0 256 -176 435t-426 179q-246 0 -419 -178t-173 -432z" />
<glyph unicode="R" horiz-adv-x="1269" d="M215 0v1434h393q211 0 338 -112t127 -302q0 -147 -97 -258t-255 -146l555 -616h-182l-533 596h-203v-596h-143zM356 725h238q141 0 237.5 84t96.5 211q0 129 -90.5 207t-235.5 78h-246v-580z" />
<glyph unicode="S" horiz-adv-x="1138" d="M92 328l4 2q106 -104 229.5 -162.5t239.5 -58.5q127 0 213 68.5t86 176.5q0 90 -69.5 158t-266.5 156q-217 100 -297.5 193t-80.5 222q0 166 118.5 270.5t302.5 104.5q104 0 194.5 -26.5t180.5 -85.5v-162h-4q-96 72 -188 106.5t-189 34.5q-121 0 -198.5 -63.5 t-77.5 -165.5q0 -88 64.5 -151.5t269.5 -156.5q215 -100 298 -195t83 -228q0 -170 -127 -280t-320 -110q-117 0 -225.5 40t-200.5 114z" />
<glyph unicode="T" horiz-adv-x="1441" d="M68 1303v131h1306v-131h-581v-1303h-144v1303h-581z" />
<glyph unicode="U" horiz-adv-x="1605" d="M197 604v830h143v-834q0 -229 125 -360t342 -131q215 0 339 131t124 364v830h139v-828q0 -293 -162.5 -462t-443.5 -169t-443.5 169t-162.5 460z" />
<glyph unicode="V" horiz-adv-x="1574" d="M74 1434h159l553 -1203l564 1203h153l-704 -1463h-35z" />
<glyph unicode="W" horiz-adv-x="2418" d="M86 1434h156l426 -1256l532 1266h29l522 -1266l434 1256h152l-518 -1446h-140l-471 1155l-479 -1155h-139z" />
<glyph unicode="X" horiz-adv-x="1497" d="M82 0l575 727l-559 707h172l482 -607l479 607h168l-563 -707l579 -727h-174l-498 631l-493 -631h-168z" />
<glyph unicode="Y" horiz-adv-x="1351" d="M39 1434h172l469 -656l467 656h166l-563 -781v-653h-144v649z" />
<glyph unicode="Z" horiz-adv-x="1431" d="M90 23l985 1280h-915v131h1153l12 -23l-985 -1280h1001l-71 -131h-1168z" />
<glyph unicode="[" horiz-adv-x="825" d="M231 -266v1782h488l26 -91h-385v-1601h385l-26 -90h-488z" />
<glyph unicode="\" horiz-adv-x="901" d="M68 1516h120l725 -1782h-118z" />
<glyph unicode="]" horiz-adv-x="825" d="M80 -176h385v1601h-385l26 91h488v-1782h-488z" />
<glyph unicode="^" d="M109 686l483 799h45l483 -799h-137l-369 617l-370 -617h-135z" />
<glyph unicode="_" d="M-4 -170h1237v-100h-1237v100z" />
<glyph unicode="`" horiz-adv-x="1024" d="M184 1550v2h183l186 -331h-68z" />
<glyph unicode="a" horiz-adv-x="1150" d="M111 248q0 174 180 258t553 92v25q0 137 -66.5 210.5t-191.5 73.5q-90 0 -182.5 -36.5t-188.5 -110.5l-4 2l29 156q88 59 177 86.5t187 27.5q178 0 276.5 -104.5t98.5 -296.5v-608l-135 -37v192q-125 -102 -229.5 -149t-204.5 -47q-131 0 -215 73.5t-84 192.5zM246 254 q0 -70 52 -113t136 -43q80 0 179.5 42t230.5 130v234q-303 -14 -450.5 -74.5t-147.5 -175.5z" />
<glyph unicode="b" horiz-adv-x="1261" d="M184 0v1495l138 51v-696q94 96 184 139t194 43q193 0 326 -143.5t133 -360.5q0 -238 -153.5 -391t-382.5 -153q-78 0 -157 22.5t-165 71.5l-90 -78h-27zM322 193q78 -45 151.5 -68t147.5 -23q170 0 285.5 120t115.5 298q0 172 -102.5 280.5t-255.5 108.5 q-86 0 -167 -36.5t-175 -118.5v-561z" />
<glyph unicode="c" horiz-adv-x="1101" d="M100 504q0 225 151.5 378.5t379.5 153.5q100 0 186 -31.5t162 -95.5v-166h-4q-86 86 -171 127t-175 41q-166 0 -278.5 -117.5t-112.5 -285.5q0 -178 107.5 -293t272.5 -115q90 0 187.5 41t187.5 117l6 -2l-26 -158q-88 -61 -178 -92t-183 -31q-223 0 -367.5 148.5 t-144.5 380.5z" />
<glyph unicode="d" horiz-adv-x="1265" d="M100 489q0 231 147.5 385t360.5 154q90 0 174 -31.5t164 -97.5v596l135 51v-1546h-135v162q-96 -96 -184 -139t-193 -43q-197 0 -333 145t-136 364zM240 496q0 -172 104.5 -283t257.5 -111q88 0 170 38t174 120v526q-84 61 -161.5 91t-157.5 30q-166 0 -276.5 -117.5 t-110.5 -293.5z" />
<glyph unicode="e" horiz-adv-x="1142" d="M98 508q0 223 139.5 377.5t348.5 154.5q207 0 331.5 -145t124.5 -375q0 -14 -1 -32.5t-3 -36.5h-800q18 -164 121.5 -256.5t269.5 -92.5q88 0 184 33t188 92l5 -2l-50 -151q-86 -51 -167.5 -74t-174.5 -23q-233 0 -374.5 144.5t-141.5 386.5zM233 555h672 q-8 168 -95 266.5t-230 98.5q-141 0 -238.5 -103.5t-108.5 -261.5z" />
<glyph unicode="f" horiz-adv-x="782" d="M84 893v119h184v188q0 160 85 252t233 92q47 0 88 -10t82 -33l24 -141l-4 -2q-57 35 -98 48t-86 13q-86 0 -136 -57t-50 -156v-194h344v-119h-344v-893h-138v893h-184z" />
<glyph unicode="g" horiz-adv-x="1265" d="M100 506q0 225 155 373.5t380 148.5q82 0 159.5 -22.5t166.5 -73.5l94 80h24v-912q0 -229 -138 -362t-374 -133q-100 0 -198.5 23.5t-194.5 70.5l-33 154l4 4q113 -66 217.5 -96.5t210.5 -30.5q166 0 268.5 100t102.5 270v105q-94 -94 -187 -137t-198 -43 q-199 0 -329 136t-130 345zM238 514q0 -164 100 -267.5t258 -103.5q88 0 172 39t176 121v514q-80 49 -154.5 71.5t-152.5 22.5q-168 0 -283.5 -114.5t-115.5 -282.5z" />
<glyph unicode="h" horiz-adv-x="1234" d="M184 0v1495l138 51v-741q90 121 182 175t201 54q164 0 262 -107.5t98 -291.5v-635h-135v623q0 135 -68.5 211.5t-189.5 76.5q-90 0 -170 -49t-180 -164v-698h-138z" />
<glyph unicode="i" horiz-adv-x="526" d="M164 1372q0 41 29.5 71t70.5 30t69.5 -30t28.5 -71q0 -43 -28.5 -71.5t-71.5 -28.5q-41 0 -69.5 29.5t-28.5 70.5zM195 0v1012h137v-1012h-137z" />
<glyph unicode="j" horiz-adv-x="526" d="M-68 -254q25 -8 50.5 -13t52.5 -5q76 0 119 47t43 133v1104h137v-1102q0 -141 -76 -221t-205 -80q-27 0 -53.5 4t-46.5 12zM166 1372q0 41 29.5 71t70.5 30t70 -30t29 -71q0 -43 -29 -71.5t-72 -28.5q-41 0 -69.5 29.5t-28.5 70.5z" />
<glyph unicode="k" horiz-adv-x="1093" d="M184 0v1495l138 51v-979h69l467 445h174v-6l-528 -490l557 -510v-6h-180l-494 461h-65v-461h-138z" />
<glyph unicode="l" horiz-adv-x="526" d="M195 0v1495l137 51v-1546h-137z" />
<glyph unicode="m" horiz-adv-x="1904" d="M184 0v989l138 37v-213q86 115 173 168t187 53q115 0 201 -62.5t123 -174.5q92 125 184 181t199 56q156 0 251 -107.5t95 -291.5v-635h-136v623q0 135 -65.5 211.5t-179.5 76.5q-80 0 -159 -49t-171 -155q2 -25 3 -41.5t1 -30.5v-635h-135v623q0 135 -66.5 211.5 t-181.5 76.5q-82 0 -157.5 -49t-165.5 -160v-702h-138z" />
<glyph unicode="n" horiz-adv-x="1234" d="M184 0v989l138 37v-221q90 121 182 175t201 54q164 0 262 -107.5t98 -291.5v-635h-135v623q0 135 -68.5 211.5t-189.5 76.5q-90 0 -170 -49t-180 -164v-698h-138z" />
<glyph unicode="o" horiz-adv-x="1261" d="M98 504q0 223 152.5 379.5t382.5 156.5q229 0 378.5 -154.5t149.5 -377.5t-152.5 -380t-381.5 -157q-227 0 -378 156t-151 377zM238 506q0 -176 111.5 -295t279.5 -119q170 0 282.5 120t112.5 294q0 176 -111.5 294t-281.5 118t-281.5 -118t-111.5 -294z" />
<glyph unicode="p" horiz-adv-x="1265" d="M184 -385v1378l138 29v-170q94 96 182 138t192 42q197 0 333 -145.5t136 -364.5q0 -231 -147.5 -384.5t-360.5 -153.5q-88 0 -171 31.5t-164 95.5v-496h-138zM322 221q82 -61 160.5 -90t156.5 -29q164 0 275.5 119t111.5 293q0 172 -104.5 283.5t-257.5 111.5 q-86 0 -167 -36.5t-175 -118.5v-533z" />
<glyph unicode="q" horiz-adv-x="1261" d="M100 483q0 238 155 391.5t384 153.5q78 0 155.5 -22.5t163.5 -71.5l91 78h26v-1397h-135v547q-94 -96 -184 -139t-195 -43q-195 0 -328 143t-133 360zM240 492q0 -172 102 -281t256 -109q86 0 168 38t174 120v559q-78 45 -151.5 66.5t-147.5 21.5q-170 0 -285.5 -119.5 t-115.5 -295.5z" />
<glyph unicode="r" horiz-adv-x="823" d="M184 0v989l138 37v-260q131 158 206.5 210t159.5 52q14 0 28.5 -2t37.5 -8l10 -144q-14 6 -28.5 8.5t-30.5 2.5q-86 0 -172 -48t-211 -171v-666h-138z" />
<glyph unicode="s" horiz-adv-x="1007" d="M86 276l4 5q102 -88 214 -135.5t224 -47.5q106 0 176 47.5t70 116.5q0 70 -58.5 110t-234.5 85q-203 51 -278.5 117.5t-75.5 175.5q0 125 106.5 204.5t270.5 79.5q84 0 169 -24.5t165 -73.5v-145l-7 -3q-82 59 -171 91t-171 32q-102 0 -166.5 -42t-64.5 -107 q0 -66 56.5 -104t232.5 -85q205 -51 281.5 -119.5t76.5 -183.5q0 -127 -110.5 -210t-278.5 -83q-111 0 -212 33t-191 101z" />
<glyph unicode="t" horiz-adv-x="888" d="M72 893v119h176v239l133 52v-291h424v-119h-424v-600q0 -92 48 -142.5t134 -50.5q61 0 124 29t120 82l6 -2l-33 -150q-53 -39 -115.5 -60.5t-125.5 -21.5q-133 0 -212 83t-79 227v606h-176z" />
<glyph unicode="u" horiz-adv-x="1234" d="M170 377v635h135v-625q0 -135 68.5 -211t189.5 -76q88 0 170 49.5t180 163.5v699h136v-1012h-136v209q-90 -121 -181 -176.5t-202 -55.5q-164 0 -262 108t-98 292z" />
<glyph unicode="v" horiz-adv-x="1161" d="M53 1012h150l372 -803l388 803h147l-524 -1037h-31z" />
<glyph unicode="w" horiz-adv-x="1779" d="M63 1012h144l303 -846l369 854h28l357 -856l315 848h139l-401 -1026h-113l-315 759l-330 -759h-113z" />
<glyph unicode="x" horiz-adv-x="1126" d="M68 0l415 518l-393 494h160l315 -402l316 402h155l-391 -490l414 -522h-160l-336 428l-338 -428h-157z" />
<glyph unicode="y" horiz-adv-x="1091" d="M43 -211l4 4q47 -31 87 -44t81 -13q78 2 133 51t98 156l48 106l-441 963h150l360 -813l332 813h149l-473 -1112q-61 -150 -143 -219.5t-195 -71.5q-41 0 -80.5 10t-82.5 33z" />
<glyph unicode="z" horiz-adv-x="1079" d="M59 20l703 873h-635v119h860l8 -21l-704 -874h710l-40 -117h-895z" />
<glyph unicode="{" horiz-adv-x="1007" d="M102 594v61l138 17q111 14 160 53t49 106q0 27 -10.5 61t-45.5 105q-41 88 -54 135.5t-13 88.5q0 137 99 216t271 79h205l27 -91h-209q-123 0 -188.5 -50t-65.5 -144q0 -33 11 -71t46 -118q37 -84 48.5 -126t11.5 -76q0 -80 -47.5 -132.5t-149.5 -82.5 q102 -31 149.5 -83.5t47.5 -131.5q0 -35 -11.5 -77t-48.5 -126q-35 -80 -46 -118t-11 -71q0 -94 66.5 -144t187.5 -50h209l-27 -90h-205q-172 0 -271 78.5t-99 216.5q0 41 13 88t54 135q35 72 45.5 105.5t10.5 60.5q0 68 -49.5 106.5t-159.5 53.5z" />
<glyph unicode="|" horiz-adv-x="735" d="M307 -266v1782h121v-1782h-121z" />
<glyph unicode="}" horiz-adv-x="1007" d="M80 -176h209q123 0 188.5 50t65.5 144q0 33 -11.5 71t-46.5 118q-37 84 -48 126t-11 77q0 80 47 132t150 83q-102 31 -149.5 83t-47.5 132q0 35 11.5 76.5t47.5 125.5q35 80 46.5 118t11.5 71q0 94 -66.5 144t-187.5 50h-209l26 91h205q172 0 271.5 -79t99.5 -216 q0 -41 -13.5 -88.5t-54.5 -135.5q-35 -72 -45 -105.5t-10 -60.5q0 -68 49 -106.5t160 -52.5l137 -17v-61l-137 -16q-111 -14 -160 -53.5t-49 -106.5q0 -27 10.5 -60.5t44.5 -105.5q41 -88 54.5 -135t13.5 -88q0 -137 -99.5 -216t-271.5 -79h-205z" />
<glyph unicode="~" d="M113 588q86 176 144 240.5t136 64.5q33 0 85 -22.5t167 -94.5q94 -59 133 -76.5t62 -17.5q47 0 86 43t106 168l84 -43q-86 -176 -145.5 -240.5t-134.5 -64.5q-33 0 -85.5 22.5t-166.5 94.5q-94 59 -133 77.5t-62 18.5q-47 0 -86 -43t-106 -168z" />
<glyph unicode="&#xa1;" horiz-adv-x="514" d="M147 1339q0 45 32 77t77 32t78 -32t33 -77t-33 -76.5t-78 -31.5t-77 31.5t-32 76.5zM184 0v272l41 744h64l41 -744v-272h-146z" />
<glyph unicode="&#xa2;" horiz-adv-x="1085" d="M104 713q0 209 140.5 355t353.5 157l20 219h99l-21 -223q70 -8 134.5 -35t127.5 -72v-158h-4q-74 66 -138 100t-134 44l-74 -774q92 2 187.5 37.5t177.5 99.5l2 -2l-25 -150q-78 -51 -168 -78.5t-184 -27.5l-23 -217h-98l23 225q-178 31 -287 167t-109 333zM236 715 q0 -143 75.5 -246.5t202.5 -132.5l76 770q-154 -10 -254 -121.5t-100 -269.5z" />
<glyph unicode="&#xa3;" horiz-adv-x="1185" d="M109 635v104h247q-74 121 -99.5 193t-25.5 145q0 168 121 274.5t316 106.5q92 0 184 -25.5t186 -78.5l23 -162h-6q-102 70 -199.5 104.5t-191.5 34.5q-131 0 -213 -69.5t-82 -180.5q0 -63 25.5 -127.5t115.5 -214.5h434v-104h-377q18 -41 27.5 -79t9.5 -75 q0 -76 -44 -148.5t-179 -205.5h690l-31 -127h-907l-8 33q211 195 277.5 280.5t66.5 159.5q0 39 -11.5 75t-39.5 87h-309z" />
<glyph unicode="&#xa5;" horiz-adv-x="1269" d="M61 1434h160l416 -650l416 650h155l-463 -711h365v-94h-408v-193h408v-94h-408v-342h-135v342h-409v94h409v193h-409v94h366z" />
<glyph unicode="&#xa7;" horiz-adv-x="1282" d="M90 559q0 109 84 193t238 131q-88 51 -128 114.5t-40 151.5q0 137 114.5 223t296.5 86q104 0 200.5 -22.5t184.5 -65.5v-147h-2q-102 55 -199.5 82.5t-187.5 27.5q-119 0 -194.5 -52t-75.5 -134q0 -84 63.5 -135t255.5 -113q281 -90 386.5 -176t105.5 -217 q0 -109 -86 -194t-242 -130q90 -51 132 -115.5t42 -152.5q0 -135 -113.5 -221t-289.5 -86q-115 0 -222.5 30.5t-199.5 90.5l-31 166l4 2q115 -80 229.5 -122t223.5 -42q115 0 189.5 52t74.5 132t-67.5 133t-253.5 115q-274 90 -383 178t-109 217zM227 569q0 -90 85 -151.5 t319 -136.5q76 -27 94 -34t35 -14q143 47 219 114t76 149q0 90 -81 149.5t-321 136.5q-37 12 -70.5 24.5t-64.5 24.5q-141 -49 -216 -115.5t-75 -146.5z" />
<glyph unicode="&#xa8;" horiz-adv-x="1024" d="M201 1327q0 41 29.5 70.5t70.5 29.5t70.5 -29.5t29.5 -70.5t-29.5 -70.5t-70.5 -29.5t-70.5 29.5t-29.5 70.5zM623 1327q0 41 29.5 70.5t70.5 29.5t70.5 -29.5t29.5 -70.5t-29.5 -70.5t-70.5 -29.5t-70.5 29.5t-29.5 70.5z" />
<glyph unicode="&#xa9;" horiz-adv-x="1822" d="M86 715q0 164 63.5 313.5t180.5 263.5q117 113 268.5 174.5t314.5 61.5q166 0 315.5 -60.5t266.5 -173.5t179.5 -262t62.5 -313t-63.5 -313.5t-180.5 -264.5q-117 -113 -268.5 -174t-315.5 -61q-166 0 -315 60t-266 173t-179.5 262.5t-62.5 313.5zM147 717 q0 -315 223.5 -534.5t540.5 -219.5q319 0 541.5 219t222.5 535q0 315 -222.5 534t-541.5 219q-317 0 -540.5 -219t-223.5 -534zM451 719q0 201 142 335t351 134q92 0 174 -27.5t150 -83.5v-119h-4q-78 66 -159 99t-163 33q-160 0 -271.5 -106.5t-111.5 -260.5 q0 -164 109.5 -269.5t267.5 -105.5q90 0 175 31t163 92l4 -2l-18 -115q-76 -53 -157 -78.5t-171 -25.5q-205 0 -343 132t-138 337z" />
<glyph unicode="&#xaa;" horiz-adv-x="987" d="M145 412v90h697v-90h-697zM156 891q0 121 132 183.5t402 70.5v14q0 94 -46 143.5t-134 49.5q-66 0 -134.5 -27t-142.5 -82h-4l23 119q63 43 130 63.5t142 20.5q131 0 203 -73t72 -208v-438l-107 -14v131q-80 -72 -160.5 -108t-156.5 -36q-96 0 -157.5 53.5t-61.5 137.5z M264 899q0 -49 36 -78.5t93 -29.5q59 0 134 31.5t163 92.5v154q-213 -10 -319.5 -52t-106.5 -118z" />
<glyph unicode="&#xab;" horiz-adv-x="1284" d="M111 494v24l464 508l54 -31l-357 -487l357 -492l-54 -30zM625 494v24l467 508l53 -31l-357 -487l357 -492l-53 -30z" />
<glyph unicode="&#xad;" horiz-adv-x="759" d="M123 492v129h512v-129h-512z" />
<glyph unicode="&#xae;" horiz-adv-x="1126" d="M109 1034q0 186 132 316.5t322 130.5t322.5 -129.5t132.5 -315.5t-133 -316t-324 -130q-188 0 -320 129t-132 315zM158 1034q0 -170 116.5 -285.5t288.5 -115.5q170 0 288 116.5t118 284.5q0 170 -117 286t-289 116q-170 0 -287.5 -117t-117.5 -285zM401 793v507h156 q80 0 130 -41.5t50 -111.5q0 -55 -33.5 -95t-93.5 -57l191 -202h-92l-181 192h-55v-192h-72zM473 1049h74q55 0 86 25.5t31 68.5t-31 68.5t-84 25.5h-76v-188z" />
<glyph unicode="&#xaf;" horiz-adv-x="1024" d="M176 1276v106h672v-106h-672z" />
<glyph unicode="&#xb0;" horiz-adv-x="1093" d="M117 1022q0 184 125 312t307 128q180 0 305 -128t125 -310q0 -184 -125 -311t-309 -127q-182 0 -305 127t-123 309zM236 1026q0 -141 90 -238.5t223 -97.5q131 0 221 97.5t90 234.5q0 139 -91 237.5t-222 98.5t-221 -97.5t-90 -234.5z" />
<glyph unicode="&#xb1;" d="M117 0v119h995v-119h-995zM117 860v123h434v451h127v-451h434v-123h-434v-452h-127v452h-434z" />
<glyph unicode="&#xb4;" horiz-adv-x="1024" d="M471 1221l186 331h183v-2l-301 -329h-68z" />
<glyph unicode="&#xb5;" horiz-adv-x="1249" d="M184 -385v1397h138v-625q0 -135 68.5 -211t189.5 -76q90 0 172 50.5t178 164.5v697h135v-1012h-102l-25 217q-92 -121 -180 -176t-187 -55q-88 0 -156.5 35.5t-117.5 107.5l16 -432v-82h-129z" />
<glyph unicode="&#xb6;" horiz-adv-x="1368" d="M113 975q0 203 153.5 331t384.5 128h518v-1434h-100v1311h-209v-1311h-98v522h-115q-236 0 -385 124t-149 329zM252 958q0 -152 112.5 -248t284.5 -96h113v697h-113q-176 0 -286.5 -96.5t-110.5 -256.5z" />
<glyph unicode="&#xb7;" horiz-adv-x="434" d="M109 555q0 45 31.5 78t76.5 33t77 -33t32 -78t-32 -77t-77 -32t-76.5 32t-31.5 77z" />
<glyph unicode="&#xb8;" horiz-adv-x="1024" d="M293 -299l4 4q45 -16 83 -23.5t79 -7.5q66 0 102.5 20.5t36.5 57.5q0 31 -28.5 47.5t-82.5 16.5q-25 0 -46 -2t-72 -13l-7 9l119 200h92l-77 -123h20q90 0 139.5 -34t49.5 -97q0 -70 -63.5 -112.5t-170.5 -42.5q-37 0 -69.5 4t-65.5 14z" />
<glyph unicode="&#xba;" horiz-adv-x="1013" d="M117 1075q0 158 112.5 269.5t280.5 111.5t277.5 -110.5t109.5 -268.5q0 -160 -111.5 -271.5t-279.5 -111.5t-278.5 111.5t-110.5 269.5zM150 412v90h714v-90h-714zM229 1077q0 -121 79 -201.5t198 -80.5q121 0 200.5 80.5t79.5 199.5t-78.5 200t-199.5 81t-200 -80 t-79 -199z" />
<glyph unicode="&#xbb;" horiz-adv-x="1284" d="M139 16l357 488l-357 491l54 31l464 -508v-24l-464 -508zM655 16l355 488l-355 491l54 31l465 -508v-24l-465 -508z" />
<glyph unicode="&#xbc;" horiz-adv-x="1597" d="M59 1127v118l330 203l19 -4v-856h-111v688zM217 -4l510 743l460 699h119l-510 -744l-461 -698h-118zM844 227l434 625h123v-563h143v-88h-143v-201h-104v201h-449zM987 289h310v442z" />
<glyph unicode="&#xbd;" horiz-adv-x="1669" d="M59 1127v118l330 203l19 -4v-856h-111v688zM217 -4l510 743l460 699h119l-510 -744l-461 -698h-118zM1016 37l307 352q76 86 101.5 134t25.5 95q0 61 -41 100.5t-107 39.5t-129 -42t-127 -130h-4l-16 119q57 76 130 114.5t155 38.5q113 0 182 -62.5t69 -164.5 q0 -66 -30.5 -127.5t-116.5 -157.5l-223 -248h424l-49 -98h-541z" />
<glyph unicode="&#xbe;" horiz-adv-x="1708" d="M70 764l4 2q70 -49 133 -72.5t129 -23.5q78 0 128 39t50 100q0 72 -72.5 116t-226.5 66v50q154 43 218.5 86t64.5 106q0 51 -42 84t-108 33q-55 0 -116.5 -25.5t-129.5 -74.5h-4v114q63 43 127 62.5t133 19.5q115 0 183.5 -56.5t68.5 -148.5q0 -70 -49 -124t-143 -89 q100 -29 155.5 -86t55.5 -135q0 -100 -84 -165.5t-205 -65.5q-70 0 -131.5 16t-120.5 53zM326 -4l510 743l460 699h119l-510 -744l-461 -698h-118zM952 227l434 625h123v-563h143v-88h-143v-201h-104v201h-449zM1095 289h310v442z" />
<glyph unicode="&#xbf;" horiz-adv-x="987" d="M109 307q0 -147 105 -237t259 -90q135 0 240.5 57t185.5 139v158l-4 2q-100 -109 -201.5 -169.5t-212.5 -60.5q-100 0 -168.5 56.5t-68.5 142.5q0 76 49 130t160 120q111 70 165 122t54 122q0 55 -23.5 99t-75.5 108h-84q31 -53 45.5 -91t14.5 -73q0 -47 -39 -86 t-150 -109q-113 -70 -182 -144.5t-69 -195.5zM434 1339q0 -45 32 -76.5t77 -31.5t76.5 31.5t31.5 76.5t-31.5 77t-76.5 32t-77 -32t-32 -77z" />
<glyph unicode="&#xc0;" horiz-adv-x="1599" d="M70 0l667 1444h137l652 -1444h-156l-174 391h-799l-178 -391h-149zM455 520h684l-338 762zM467 1870v2h199l184 -289h-76z" />
<glyph unicode="&#xc1;" horiz-adv-x="1599" d="M70 0l667 1444h137l652 -1444h-156l-174 391h-799l-178 -391h-149zM455 520h684l-338 762zM756 1583l184 289h199v-2l-307 -287h-76z" />
<glyph unicode="&#xc2;" horiz-adv-x="1599" d="M70 0l667 1444h137l652 -1444h-156l-174 391h-799l-178 -391h-149zM455 520h684l-338 762zM471 1583v2l269 287h126l269 -287v-2h-84l-248 184l-248 -184h-84z" />
<glyph unicode="&#xc3;" horiz-adv-x="1599" d="M70 0l667 1444h137l652 -1444h-156l-174 391h-799l-178 -391h-149zM414 1618q84 141 130 186t103 45q27 0 64 -16.5t117 -67.5q68 -43 96.5 -56t46.5 -13q31 0 59.5 28.5t98.5 133.5l63 -43q-84 -141 -130 -186.5t-103 -45.5q-27 0 -64 16.5t-117 67.5q-68 43 -96.5 56.5 t-46.5 13.5q-31 0 -59.5 -29t-98.5 -133zM455 520h684l-338 762z" />
<glyph unicode="&#xc4;" horiz-adv-x="1599" d="M70 0l667 1444h137l652 -1444h-156l-174 391h-799l-178 -391h-149zM455 520h684l-338 762zM481 1686q0 43 29 72.5t72 29.5t71.5 -29.5t28.5 -72.5t-28.5 -72t-71.5 -29t-72 28.5t-29 72.5zM924 1686q0 43 28.5 72.5t71.5 29.5t72 -29.5t29 -72.5t-29 -72t-72 -29 t-71.5 28.5t-28.5 72.5z" />
<glyph unicode="&#xc5;" horiz-adv-x="1599" d="M70 0l624 1354q-66 29 -104.5 89t-38.5 132q0 102 73.5 173t180.5 71q109 0 181.5 -71t72.5 -173q0 -72 -40 -132.5t-106 -88.5l613 -1354h-156l-174 391h-799l-178 -391h-149zM455 520h684l-338 764zM623 1575q0 -74 52 -125t130 -51t130 51t52 125q0 72 -53 124 t-129 52q-78 0 -130 -51t-52 -125z" />
<glyph unicode="&#xc6;" horiz-adv-x="1982" d="M20 0l945 1434h852l47 -131h-688v-508h583v-131h-583v-533h694l-47 -131h-791v391h-600l-258 -391h-154zM516 520h516v783z" />
<glyph unicode="&#xc7;" horiz-adv-x="1492" d="M121 717q0 150 55 285t158 239q104 104 239.5 160.5t282.5 56.5q141 0 268 -50t228 -144v-174h-4q-117 119 -241 177t-257 58q-238 0 -410 -178t-172 -426q0 -260 168 -436t404 -176q143 0 276 61t252 182l4 -4l-22 -172q-102 -92 -221 -142t-250 -57l-64 -100h21 q90 0 139 -34t49 -97q0 -70 -63.5 -113t-169.5 -43q-37 0 -70 4.5t-66 14.5l-43 82l4 4q45 -16 83 -23.5t79 -7.5q66 0 103 20.5t37 57.5q0 31 -29 47t-82 16q-25 0 -46.5 -2t-72.5 -12l-6 8l104 178q-285 16 -475 224.5t-190 515.5z" />
<glyph unicode="&#xc8;" horiz-adv-x="1167" d="M215 0v1434h786l48 -131h-691v-508h586v-131h-586v-533h697l-47 -131h-793zM293 1870v2h199l184 -289h-76z" />
<glyph unicode="&#xc9;" horiz-adv-x="1167" d="M215 0v1434h786l48 -131h-691v-508h586v-131h-586v-533h697l-47 -131h-793zM582 1583l184 289h199v-2l-307 -287h-76z" />
<glyph unicode="&#xca;" horiz-adv-x="1167" d="M215 0v1434h786l48 -131h-691v-508h586v-131h-586v-533h697l-47 -131h-793zM297 1583v2l269 287h126l269 -287v-2h-84l-248 184l-248 -184h-84z" />
<glyph unicode="&#xcb;" horiz-adv-x="1167" d="M215 0v1434h786l48 -131h-691v-508h586v-131h-586v-533h697l-47 -131h-793zM307 1686q0 43 29 72.5t72 29.5t71.5 -29.5t28.5 -72.5t-28.5 -72t-71.5 -29t-72 28.5t-29 72.5zM750 1686q0 43 28.5 72.5t71.5 29.5t72 -29.5t29 -72.5t-29 -72t-72 -29t-71.5 28.5 t-28.5 72.5z" />
<glyph unicode="&#xcc;" horiz-adv-x="595" d="M-39 1870v2h199l184 -289h-76zM225 0v1434h144v-1434h-144z" />
<glyph unicode="&#xcd;" horiz-adv-x="595" d="M225 0v1434h144v-1434h-144zM250 1583l184 289h199v-2l-307 -287h-76z" />
<glyph unicode="&#xce;" horiz-adv-x="595" d="M-35 1583v2l269 287h126l269 -287v-2h-84l-248 184l-248 -184h-84zM225 0v1434h144v-1434h-144z" />
<glyph unicode="&#xcf;" horiz-adv-x="595" d="M-25 1686q0 43 29 72.5t72 29.5t71.5 -29.5t28.5 -72.5t-28.5 -72t-71.5 -29t-72 28.5t-29 72.5zM225 0v1434h144v-1434h-144zM418 1686q0 43 28.5 72.5t71.5 29.5t72 -29.5t29 -72.5t-29 -72t-72 -29t-71.5 28.5t-28.5 72.5z" />
<glyph unicode="&#xd0;" horiz-adv-x="1642" d="M39 680v106h217v648h459q367 0 586 -193.5t219 -519.5q0 -324 -224.5 -522.5t-580.5 -198.5h-459v680h-217zM397 131h322q287 0 470 162t183 424q0 268 -181 427t-480 159h-314v-517h410v-106h-410v-549z" />
<glyph unicode="&#xd1;" horiz-adv-x="1689" d="M215 0v1434h135l985 -1137v1137h138v-1442h-52l-1069 1235v-1227h-137zM455 1618q84 141 130 186t103 45q27 0 64 -16.5t117 -67.5q68 -43 96.5 -56t46.5 -13q31 0 59.5 28.5t98.5 133.5l63 -43q-84 -141 -130 -186.5t-103 -45.5q-27 0 -64 16.5t-117 67.5 q-68 43 -96.5 56.5t-46.5 13.5q-31 0 -59.5 -29t-98.5 -133z" />
<glyph unicode="&#xd2;" horiz-adv-x="1730" d="M121 715q0 313 216 530t529 217q311 0 527.5 -216t216.5 -527q0 -313 -217.5 -530.5t-530.5 -217.5q-311 0 -526 216t-215 528zM268 719q0 -258 174 -436.5t422 -178.5q246 0 422 178.5t176 432.5q0 256 -176 435t-426 179q-246 0 -419 -178t-173 -432zM528 1880v2h199 l184 -289h-76z" />
<glyph unicode="&#xd3;" horiz-adv-x="1730" d="M121 715q0 313 216 530t529 217q311 0 527.5 -216t216.5 -527q0 -313 -217.5 -530.5t-530.5 -217.5q-311 0 -526 216t-215 528zM268 719q0 -258 174 -436.5t422 -178.5q246 0 422 178.5t176 432.5q0 256 -176 435t-426 179q-246 0 -419 -178t-173 -432zM817 1593l184 289 h199v-2l-307 -287h-76z" />
<glyph unicode="&#xd4;" horiz-adv-x="1730" d="M121 715q0 313 216 530t529 217q311 0 527.5 -216t216.5 -527q0 -313 -217.5 -530.5t-530.5 -217.5q-311 0 -526 216t-215 528zM268 719q0 -258 174 -436.5t422 -178.5q246 0 422 178.5t176 432.5q0 256 -176 435t-426 179q-246 0 -419 -178t-173 -432zM532 1593v2 l269 287h126l269 -287v-2h-84l-248 184l-248 -184h-84z" />
<glyph unicode="&#xd5;" horiz-adv-x="1730" d="M121 715q0 313 216 530t529 217q311 0 527.5 -216t216.5 -527q0 -313 -217.5 -530.5t-530.5 -217.5q-311 0 -526 216t-215 528zM268 719q0 -258 174 -436.5t422 -178.5q246 0 422 178.5t176 432.5q0 256 -176 435t-426 179q-246 0 -419 -178t-173 -432zM475 1628 q84 141 130 186t103 45q27 0 64 -16.5t117 -67.5q68 -43 96.5 -56t46.5 -13q31 0 59.5 28.5t98.5 133.5l63 -43q-84 -141 -130 -186.5t-103 -45.5q-27 0 -64 16.5t-117 67.5q-68 43 -96.5 56.5t-46.5 13.5q-31 0 -59.5 -29t-98.5 -133z" />
<glyph unicode="&#xd6;" horiz-adv-x="1730" d="M121 715q0 313 216 530t529 217q311 0 527.5 -216t216.5 -527q0 -313 -217.5 -530.5t-530.5 -217.5q-311 0 -526 216t-215 528zM268 719q0 -258 174 -436.5t422 -178.5q246 0 422 178.5t176 432.5q0 256 -176 435t-426 179q-246 0 -419 -178t-173 -432zM542 1696 q0 43 29 72.5t72 29.5t71.5 -29.5t28.5 -72.5t-28.5 -72t-71.5 -29t-72 28.5t-29 72.5zM985 1696q0 43 28.5 72.5t71.5 29.5t72 -29.5t29 -72.5t-29 -72t-72 -29t-71.5 28.5t-28.5 72.5z" />
<glyph unicode="&#xd7;" d="M160 356l370 365l-370 364l90 93l364 -371l365 369l88 -91l-369 -362l371 -365l-90 -92l-365 373l-366 -373z" />
<glyph unicode="&#xd8;" horiz-adv-x="1730" d="M111 -88l231 272q-106 104 -163.5 241.5t-57.5 289.5q0 313 216 530t529 217q119 0 230.5 -35.5t208.5 -105.5l168 201h147l-231 -273q106 -102 163.5 -240t57.5 -290q0 -313 -217 -530.5t-531 -217.5q-117 0 -228.5 36t-207.5 106l-170 -201h-145zM264 713 q0 -123 43 -233.5t123 -196.5l789 940q-76 53 -166.5 81.5t-186.5 28.5q-252 0 -427 -180t-175 -440zM512 211q76 -53 166 -82t184 -29q252 0 428 180.5t176 440.5q0 123 -43 233.5t-123 196.5z" />
<glyph unicode="&#xd9;" horiz-adv-x="1605" d="M197 604v830h143v-834q0 -229 125 -360t342 -131q215 0 339 131t124 364v830h139v-828q0 -293 -162.5 -462t-443.5 -169t-443.5 169t-162.5 460zM469 1870v2h199l184 -289h-76z" />
<glyph unicode="&#xda;" horiz-adv-x="1605" d="M197 604v830h143v-834q0 -229 125 -360t342 -131q215 0 339 131t124 364v830h139v-828q0 -293 -162.5 -462t-443.5 -169t-443.5 169t-162.5 460zM758 1583l184 289h199v-2l-307 -287h-76z" />
<glyph unicode="&#xdb;" horiz-adv-x="1605" d="M197 604v830h143v-834q0 -229 125 -360t342 -131q215 0 339 131t124 364v830h139v-828q0 -293 -162.5 -462t-443.5 -169t-443.5 169t-162.5 460zM473 1583v2l269 287h126l269 -287v-2h-84l-248 184l-248 -184h-84z" />
<glyph unicode="&#xdc;" horiz-adv-x="1605" d="M197 604v830h143v-834q0 -229 125 -360t342 -131q215 0 339 131t124 364v830h139v-828q0 -293 -162.5 -462t-443.5 -169t-443.5 169t-162.5 460zM483 1686q0 43 29 72.5t72 29.5t71.5 -29.5t28.5 -72.5t-28.5 -72t-71.5 -29t-72 28.5t-29 72.5zM926 1686q0 43 28.5 72.5 t71.5 29.5t72 -29.5t29 -72.5t-29 -72t-72 -29t-71.5 28.5t-28.5 72.5z" />
<glyph unicode="&#xdd;" horiz-adv-x="1351" d="M39 1434h172l469 -656l467 656h166l-563 -781v-653h-144v649zM629 1583l184 289h199v-2l-307 -287h-76z" />
<glyph unicode="&#xde;" horiz-adv-x="1214" d="M215 0v1434h143v-273h281q215 0 345 -113.5t130 -306.5q0 -199 -138 -317.5t-364 -118.5h-254v-305h-143zM358 434h258q160 0 256.5 81t96.5 220q0 135 -92.5 216t-245.5 81h-273v-598z" />
<glyph unicode="&#xdf;" horiz-adv-x="1310" d="M84 893v119h184v98q0 197 110.5 315.5t297.5 118.5q168 0 277.5 -104.5t109.5 -261.5q0 -117 -57.5 -211.5t-192.5 -194.5q215 -70 310.5 -172t95.5 -260t-107.5 -258t-273.5 -100q-70 0 -124.5 12t-121.5 43l-25 149l4 2q78 -47 139.5 -66.5t127.5 -19.5q104 0 173.5 67 t69.5 167q0 135 -114.5 227t-352.5 146l-14 43q188 123 256 213t68 198q0 111 -72 183.5t-182 72.5q-121 0 -192.5 -84t-71.5 -221v-1114h-138v893h-184z" />
<glyph unicode="&#xe0;" horiz-adv-x="1150" d="M111 248q0 174 180 258t553 92v25q0 137 -66.5 210.5t-191.5 73.5q-90 0 -182.5 -36.5t-188.5 -110.5l-4 2l29 156q88 59 177 86.5t187 27.5q178 0 276.5 -104.5t98.5 -296.5v-608l-135 -37v192q-125 -102 -229.5 -149t-204.5 -47q-131 0 -215 73.5t-84 192.5zM246 254 q0 -70 52 -113t136 -43q80 0 179.5 42t230.5 130v234q-303 -14 -450.5 -74.5t-147.5 -175.5zM260 1550v2h183l186 -331h-68z" />
<glyph unicode="&#xe1;" horiz-adv-x="1150" d="M111 248q0 174 180 258t553 92v25q0 137 -66.5 210.5t-191.5 73.5q-90 0 -182.5 -36.5t-188.5 -110.5l-4 2l29 156q88 59 177 86.5t187 27.5q178 0 276.5 -104.5t98.5 -296.5v-608l-135 -37v192q-125 -102 -229.5 -149t-204.5 -47q-131 0 -215 73.5t-84 192.5zM246 254 q0 -70 52 -113t136 -43q80 0 179.5 42t230.5 130v234q-303 -14 -450.5 -74.5t-147.5 -175.5zM547 1221l186 331h183v-2l-301 -329h-68z" />
<glyph unicode="&#xe2;" horiz-adv-x="1150" d="M111 248q0 174 180 258t553 92v25q0 137 -66.5 210.5t-191.5 73.5q-90 0 -182.5 -36.5t-188.5 -110.5l-4 2l29 156q88 59 177 86.5t187 27.5q178 0 276.5 -104.5t98.5 -296.5v-608l-135 -37v192q-125 -102 -229.5 -149t-204.5 -47q-131 0 -215 73.5t-84 192.5zM246 254 q0 -70 52 -113t136 -43q80 0 179.5 42t230.5 130v234q-303 -14 -450.5 -74.5t-147.5 -175.5zM266 1221v2l259 329h126l259 -329v-2h-70l-252 217l-250 -217h-72z" />
<glyph unicode="&#xe3;" horiz-adv-x="1150" d="M111 248q0 174 180 258t553 92v25q0 137 -66.5 210.5t-191.5 73.5q-90 0 -182.5 -36.5t-188.5 -110.5l-4 2l29 156q88 59 177 86.5t187 27.5q178 0 276.5 -104.5t98.5 -296.5v-608l-135 -37v192q-125 -102 -229.5 -149t-204.5 -47q-131 0 -215 73.5t-84 192.5zM195 1257 q84 160 131 210.5t106 50.5q29 0 67 -20t118 -79q66 -47 92 -61.5t45 -14.5q29 0 57.5 32t100.5 153l69 -41q-86 -162 -133 -212t-104 -50q-29 0 -67 19.5t-118 78.5q-66 47 -92 61.5t-45 14.5q-31 0 -59.5 -32t-98.5 -150zM246 254q0 -70 52 -113t136 -43q80 0 179.5 42 t230.5 130v234q-303 -14 -450.5 -74.5t-147.5 -175.5z" />
<glyph unicode="&#xe4;" horiz-adv-x="1150" d="M111 248q0 174 180 258t553 92v25q0 137 -66.5 210.5t-191.5 73.5q-90 0 -182.5 -36.5t-188.5 -110.5l-4 2l29 156q88 59 177 86.5t187 27.5q178 0 276.5 -104.5t98.5 -296.5v-608l-135 -37v192q-125 -102 -229.5 -149t-204.5 -47q-131 0 -215 73.5t-84 192.5zM246 254 q0 -70 52 -113t136 -43q80 0 179.5 42t230.5 130v234q-303 -14 -450.5 -74.5t-147.5 -175.5zM277 1327q0 41 29.5 70.5t70.5 29.5t70.5 -29.5t29.5 -70.5t-29.5 -70.5t-70.5 -29.5t-70.5 29.5t-29.5 70.5zM699 1327q0 41 29.5 70.5t70.5 29.5t70.5 -29.5t29.5 -70.5 t-29.5 -70.5t-70.5 -29.5t-70.5 29.5t-29.5 70.5z" />
<glyph unicode="&#xe5;" horiz-adv-x="1150" d="M111 248q0 174 180 258t553 92v25q0 137 -66.5 210.5t-191.5 73.5q-90 0 -182.5 -36.5t-188.5 -110.5l-4 2l29 156q88 59 177 86.5t187 27.5q178 0 276.5 -104.5t98.5 -296.5v-608l-135 -37v192q-125 -102 -229.5 -149t-204.5 -47q-131 0 -215 73.5t-84 192.5zM246 254 q0 -70 52 -113t136 -43q80 0 179.5 42t230.5 130v234q-303 -14 -450.5 -74.5t-147.5 -175.5zM334 1468q0 106 74 180t180 74t180 -73.5t74 -180.5q0 -104 -74 -177.5t-180 -73.5t-180 73.5t-74 177.5zM408 1468q0 -78 52 -131t128 -53t128 53.5t52 130.5q0 78 -52 132.5 t-128 54.5t-128 -54.5t-52 -132.5z" />
<glyph unicode="&#xe6;" horiz-adv-x="1863" d="M111 248q0 172 178 257t545 93v35q0 133 -63.5 203.5t-184.5 70.5q-90 0 -182.5 -36.5t-188.5 -110.5l-4 2l29 156q88 59 177 86.5t187 27.5q123 0 206 -50t122 -146q70 98 168 151t213 53q205 0 327.5 -145t122.5 -375q0 -14 -1 -32.5t-3 -36.5h-790 q16 -162 119.5 -255.5t265.5 -93.5q88 0 182 32t186 93l4 -2l-49 -151q-86 -51 -165.5 -74t-170.5 -23q-141 0 -252.5 58.5t-177.5 167.5q-141 -115 -261 -168t-230 -53q-137 0 -223 72.5t-86 193.5zM246 254q0 -70 53 -113t135 -43q84 0 192.5 49.5t241.5 145.5 q-16 49 -25 102.5t-9 108.5q-299 -14 -443.5 -74.5t-144.5 -175.5zM965 555h661q-8 168 -94 266.5t-227 98.5q-139 0 -233.5 -103.5t-106.5 -261.5z" />
<glyph unicode="&#xe7;" horiz-adv-x="1101" d="M100 504q0 225 151.5 378.5t379.5 153.5q100 0 186 -31.5t162 -95.5v-166h-4q-86 86 -171 127t-175 41q-166 0 -278.5 -117.5t-112.5 -285.5q0 -178 107.5 -293t272.5 -115q90 0 187.5 41t187.5 117l6 -2l-26 -158q-80 -57 -163 -86.5t-169 -36.5l-59 -94h20 q90 0 139.5 -34t49.5 -97q0 -70 -63.5 -113t-170.5 -43q-37 0 -69.5 4.5t-65.5 14.5l-43 82l4 4q45 -16 83 -23.5t79 -7.5q66 0 102.5 20.5t36.5 57.5q0 31 -28.5 47.5t-82.5 16.5q-25 0 -46 -2.5t-72 -12.5l-6 8l104 177q-203 20 -328 164.5t-125 359.5z" />
<glyph unicode="&#xe8;" horiz-adv-x="1142" d="M98 508q0 223 139.5 377.5t348.5 154.5q207 0 331.5 -145t124.5 -375q0 -14 -1 -32.5t-3 -36.5h-800q18 -164 121.5 -256.5t269.5 -92.5q88 0 184 33t188 92l5 -2l-50 -151q-86 -51 -167.5 -74t-174.5 -23q-233 0 -374.5 144.5t-141.5 386.5zM233 555h672 q-8 168 -95 266.5t-230 98.5q-141 0 -238.5 -103.5t-108.5 -261.5zM262 1556v2h183l186 -331h-68z" />
<glyph unicode="&#xe9;" horiz-adv-x="1142" d="M98 508q0 223 139.5 377.5t348.5 154.5q207 0 331.5 -145t124.5 -375q0 -14 -1 -32.5t-3 -36.5h-800q18 -164 121.5 -256.5t269.5 -92.5q88 0 184 33t188 92l5 -2l-50 -151q-86 -51 -167.5 -74t-174.5 -23q-233 0 -374.5 144.5t-141.5 386.5zM233 555h672 q-8 168 -95 266.5t-230 98.5q-141 0 -238.5 -103.5t-108.5 -261.5zM549 1227l186 331h183v-2l-301 -329h-68z" />
<glyph unicode="&#xea;" horiz-adv-x="1142" d="M98 508q0 223 139.5 377.5t348.5 154.5q207 0 331.5 -145t124.5 -375q0 -14 -1 -32.5t-3 -36.5h-800q18 -164 121.5 -256.5t269.5 -92.5q88 0 184 33t188 92l5 -2l-50 -151q-86 -51 -167.5 -74t-174.5 -23q-233 0 -374.5 144.5t-141.5 386.5zM233 555h672 q-8 168 -95 266.5t-230 98.5q-141 0 -238.5 -103.5t-108.5 -261.5zM268 1227v2l259 329h126l259 -329v-2h-70l-252 217l-250 -217h-72z" />
<glyph unicode="&#xeb;" horiz-adv-x="1142" d="M98 508q0 223 139.5 377.5t348.5 154.5q207 0 331.5 -145t124.5 -375q0 -14 -1 -32.5t-3 -36.5h-800q18 -164 121.5 -256.5t269.5 -92.5q88 0 184 33t188 92l5 -2l-50 -151q-86 -51 -167.5 -74t-174.5 -23q-233 0 -374.5 144.5t-141.5 386.5zM233 555h672 q-8 168 -95 266.5t-230 98.5q-141 0 -238.5 -103.5t-108.5 -261.5zM279 1333q0 41 29.5 70.5t70.5 29.5t70.5 -29.5t29.5 -70.5t-29.5 -70.5t-70.5 -29.5t-70.5 29.5t-29.5 70.5zM701 1333q0 41 29.5 70.5t70.5 29.5t70.5 -29.5t29.5 -70.5t-29.5 -70.5t-70.5 -29.5 t-70.5 29.5t-29.5 70.5z" />
<glyph unicode="&#xec;" horiz-adv-x="526" d="M-64 1550v2h183l186 -331h-68zM195 0v1012h137v-1012h-137z" />
<glyph unicode="&#xed;" horiz-adv-x="526" d="M195 0v1012h137v-1012h-137zM223 1221l186 331h183v-2l-301 -329h-68z" />
<glyph unicode="&#xee;" horiz-adv-x="526" d="M-58 1221v2l259 329h126l259 -329v-2h-70l-252 217l-250 -217h-72zM195 0v1012h137v-1012h-137z" />
<glyph unicode="&#xef;" horiz-adv-x="526" d="M-47 1327q0 41 29.5 70.5t70.5 29.5t70.5 -29.5t29.5 -70.5t-29.5 -70.5t-70.5 -29.5t-70.5 29.5t-29.5 70.5zM195 0v1012h137v-1012h-137zM375 1327q0 41 29.5 70.5t70.5 29.5t70.5 -29.5t29.5 -70.5t-29.5 -70.5t-70.5 -29.5t-70.5 29.5t-29.5 70.5z" />
<glyph unicode="&#xf0;" horiz-adv-x="1234" d="M98 457q0 203 140.5 346t345.5 143q117 0 213 -45t168 -133q-41 129 -128 247t-233 238l-147 -149l-72 63l145 146q-41 33 -87 66.5t-99 70.5l74 96q53 -37 104 -72.5t96 -72.5l144 145l72 -63l-144 -142q215 -190 319.5 -388.5t104.5 -426.5q0 -137 -36.5 -236 t-116.5 -179q-68 -68 -161 -104t-200 -36q-215 0 -358.5 141.5t-143.5 344.5zM238 461q0 -158 103 -263.5t259 -105.5q164 0 270.5 107.5t106.5 271.5q0 156 -103.5 256t-267.5 100q-160 0 -264 -104.5t-104 -261.5z" />
<glyph unicode="&#xf1;" horiz-adv-x="1234" d="M184 0v989l138 37v-221q90 121 182 175t201 54q164 0 262 -107.5t98 -291.5v-635h-135v623q0 135 -68.5 211.5t-189.5 76.5q-90 0 -170 -49t-180 -164v-698h-138zM234 1257q84 160 131 210.5t106 50.5q29 0 67 -20t118 -79q66 -47 92 -61.5t45 -14.5q29 0 57.5 32 t100.5 153l69 -41q-86 -162 -133 -212t-104 -50q-29 0 -67 19.5t-118 78.5q-66 47 -92 61.5t-45 14.5q-31 0 -59.5 -32t-98.5 -150z" />
<glyph unicode="&#xf2;" horiz-adv-x="1261" d="M98 504q0 223 152.5 379.5t382.5 156.5q229 0 378.5 -154.5t149.5 -377.5t-152.5 -380t-381.5 -157q-227 0 -378 156t-151 377zM238 506q0 -176 111.5 -295t279.5 -119q170 0 282.5 120t112.5 294q0 176 -111.5 294t-281.5 118t-281.5 -118t-111.5 -294zM303 1556v2h183 l186 -331h-68z" />
<glyph unicode="&#xf3;" horiz-adv-x="1261" d="M98 504q0 223 152.5 379.5t382.5 156.5q229 0 378.5 -154.5t149.5 -377.5t-152.5 -380t-381.5 -157q-227 0 -378 156t-151 377zM238 506q0 -176 111.5 -295t279.5 -119q170 0 282.5 120t112.5 294q0 176 -111.5 294t-281.5 118t-281.5 -118t-111.5 -294zM590 1227 l186 331h183v-2l-301 -329h-68z" />
<glyph unicode="&#xf4;" horiz-adv-x="1261" d="M98 504q0 223 152.5 379.5t382.5 156.5q229 0 378.5 -154.5t149.5 -377.5t-152.5 -380t-381.5 -157q-227 0 -378 156t-151 377zM238 506q0 -176 111.5 -295t279.5 -119q170 0 282.5 120t112.5 294q0 176 -111.5 294t-281.5 118t-281.5 -118t-111.5 -294zM309 1227v2 l259 329h126l259 -329v-2h-70l-252 217l-250 -217h-72z" />
<glyph unicode="&#xf5;" horiz-adv-x="1261" d="M98 504q0 223 152.5 379.5t382.5 156.5q229 0 378.5 -154.5t149.5 -377.5t-152.5 -380t-381.5 -157q-227 0 -378 156t-151 377zM238 506q0 -176 111.5 -295t279.5 -119q170 0 282.5 120t112.5 294q0 176 -111.5 294t-281.5 118t-281.5 -118t-111.5 -294zM238 1263 q84 160 131 210.5t106 50.5q29 0 67 -20t118 -79q66 -47 92 -61.5t45 -14.5q29 0 57.5 32t100.5 153l69 -41q-86 -162 -133 -212t-104 -50q-29 0 -67 19.5t-118 78.5q-66 47 -92 61.5t-45 14.5q-31 0 -59.5 -32t-98.5 -150z" />
<glyph unicode="&#xf6;" horiz-adv-x="1261" d="M98 504q0 223 152.5 379.5t382.5 156.5q229 0 378.5 -154.5t149.5 -377.5t-152.5 -380t-381.5 -157q-227 0 -378 156t-151 377zM238 506q0 -176 111.5 -295t279.5 -119q170 0 282.5 120t112.5 294q0 176 -111.5 294t-281.5 118t-281.5 -118t-111.5 -294zM320 1333 q0 41 29.5 70.5t70.5 29.5t70.5 -29.5t29.5 -70.5t-29.5 -70.5t-70.5 -29.5t-70.5 29.5t-29.5 70.5zM742 1333q0 41 29.5 70.5t70.5 29.5t70.5 -29.5t29.5 -70.5t-29.5 -70.5t-70.5 -29.5t-70.5 29.5t-29.5 70.5z" />
<glyph unicode="&#xf7;" d="M102 659v121h1024v-121h-1024zM506 301q0 45 31.5 77t76.5 32t77 -32t32 -77t-32 -76.5t-77 -31.5t-76.5 31.5t-31.5 76.5zM506 1135q0 45 31.5 77.5t76.5 32.5t77 -32.5t32 -77.5t-32 -77t-77 -32t-76.5 32t-31.5 77z" />
<glyph unicode="&#xf8;" horiz-adv-x="1261" d="M82 -96l174 217q-76 76 -117 176t-41 207q0 223 152.5 379.5t382.5 156.5q80 0 152.5 -20.5t136.5 -61.5l118 150h140l-174 -217q74 -76 114.5 -176.5t40.5 -206.5q0 -223 -152.5 -380t-381.5 -157q-78 0 -151 20.5t-136 61.5l-119 -149h-139zM233 500q0 -80 27 -154 t76 -129l510 645q-45 29 -98.5 44.5t-110.5 15.5q-176 0 -290 -120t-114 -302zM416 147q47 -29 100.5 -44t108.5 -15q174 0 288.5 121t114.5 303q0 80 -26.5 153.5t-75.5 129.5z" />
<glyph unicode="&#xf9;" horiz-adv-x="1234" d="M170 377v635h135v-625q0 -135 68.5 -211t189.5 -76q88 0 170 49.5t180 163.5v699h136v-1012h-136v209q-90 -121 -181 -176.5t-202 -55.5q-164 0 -262 108t-98 292zM282 1550v2h183l186 -331h-68z" />
<glyph unicode="&#xfa;" horiz-adv-x="1234" d="M170 377v635h135v-625q0 -135 68.5 -211t189.5 -76q88 0 170 49.5t180 163.5v699h136v-1012h-136v209q-90 -121 -181 -176.5t-202 -55.5q-164 0 -262 108t-98 292zM569 1221l186 331h183v-2l-301 -329h-68z" />
<glyph unicode="&#xfb;" horiz-adv-x="1234" d="M170 377v635h135v-625q0 -135 68.5 -211t189.5 -76q88 0 170 49.5t180 163.5v699h136v-1012h-136v209q-90 -121 -181 -176.5t-202 -55.5q-164 0 -262 108t-98 292zM288 1221v2l259 329h126l259 -329v-2h-70l-252 217l-250 -217h-72z" />
<glyph unicode="&#xfc;" horiz-adv-x="1234" d="M170 377v635h135v-625q0 -135 68.5 -211t189.5 -76q88 0 170 49.5t180 163.5v699h136v-1012h-136v209q-90 -121 -181 -176.5t-202 -55.5q-164 0 -262 108t-98 292zM299 1327q0 41 29.5 70.5t70.5 29.5t70.5 -29.5t29.5 -70.5t-29.5 -70.5t-70.5 -29.5t-70.5 29.5 t-29.5 70.5zM721 1327q0 41 29.5 70.5t70.5 29.5t70.5 -29.5t29.5 -70.5t-29.5 -70.5t-70.5 -29.5t-70.5 29.5t-29.5 70.5z" />
<glyph unicode="&#xfd;" horiz-adv-x="1091" d="M43 -211l4 4q47 -31 87 -44t81 -13q78 2 133 51t98 156l48 106l-441 963h150l360 -813l332 813h149l-473 -1112q-61 -150 -143 -219.5t-195 -71.5q-41 0 -80.5 10t-82.5 33zM502 1221l186 331h183v-2l-301 -329h-68z" />
<glyph unicode="&#xfe;" horiz-adv-x="1271" d="M190 -385v1880l136 51v-694q94 96 182 138t192 42q197 0 333 -145.5t136 -364.5q0 -231 -147.5 -384.5t-359.5 -153.5q-88 0 -170 30.5t-166 96.5v-498zM326 223q86 -63 161.5 -92t155.5 -29q166 0 277.5 118t111.5 294q0 172 -105.5 283.5t-258.5 111.5 q-86 0 -168 -36.5t-174 -118.5v-531z" />
<glyph unicode="&#xff;" horiz-adv-x="1091" d="M43 -211l4 4q47 -31 87 -44t81 -13q78 2 133 51t98 156l48 106l-441 963h150l360 -813l332 813h149l-473 -1112q-61 -150 -143 -219.5t-195 -71.5q-41 0 -80.5 10t-82.5 33zM232 1327q0 41 29.5 70.5t70.5 29.5t70.5 -29.5t29.5 -70.5t-29.5 -70.5t-70.5 -29.5 t-70.5 29.5t-29.5 70.5zM654 1327q0 41 29.5 70.5t70.5 29.5t70.5 -29.5t29.5 -70.5t-29.5 -70.5t-70.5 -29.5t-70.5 29.5t-29.5 70.5z" />
<glyph unicode="&#x152;" horiz-adv-x="2017" d="M123 713q0 324 224 522.5t581 198.5h923l47 -131h-688v-508h584v-131h-584v-533h695l-47 -131h-930q-367 0 -586 193.5t-219 519.5zM268 717q0 -270 181.5 -428t482.5 -158h135v1172h-143q-289 0 -472.5 -162t-183.5 -424z" />
<glyph unicode="&#x153;" horiz-adv-x="2043" d="M98 504q0 223 148.5 379.5t371.5 156.5q147 0 266.5 -72.5t184.5 -201.5q61 129 173 201.5t251 72.5q205 0 328 -145t123 -375q0 -14 -1 -32.5t-4 -36.5h-800q18 -164 121.5 -256.5t269.5 -92.5q88 0 184 33t189 92l4 -2l-47 -151q-88 -51 -168 -74t-170 -23 q-158 0 -276 70t-179 197q-70 -127 -189.5 -200t-265.5 -73q-221 0 -367.5 155t-146.5 378zM238 506q0 -178 108.5 -296t271.5 -118q166 0 276 120t110 294q0 176 -109 294t-274 118q-166 0 -274.5 -119t-108.5 -293zM1135 555h671q-8 168 -95 266.5t-230 98.5 q-141 0 -238.5 -103.5t-107.5 -261.5z" />
<glyph unicode="&#x178;" horiz-adv-x="1351" d="M39 1434h172l469 -656l467 656h166l-563 -781v-653h-144v649zM354 1686q0 43 29 72.5t72 29.5t71.5 -29.5t28.5 -72.5t-28.5 -72t-71.5 -29t-72 28.5t-29 72.5zM797 1686q0 43 28.5 72.5t71.5 29.5t72 -29.5t29 -72.5t-29 -72t-72 -29t-71.5 28.5t-28.5 72.5z" />
<glyph unicode="&#x2c6;" horiz-adv-x="1024" d="M190 1221v2l259 329h126l259 -329v-2h-70l-252 217l-250 -217h-72z" />
<glyph unicode="&#x2dc;" horiz-adv-x="1024" d="M119 1257q84 160 131 210.5t106 50.5q29 0 67 -20t118 -79q66 -47 92 -61.5t45 -14.5q29 0 57.5 32t100.5 153l69 -41q-86 -162 -133 -212t-104 -50q-29 0 -67 19.5t-118 78.5q-66 47 -92 61.5t-45 14.5q-31 0 -59.5 -32t-98.5 -150z" />
<glyph unicode="&#x2000;" horiz-adv-x="941" />
<glyph unicode="&#x2001;" horiz-adv-x="1882" />
<glyph unicode="&#x2002;" horiz-adv-x="941" />
<glyph unicode="&#x2003;" horiz-adv-x="1882" />
<glyph unicode="&#x2004;" horiz-adv-x="627" />
<glyph unicode="&#x2005;" horiz-adv-x="470" />
<glyph unicode="&#x2006;" horiz-adv-x="313" />
<glyph unicode="&#x2007;" horiz-adv-x="313" />
<glyph unicode="&#x2008;" horiz-adv-x="235" />
<glyph unicode="&#x2009;" horiz-adv-x="376" />
<glyph unicode="&#x200a;" horiz-adv-x="104" />
<glyph unicode="&#x2010;" horiz-adv-x="759" d="M123 492v129h512v-129h-512z" />
<glyph unicode="&#x2011;" horiz-adv-x="759" d="M123 492v129h512v-129h-512z" />
<glyph unicode="&#x2012;" horiz-adv-x="759" d="M123 492v129h512v-129h-512z" />
<glyph unicode="&#x2013;" horiz-adv-x="1116" d="M123 494v124h868v-124h-868z" />
<glyph unicode="&#x2014;" horiz-adv-x="1894" d="M123 494v124h1646v-124h-1646z" />
<glyph unicode="&#x2018;" horiz-adv-x="411" d="M80 1098q0 63 38 130.5t181 219.5l47 -37q-76 -104 -107.5 -171t-31.5 -120q0 -49 20.5 -97t96.5 -163h-148q-55 80 -75.5 132t-20.5 106z" />
<glyph unicode="&#x2019;" horiz-adv-x="411" d="M63 883q74 98 107 168t33 125q0 49 -20.5 97t-96.5 161h150q53 -78 73.5 -130.5t20.5 -107.5q0 -45 -18.5 -91t-59.5 -99q-14 -18 -31.5 -40t-107.5 -120z" />
<glyph unicode="&#x201a;" horiz-adv-x="385" d="M40 -323q74 98 107 168t33 125q0 49 -20.5 97t-96.5 161h150q53 -78 73.5 -130.5t20.5 -107.5q0 -45 -18.5 -91t-59.5 -99q-14 -18 -31.5 -40t-107.5 -120z" />
<glyph unicode="&#x201c;" horiz-adv-x="780" d="M80 1098q0 63 38 130.5t181 219.5l47 -37q-76 -104 -107.5 -171t-31.5 -120q0 -49 20.5 -97t96.5 -163h-148q-55 80 -75.5 132t-20.5 106zM451 1098q0 63 37.5 130.5t181.5 219.5l47 -37q-74 -98 -106.5 -167t-32.5 -124q0 -49 20 -97t96 -163h-149q-53 82 -73.5 133 t-20.5 105z" />
<glyph unicode="&#x201d;" horiz-adv-x="780" d="M63 883q74 98 107 168t33 125q0 49 -20.5 97t-96.5 161h150q53 -78 73.5 -130.5t20.5 -107.5q0 -45 -18.5 -91t-59.5 -99q-14 -18 -31.5 -40t-107.5 -120zM434 883q74 98 106.5 168t32.5 125q0 49 -20.5 97t-95.5 161h149q53 -78 73.5 -130.5t20.5 -107.5 q0 -59 -35.5 -124.5t-183.5 -225.5z" />
<glyph unicode="&#x201e;" horiz-adv-x="755" d="M40 -323q74 98 107 168t33 125q0 49 -20.5 97t-96.5 161h150q53 -78 73.5 -130.5t20.5 -107.5q0 -45 -18.5 -91t-59.5 -99q-14 -18 -31.5 -40t-107.5 -120zM411 -323q74 98 106.5 168t32.5 125q0 49 -20.5 97t-95.5 161h149q53 -78 73.5 -130.5t20.5 -107.5 q0 -59 -35.5 -124.5t-183.5 -225.5z" />
<glyph unicode="&#x2022;" horiz-adv-x="911" d="M219 727q0 96 70.5 167t167.5 71q98 0 166.5 -70t68.5 -168q0 -100 -68.5 -170t-166.5 -70t-168 71t-70 169z" />
<glyph unicode="&#x2026;" horiz-adv-x="1110" d="M78 90q0 43 30.5 74t73.5 31t74 -31t31 -74t-31 -73.5t-74 -30.5t-73.5 30.5t-30.5 73.5zM451 90q0 43 30.5 74t73.5 31t73.5 -31t30.5 -74t-30.5 -73.5t-73.5 -30.5t-73.5 30.5t-30.5 73.5zM821 90q0 43 31 74t74 31t73.5 -31t30.5 -74t-30.5 -73.5t-73.5 -30.5 t-74 30.5t-31 73.5z" />
<glyph unicode="&#x202f;" horiz-adv-x="376" />
<glyph unicode="&#x2039;" horiz-adv-x="788" d="M111 494v24l485 508l53 -31l-377 -487l377 -492l-53 -30z" />
<glyph unicode="&#x203a;" horiz-adv-x="788" d="M139 16l377 488l-377 491l54 31l485 -508v-24l-485 -508z" />
<glyph unicode="&#x205f;" horiz-adv-x="470" />
<glyph unicode="&#x20ac;" horiz-adv-x="1370" d="M66 512v94h219q-2 41 -3 64.5t-1 44.5q0 31 1 60.5t5 58.5h-221v94h235q49 246 202.5 388t373.5 142q100 0 186 -22.5t180 -73.5v-150h-4q-111 68 -188.5 93.5t-165.5 25.5q-166 0 -284 -106.5t-159 -296.5h615v-94h-631q-2 -27 -4 -56.5t-2 -58.5t2 -57.5t4 -55.5h631 v-94h-617q41 -193 157 -301.5t280 -108.5q98 0 180 26t184 89h4l-20 -151q-92 -51 -170 -71t-185 -20q-225 0 -376.5 142.5t-196.5 394.5h-231z" />
<glyph unicode="&#x2122;" horiz-adv-x="2070" d="M51 1339v95h742v-95h-320v-712h-102v712h-320zM950 629v805h152l330 -635l329 635h152v-805h-103v690l-370 -703h-21l-368 703v-690h-101z" />
<glyph unicode="&#x25fc;" horiz-adv-x="1013" d="M0 0v1014h1014v-1014h-1014z" />
<glyph unicode="&#xfb03;" horiz-adv-x="2091" d="M84 893v119h184v188q0 160 85 252t233 92q47 0 88 -10t82 -33l24 -141l-4 -2q-57 35 -98 48t-86 13q-86 0 -136 -57t-50 -156v-194h344v-119h-344v-893h-138v893h-184zM866 893v119h184v188q0 160 85 252t233 92q47 0 88 -10t82 -33l24 -141l-4 -2q-57 35 -98 48t-86 13 q-86 0 -136 -57t-50 -156v-194h344v-119h-344v-893h-138v893h-184zM1729 1372q0 41 29.5 71t70.5 30t69.5 -30t28.5 -71q0 -43 -28.5 -71.5t-71.5 -28.5q-41 0 -69.5 29.5t-28.5 70.5zM1760 0v1012h137v-1012h-137z" />
<glyph unicode="&#xfb04;" horiz-adv-x="2091" d="M84 893v119h184v188q0 160 85 252t233 92q47 0 88 -10t82 -33l24 -141l-4 -2q-57 35 -98 48t-86 13q-86 0 -136 -57t-50 -156v-194h344v-119h-344v-893h-138v893h-184zM866 893v119h184v188q0 160 85 252t233 92q47 0 88 -10t82 -33l24 -141l-4 -2q-57 35 -98 48t-86 13 q-86 0 -136 -57t-50 -156v-194h344v-119h-344v-893h-138v893h-184zM1760 0v1495l137 51v-1546h-137z" />
</font>
</defs>
</svg>
