<?xml version="1.0" standalone="no"?>
<!DOCTYPE svg PUBLIC "-//W3C//DTD SVG 1.1//EN" "http://www.w3.org/Graphics/SVG/1.1/DTD/svg11.dtd" >
<svg xmlns="http://www.w3.org/2000/svg">
<metadata></metadata>
<defs>
<font id="mallory_lightitalic" horiz-adv-x="1228" >
<font-face units-per-em="2048" ascent="1638" descent="-410" />
<missing-glyph horiz-adv-x="446" />
<glyph unicode="&#xfb01;" horiz-adv-x="1302" d="M143 0l222 893h-185l29 119h184l53 213q39 156 135.5 237.5t237.5 81.5q45 0 86 -10t72 -29l31 -141l-4 -4q-41 31 -85.5 45t-97.5 14q-94 0 -156.5 -58t-91.5 -171l-43 -178h344l-28 -119h-344l-223 -893h-136zM850 0l249 1012h138l-252 -1012h-135zM1153 1372 q0 41 29.5 71t70.5 30t69.5 -30t28.5 -71q0 -43 -28.5 -71.5t-71.5 -28.5q-41 0 -69.5 29.5t-28.5 70.5z" />
<glyph unicode="&#xfb02;" horiz-adv-x="1302" d="M143 0l222 893h-185l29 119h184l53 213q39 156 135.5 237.5t237.5 81.5q45 0 86 -10t72 -29l31 -141l-4 -4q-41 31 -85.5 45t-97.5 14q-94 0 -156.5 -58t-91.5 -171l-43 -178h344l-28 -119h-344l-223 -893h-136zM850 0l370 1493l150 53l-385 -1546h-135z" />
<glyph horiz-adv-x="0" />
<glyph horiz-adv-x="0" />
<glyph horiz-adv-x="682" />
<glyph unicode="&#xd;" horiz-adv-x="681" />
<glyph unicode=" "  horiz-adv-x="446" />
<glyph unicode="&#x09;" horiz-adv-x="446" />
<glyph unicode="&#xa0;" horiz-adv-x="446" />
<glyph unicode="!" horiz-adv-x="514" d="M51 94q0 45 32 77t77 32t76.5 -32t31.5 -77t-31.5 -76.5t-76.5 -31.5t-77 31.5t-32 76.5zM203 418l145 741l68 275h145l-67 -275l-230 -741h-61z" />
<glyph unicode="&#x22;" horiz-adv-x="854" d="M180 870l316 564h178l-438 -592zM561 870l313 564h181l-441 -592z" />
<glyph unicode="#" horiz-adv-x="1372" d="M84 385l31 127h264l104 410h-266l33 127h266l100 389h99l-101 -389h439l100 389h98l-100 -389h244l-33 -127h-244l-104 -410h246l-31 -127h-248l-100 -389h-101l101 389h-437l-100 -389h-98l100 389h-262zM477 512h436l107 410h-438z" />
<glyph unicode="$" horiz-adv-x="1204" d="M45 344l4 2q92 -90 200.5 -146.5t227.5 -72.5l137 551q-176 74 -255.5 164t-79.5 213q0 168 133 275.5t346 107.5h26.5t16.5 -2l61 250h99l-64 -261q86 -16 167 -52t148 -85l9 -147l-4 -2q-86 66 -174.5 107.5t-178.5 56.5l-131 -531q172 -76 250 -165t78 -210 q0 -180 -136.5 -290.5t-361.5 -110.5h-20l-84 -330h-99l84 340q-100 16 -196 57t-170 101zM410 1065q0 -80 55 -139.5t182 -116.5l125 504h-18q-154 0 -249 -69.5t-95 -178.5zM571 121q162 0 260.5 73.5t98.5 190.5q0 80 -54.5 140.5t-175.5 115.5z" />
<glyph unicode="%" horiz-adv-x="1916" d="M244 977q0 207 113.5 346t277.5 139q127 0 207 -91t80 -241q0 -207 -115 -346t-279 -139q-127 0 -205.5 90t-78.5 242zM322 -4l651 747l594 695h135l-649 -748l-596 -694h-135zM362 981q0 -109 46.5 -169t126.5 -60q106 0 186 110t80 264q0 106 -46 168t-126 62 q-106 0 -186.5 -110.5t-80.5 -264.5zM1104 303q0 207 113.5 346t277.5 139q129 0 208 -89.5t79 -241.5q0 -207 -115 -346.5t-278 -139.5q-127 0 -206 91.5t-79 240.5zM1223 307q0 -106 46 -167.5t126 -61.5q106 0 186 110.5t80 264.5q0 109 -46 169t-126 60 q-106 0 -186 -110.5t-80 -264.5z" />
<glyph unicode="&#x26;" horiz-adv-x="1404" d="M59 317q0 156 115 270.5t338 186.5q-35 78 -52.5 145.5t-17.5 129.5q0 182 113 297.5t291 115.5q139 0 228 -83t89 -212q0 -145 -116.5 -256.5t-356.5 -195.5q47 -84 103.5 -167t124.5 -171q74 70 153.5 158t169.5 196h154v-6q-121 -147 -219.5 -255t-184.5 -187 q68 -82 125.5 -148.5t112.5 -128.5l-2 -6h-164q-39 43 -80 90t-90 107q-133 -109 -250 -160t-233 -51q-156 0 -253.5 92t-97.5 239zM195 326q0 -98 62 -157.5t167 -59.5q90 0 187.5 44t207.5 136q-76 98 -140.5 194.5t-115.5 186.5q-188 -63 -278 -147t-90 -197zM578 1059 q0 -59 15 -119.5t46 -126.5q207 76 298 157t91 191q0 84 -52 135.5t-138 51.5q-111 0 -185.5 -82t-74.5 -207z" />
<glyph unicode="'" horiz-adv-x="473" d="M180 870l316 564h178l-438 -592z" />
<glyph unicode="(" horiz-adv-x="815" d="M182 440q0 336 195 609.5t586 486.5l34 -53q-352 -233 -518 -487.5t-166 -555.5q0 -180 61.5 -346t194.5 -340l-47 -41q-172 172 -256 352.5t-84 374.5z" />
<glyph unicode=")" horiz-adv-x="815" d="M-123 -233q352 233 518 487t166 555q0 180 -61.5 346t-194.5 340l47 41q172 -170 256 -350t84 -377q0 -336 -194.5 -609.5t-585.5 -486.5z" />
<glyph unicode="*" horiz-adv-x="1087" d="M262 1182l84 137l266 -248l-18 -24zM289 803l313 174l19 -23l-228 -272zM678 1100l22 362l154 -37l-149 -333zM686 938l27 12l194 -301l-145 -57zM750 1036l352 94l10 -159l-358 35z" />
<glyph unicode="+" d="M141 659l29 121h448l113 451h127l-113 -451h449l-29 -121h-450l-113 -454h-127l113 454h-447z" />
<glyph unicode="," horiz-adv-x="374" d="M-225 -287q113 90 169 179.5t93 232.5l14 55h142q-45 -186 -124.5 -295t-263.5 -215z" />
<glyph unicode="-" horiz-adv-x="759" d="M121 492l33 129h510l-33 -129h-510z" />
<glyph unicode="." horiz-adv-x="374" d="M-25 94q0 45 32 77t77 32t77 -32t32 -77t-32 -76.5t-77 -31.5t-77 31.5t-32 76.5z" />
<glyph unicode="/" horiz-adv-x="901" d="M-209 -266l1170 1782h131l-1170 -1782h-131z" />
<glyph unicode="0" horiz-adv-x="1353" d="M172 516q0 168 42 324.5t120 285.5q96 160 229 248t281 88q203 0 322.5 -146.5t119.5 -397.5q0 -168 -42 -325t-120 -286q-96 -160 -229 -248t-281 -88q-203 0 -322.5 146.5t-119.5 398.5zM315 514q0 -197 81 -305.5t227 -108.5q113 0 219 81t182 227q59 111 90 242.5 t31 269.5q0 197 -82 305t-227 108q-113 0 -218.5 -81t-181.5 -226q-59 -111 -90 -243t-31 -269z" />
<glyph unicode="1" horiz-adv-x="866" d="M205 973l39 162l567 321l29 -10l-359 -1446h-139l303 1223l-436 -252z" />
<glyph unicode="2" horiz-adv-x="1171" d="M8 33l651 618q174 164 242 267.5t68 199.5q0 94 -62.5 150.5t-167.5 56.5q-117 0 -227.5 -64.5t-237.5 -209.5l-4 2l15 176q98 111 215.5 168t247.5 57q162 0 262 -90t100 -236q0 -121 -81 -246.5t-281 -316.5l-467 -438h716l-102 -127h-883z" />
<glyph unicode="3" horiz-adv-x="1128" d="M47 262l4 2q86 -78 189.5 -118t216.5 -40q164 0 268 80t104 207q0 123 -108.5 197t-327.5 100l10 62q287 63 429.5 157.5t142.5 220.5q0 90 -69.5 144.5t-184.5 54.5q-111 0 -217.5 -41t-218.5 -125l-4 2l41 162q92 63 194 96t209 33q174 0 282.5 -86t108.5 -229 q0 -141 -108.5 -245.5t-319.5 -168.5q133 -39 209 -129t76 -209q0 -182 -143.5 -297t-366.5 -115q-119 0 -219.5 30t-182.5 89z" />
<glyph unicode="4" horiz-adv-x="1265" d="M39 393l1014 1051h131l-242 -971h240l-31 -117h-238l-88 -356h-133l90 356h-737zM270 473h541l184 746z" />
<glyph unicode="5" horiz-adv-x="1171" d="M61 236l5 2q94 -68 191 -102t204 -34q184 0 309 107.5t125 265.5q0 127 -88 198.5t-242 71.5q-80 0 -151.5 -13t-155.5 -42l-25 15l234 729h764l-33 -129h-643l-143 -457q47 12 94 18t96 6q197 2 315.5 -104.5t118.5 -286.5q0 -217 -164.5 -361.5t-414.5 -144.5 q-106 0 -204.5 28t-176.5 79z" />
<glyph unicode="6" horiz-adv-x="1200" d="M115 401q0 162 92 323t319 394l312 316h188l-375 -375q-37 -37 -75.5 -78t-94.5 -100q43 8 78 11t70 3q201 0 325.5 -115t124.5 -303q0 -205 -149.5 -355.5t-362.5 -150.5q-203 0 -327.5 119t-124.5 311zM256 406q0 -139 88 -225.5t229 -86.5q152 0 259.5 111.5 t107.5 265.5q0 145 -96 226t-275 81q-47 0 -92 -3t-88 -11q-72 -100 -102.5 -184t-30.5 -174z" />
<glyph unicode="7" horiz-adv-x="1144" d="M168 0l911 1307h-807l84 127h936l8 -29l-970 -1405h-162z" />
<glyph unicode="8" horiz-adv-x="1239" d="M102 348q0 147 96.5 255t264.5 149q-78 47 -121 122.5t-43 167.5q0 178 138 297t343 119q182 0 299 -103.5t117 -262.5q0 -135 -83 -236.5t-228 -146.5q94 -47 144 -129.5t50 -184.5q0 -184 -143 -302t-373 -118q-205 0 -333 103.5t-128 269.5zM242 358q0 -115 93 -187.5 t240 -72.5q160 0 263.5 86t103.5 219q0 119 -88.5 192t-235.5 73q-160 0 -268 -89.5t-108 -220.5zM438 1047q0 -117 79 -189t206 -72q143 0 239.5 84t96.5 211q0 111 -81 182.5t-210 71.5q-139 0 -234.5 -84t-95.5 -204z" />
<glyph unicode="9" horiz-adv-x="1200" d="M225 950q0 209 150.5 359.5t361.5 150.5q203 0 327 -118.5t124 -311.5q0 -164 -92.5 -324t-319.5 -391l-309 -315h-188l374 375q49 49 86 88t66 72q-33 -6 -64.5 -8.5t-64.5 -2.5q-203 0 -327 117t-124 309zM365 956q0 -150 97 -232.5t273 -82.5q41 0 83 3t85 9 q78 102 112 190.5t34 184.5q0 137 -88.5 223t-227.5 86q-150 0 -259 -112.5t-109 -268.5z" />
<glyph unicode=":" horiz-adv-x="417" d="M0 94q0 45 33 77t78 32t76.5 -32t31.5 -77t-31.5 -76.5t-76.5 -31.5t-78 31.5t-33 76.5zM201 918q0 45 31.5 76.5t76.5 31.5t77 -31.5t32 -76.5t-31 -77t-78 -32q-45 0 -76.5 31.5t-31.5 77.5z" />
<glyph unicode=";" horiz-adv-x="417" d="M-207 -287q113 90 169 179.5t91 232.5l15 55h143q-47 -186 -125 -293.5t-262 -216.5zM205 918q0 45 31.5 76.5t76.5 31.5t78 -31.5t33 -76.5t-32 -77t-79 -32q-45 0 -76.5 31.5t-31.5 77.5z" />
<glyph unicode="&#x3c;" d="M178 696l12 47l1072 494l-37 -143l-842 -385l651 -385l-30 -123z" />
<glyph unicode="=" d="M111 455l28 120h983l-28 -120h-983zM213 864l29 121h983l-29 -121h-983z" />
<glyph unicode="&#x3e;" d="M74 201l37 145l841 385l-651 383l31 123l825 -494l-12 -47z" />
<glyph unicode="?" horiz-adv-x="987" d="M231 94q0 45 32 77t77 32t78 -32t33 -77t-33 -76.5t-78 -31.5t-77 31.5t-32 76.5zM242 1118l41 174q84 76 194.5 119t222.5 43q147 0 239.5 -79t92.5 -204q0 -117 -71.5 -200.5t-249.5 -167.5q-154 -72 -209.5 -125t-55.5 -119q0 -27 8.5 -56.5t28.5 -74.5h-73 q-35 49 -52.5 92t-17.5 78q0 90 65.5 158.5t241.5 152.5q143 68 197.5 123t54.5 131q0 74 -57.5 119t-149.5 45q-109 0 -218 -52t-228 -159z" />
<glyph unicode="@" horiz-adv-x="2121" d="M135 426q0 213 84 414.5t238 357.5q156 158 354.5 243t415.5 85q369 0 592 -212t223 -560q0 -272 -137.5 -451.5t-350.5 -179.5q-104 0 -173.5 54t-77.5 142q-119 -100 -218.5 -148t-191.5 -48q-125 0 -202 83t-77 220q0 111 49.5 221.5t137.5 200.5q88 86 197.5 134 t224.5 48q61 0 123.5 -18.5t117.5 -53.5l70 58h41l-141 -598q-6 -27 -8.5 -44.5t-2.5 -33.5q0 -72 42 -112t118 -40q164 0 279.5 165t115.5 399q0 328 -204.5 522t-548.5 194q-203 0 -389.5 -80.5t-333.5 -230.5q-143 -147 -223 -337.5t-80 -389.5q0 -350 214 -549.5 t591 -199.5q158 0 296 24.5t273 77.5v-64q-147 -51 -283.5 -74.5t-290.5 -23.5q-401 0 -632.5 216t-231.5 589zM739 440q0 -96 51.5 -149t143.5 -53q74 0 167 45t210 137l106 442q-47 29 -97 42.5t-106 13.5q-188 0 -331.5 -148t-143.5 -330z" />
<glyph unicode="A" horiz-adv-x="1587" d="M-53 0l1009 1444h142l291 -1444h-144l-76 391h-790l-270 -391h-162zM467 520h678l-148 766z" />
<glyph unicode="B" horiz-adv-x="1239" d="M90 0l356 1434h365q186 0 297 -88.5t111 -237.5q0 -133 -88.5 -235.5t-241.5 -149.5q98 -43 151.5 -119t53.5 -176q0 -190 -162 -309t-422 -119h-420zM260 127h266q190 0 307 86t117 223q0 104 -78.5 169t-209.5 65h-267zM426 793h250q174 0 286.5 84t112.5 215 q0 102 -73.5 158.5t-210.5 56.5h-236z" />
<glyph unicode="C" horiz-adv-x="1478" d="M170 602q0 170 61.5 324.5t178.5 275.5q117 123 270.5 189.5t318.5 66.5q156 0 284 -61.5t230 -184.5l-32 -170h-4q-100 141 -221 212t-263 71q-133 0 -258 -57.5t-221 -161.5q-94 -100 -145.5 -228t-51.5 -266q0 -223 135.5 -363t348.5 -140q137 0 268 59t264 180l6 -4 l-84 -209q-96 -78 -218 -119t-253 -41q-270 0 -442 175.5t-172 451.5z" />
<glyph unicode="D" horiz-adv-x="1591" d="M90 0l356 1434h377q328 0 517.5 -161t189.5 -439q0 -360 -280.5 -597t-698.5 -237h-461zM266 131h281q354 0 594.5 197.5t240.5 490.5q-2 227 -154.5 355.5t-424.5 128.5h-246z" />
<glyph unicode="E" horiz-adv-x="1155" d="M90 0l356 1434h805l-32 -131h-662l-127 -508h565l-32 -131h-564l-133 -533h697l-80 -131h-793z" />
<glyph unicode="F" horiz-adv-x="1099" d="M90 0l356 1434h754l37 -131h-680l-133 -535h534l-32 -131h-535l-158 -637h-143z" />
<glyph unicode="G" horiz-adv-x="1611" d="M170 600q0 178 66.5 335t191.5 277q121 117 281.5 179.5t339.5 62.5q152 0 285.5 -41t244.5 -119l-37 -141q-113 82 -238.5 124t-261.5 42q-303 0 -514 -206t-211 -503q0 -227 135.5 -362t360.5 -135q104 0 197.5 22.5t181.5 69.5l104 391h-467l33 133h611l-160 -608 q-117 -70 -247 -105.5t-265 -35.5q-283 0 -457 171t-174 449z" />
<glyph unicode="H" horiz-adv-x="1646" d="M90 0l356 1434h144l-158 -633h928l158 633h143l-356 -1434h-144l166 668h-928l-166 -668h-143z" />
<glyph unicode="I" horiz-adv-x="593" d="M100 0l357 1434h143l-356 -1434h-144z" />
<glyph unicode="J" horiz-adv-x="925" d="M6 242l6 2q57 -66 121.5 -97.5t142.5 -31.5q94 0 159 59t93 170l271 1090h143l-278 -1123q-41 -166 -137.5 -248.5t-247.5 -82.5q-72 0 -135.5 22.5t-110.5 63.5z" />
<glyph unicode="K" horiz-adv-x="1388" d="M90 0l356 1434h144l-158 -637h72l852 637h198v-7l-954 -704l612 -717v-6h-178l-563 672h-70l-168 -672h-143z" />
<glyph unicode="L" horiz-adv-x="1069" d="M90 0l356 1434h144l-324 -1303h643l-32 -131h-787z" />
<glyph unicode="M" horiz-adv-x="2080" d="M31 0l469 1436h194l271 -1190l872 1190h209l-246 -1436h-141l219 1266l-956 -1289h-31l-303 1299l-416 -1276h-141z" />
<glyph unicode="N" horiz-adv-x="1677" d="M90 0l356 1434h134l690 -1155l284 1155h138l-357 -1442h-51l-747 1253l-310 -1245h-137z" />
<glyph unicode="O" horiz-adv-x="1712" d="M174 616q0 168 62.5 322t177.5 272q117 121 269.5 186.5t317.5 65.5q283 0 462 -179t179 -466q0 -168 -62 -321.5t-177 -272.5q-117 -121 -269.5 -186.5t-318.5 -65.5q-283 0 -462 179.5t-179 465.5zM322 621q0 -231 140 -374t365 -143q133 0 257 56.5t221 161.5 q92 100 141 227t49 264q0 231 -141.5 373.5t-366.5 142.5q-133 0 -257 -56t-218 -161q-92 -100 -141 -227t-49 -264z" />
<glyph unicode="P" horiz-adv-x="1179" d="M90 0l356 1434h340q197 0 315 -100.5t118 -270.5q0 -225 -165 -364.5t-431 -139.5h-252l-138 -559h-143zM403 688h246q182 0 303 103.5t121 257.5q0 123 -81 189.5t-228 66.5h-209z" />
<glyph unicode="Q" horiz-adv-x="1712" d="M174 616q0 168 62.5 322t177.5 272q117 121 269.5 186.5t317.5 65.5q283 0 462 -179t179 -466q0 -309 -194.5 -543.5t-486.5 -287.5q72 -98 130 -138.5t138 -40.5q49 0 95 8.5t93 26.5l2 -4l-67 -137q-35 -12 -73 -18.5t-79 -6.5q-135 0 -224 64.5t-202 232.5 q-266 12 -433 190.5t-167 452.5zM322 621q0 -231 140 -374t365 -143q133 0 257 56.5t221 161.5q92 100 141 227t49 264q0 231 -141.5 373.5t-366.5 142.5q-133 0 -257 -56t-218 -161q-92 -100 -141 -227t-49 -264z" />
<glyph unicode="R" horiz-adv-x="1263" d="M90 0l356 1434h332q197 0 310.5 -97.5t113.5 -263.5q0 -186 -133 -313t-350 -152l434 -608h-168l-422 596h-182l-148 -596h-143zM412 725h225q182 0 301 94.5t119 241.5q0 117 -78 180.5t-219 63.5h-205z" />
<glyph unicode="S" horiz-adv-x="1130" d="M41 354l4 2q113 -123 230.5 -185t236.5 -62q137 0 227 71.5t90 181.5q0 82 -48 146t-187 160q-170 117 -232.5 202.5t-62.5 198.5q0 170 127 279.5t324 109.5q98 0 192 -29.5t178 -87.5l6 -167l-4 -3q-86 76 -181 115t-198 39q-131 0 -217 -68.5t-86 -171.5 q0 -80 48.5 -143t187.5 -156q168 -111 231.5 -199.5t63.5 -207.5q0 -178 -129 -291t-332 -113q-119 0 -232.5 46.5t-195.5 125.5z" />
<glyph unicode="T" horiz-adv-x="1413" d="M264 1303l33 131h1280l-33 -131h-563l-324 -1303h-145l324 1303h-572z" />
<glyph unicode="U" horiz-adv-x="1589" d="M209 465q0 43 7 94t20 105l192 770h143l-196 -789q-10 -45 -16.5 -89t-6.5 -81q0 -168 105.5 -267t283.5 -99q195 0 335.5 122.5t195.5 346.5l213 856h139l-219 -881q-70 -281 -245 -429.5t-433 -148.5q-233 0 -375.5 134.5t-142.5 355.5z" />
<glyph unicode="V" horiz-adv-x="1558" d="M303 1434h150l245 -1196l854 1196h166l-1059 -1463h-34z" />
<glyph unicode="W" horiz-adv-x="2404" d="M317 1434h148l113 -1262l813 1272h30l226 -1270l741 1260h166l-868 -1446h-142l-201 1149l-735 -1149h-147z" />
<glyph unicode="X" horiz-adv-x="1478" d="M-43 0v4l752 733l-375 697h158l323 -607l617 607h182v-4l-731 -713l385 -717h-158l-336 629l-633 -629h-184z" />
<glyph unicode="Y" horiz-adv-x="1333" d="M270 1434h152l301 -660l625 660h176v-4l-756 -791l-158 -639h-143l162 655z" />
<glyph unicode="Z" horiz-adv-x="1417" d="M-10 25l1243 1278h-914l35 131h1149l10 -25l-1243 -1278h979l-92 -131h-1157z" />
<glyph unicode="[" horiz-adv-x="825" d="M41 -266l442 1782h482l10 -91h-387l-398 -1601h388l-52 -90h-485z" />
<glyph unicode="\" horiz-adv-x="901" d="M319 1516h113l281 -1782h-111z" />
<glyph unicode="]" horiz-adv-x="825" d="M-90 -176h387l397 1601h-385l49 91h486l-443 -1782h-481z" />
<glyph unicode="^" d="M139 686l692 799h43l295 -799h-125l-223 617l-532 -617h-150z" />
<glyph unicode="_" d="M-201 -270l27 100h1241l-25 -100h-1243z" />
<glyph unicode="`" horiz-adv-x="1024" d="M449 1552h172l108 -331h-65z" />
<glyph unicode="a" horiz-adv-x="1124" d="M45 236q0 168 150.5 259t429.5 91q57 0 114.5 -3t106.5 -10q6 27 9 56.5t3 56.5q0 102 -65.5 161.5t-180.5 59.5q-90 0 -182 -30.5t-192 -94.5l-5 2l68 160q76 43 160 65.5t172 22.5q166 0 263 -91t97 -243q0 -37 -6 -77.5t-18 -90.5l-138 -510l-145 -38l49 188 q-125 -98 -227 -143t-197 -45q-119 0 -192.5 69.5t-73.5 184.5zM180 250q0 -70 44 -111t120 -41q88 0 188.5 42t231.5 132l55 209q-47 4 -92 7.5t-88 3.5q-219 0 -339 -64.5t-120 -177.5z" />
<glyph unicode="b" horiz-adv-x="1243" d="M57 2l371 1491l150 53l-177 -704q98 98 191.5 144t195.5 46q158 0 260.5 -111.5t102.5 -287.5q0 -135 -48 -254t-140 -209q-88 -90 -205 -138t-244 -48q-84 0 -167 23.5t-157 70.5l-110 -80zM240 188q66 -45 134 -65.5t148 -20.5q195 0 343.5 153t148.5 366 q0 133 -71 210.5t-191 77.5q-90 0 -183.5 -44t-193.5 -134z" />
<glyph unicode="c" horiz-adv-x="1081" d="M96 414q0 262 177.5 442t428.5 180q98 0 189.5 -37.5t155.5 -105.5l-29 -150h-4q-66 84 -147 126t-177 42q-184 0 -319 -144t-135 -345q0 -147 85 -234.5t228 -87.5q98 0 192.5 39t182.5 115l4 -2l-72 -180q-68 -45 -154 -71t-174 -26q-193 0 -312.5 121t-119.5 318z" />
<glyph unicode="d" horiz-adv-x="1249" d="M92 379q0 133 49 253t142 214q90 88 200.5 135t227.5 47q92 0 175 -27.5t148 -80.5l142 573l149 53l-385 -1546h-135l41 168q-96 -96 -190.5 -142t-196.5 -46q-160 0 -263.5 111.5t-103.5 287.5zM229 389q0 -131 72 -209t193 -78q92 0 185 44t198 137l127 518 q-63 53 -134 79.5t-153 26.5q-195 0 -341.5 -152.5t-146.5 -365.5z" />
<glyph unicode="e" horiz-adv-x="1132" d="M96 410q0 258 174 444t410 186q166 0 269.5 -106.5t103.5 -282.5q0 -47 -7.5 -98t-21.5 -102h-793v-27q0 -152 84 -237t234 -85q92 0 185 30t181 87l3 -4l-33 -139q-80 -49 -172 -74t-191 -25q-193 0 -309.5 119t-116.5 314zM248 555h661q4 20 6.5 39.5t2.5 42.5 q0 131 -68 207t-186 76q-135 0 -255 -104.5t-161 -260.5z" />
<glyph unicode="f" horiz-adv-x="782" d="M143 0l222 893h-185l29 119h184l53 213q39 156 135.5 237.5t237.5 81.5q45 0 86 -10t72 -29l31 -141l-4 -4q-41 31 -85.5 45t-97.5 14q-94 0 -156.5 -58t-91.5 -171l-43 -178h344l-28 -119h-344l-223 -893h-136z" />
<glyph unicode="g" horiz-adv-x="1247" d="M-16 -127l4 4q96 -74 202.5 -110.5t221.5 -36.5q158 0 261 80.5t146 240.5l45 170q-100 -100 -199.5 -148t-205.5 -48q-160 0 -260.5 104t-100.5 274q0 264 184.5 444.5t448.5 180.5q88 0 169 -22.5t161 -71.5l106 80l25 -4l-246 -985q-53 -209 -187 -314.5t-349 -105.5 q-115 0 -218.5 29.5t-181.5 82.5zM236 412q0 -125 69.5 -197t190.5 -72q92 0 188 46.5t201 140.5l125 495q-70 45 -138.5 65.5t-140.5 20.5q-199 0 -347 -147t-148 -352z" />
<glyph unicode="h" horiz-adv-x="1218" d="M57 0l371 1493l150 53l-183 -729q102 111 197.5 164t191.5 53q133 0 218 -84t85 -221q0 -33 -5 -70.5t-19 -97.5l-139 -561h-136l146 588q8 33 12 61t4 53q0 96 -53 152.5t-143 56.5t-184.5 -52t-202.5 -163l-174 -696h-136z" />
<glyph unicode="i" horiz-adv-x="520" d="M68 0l249 1012h138l-252 -1012h-135zM371 1372q0 41 29.5 71t70.5 30t69.5 -30t28.5 -71q0 -43 -28.5 -71.5t-71.5 -28.5q-41 0 -69.5 29.5t-28.5 70.5z" />
<glyph unicode="j" horiz-adv-x="520" d="M-252 -252l4 4q18 -12 44 -18t57 -6q80 0 123.5 39.5t66.5 130.5l276 1114h138l-283 -1137q-35 -137 -107.5 -201.5t-195.5 -64.5q-31 0 -56.5 4t-43.5 12zM373 1372q0 41 29.5 71t70.5 30t69.5 -30t28.5 -71q0 -43 -28.5 -71.5t-71.5 -28.5q-41 0 -69.5 29.5t-28.5 70.5 z" />
<glyph unicode="k" horiz-adv-x="1067" d="M57 0l371 1493l150 53l-244 -979h67l560 445h182v-6l-645 -506l420 -496v-4h-162l-383 461h-66l-114 -461h-136z" />
<glyph unicode="l" horiz-adv-x="520" d="M68 0l370 1493l150 53l-385 -1546h-135z" />
<glyph unicode="m" horiz-adv-x="1871" d="M57 0l246 989l146 37l-50 -199q94 104 181.5 155.5t175.5 51.5q104 0 181 -58t101 -157q115 115 212.5 165t199.5 50q127 0 210 -85t83 -220q0 -33 -5 -70.5t-20 -97.5l-139 -561h-137l147 588q8 33 12.5 61.5t4.5 52.5q0 94 -52.5 151.5t-138.5 57.5q-84 0 -173 -45 t-193 -143q0 -35 -5.5 -74t-17.5 -88l-141 -561h-135l145 588q10 41 14 67.5t4 46.5q0 94 -53 151.5t-137 57.5q-82 0 -168 -50t-186 -156l-176 -705h-136z" />
<glyph unicode="n" horiz-adv-x="1218" d="M57 0l246 989l146 37l-54 -211q102 113 197.5 166t191.5 53q133 0 218 -84t85 -221q0 -33 -5 -70.5t-19 -97.5l-139 -561h-136l146 588q8 33 12 61t4 53q0 96 -53 152.5t-143 56.5t-184.5 -52t-204.5 -163l-172 -696h-136z" />
<glyph unicode="o" horiz-adv-x="1245" d="M98 428q0 258 172 435t420 177q201 0 328 -126.5t127 -329.5q0 -260 -171 -436.5t-419 -176.5q-201 0 -329 128t-128 329zM238 432q0 -154 91 -247t236 -93q182 0 312.5 142.5t130.5 345.5q0 152 -91.5 245t-236.5 93q-182 0 -312 -141.5t-130 -344.5z" />
<glyph unicode="p" horiz-adv-x="1249" d="M-39 -385l342 1374l146 37l-46 -182q100 98 192.5 143t195.5 45q160 0 263 -111.5t103 -287.5q0 -133 -50 -254t-142 -213q-88 -88 -199 -135t-229 -47q-92 0 -175 27.5t-147 80.5l-119 -477h-135zM246 211q61 -55 132.5 -82t153.5 -27q195 0 340.5 153t145.5 366 q0 133 -72 210.5t-192 77.5q-92 0 -184.5 -43t-194.5 -135z" />
<glyph unicode="q" horiz-adv-x="1243" d="M92 379q0 135 48 254t141 209q88 90 204.5 138t243.5 48q84 0 166 -24.5t160 -71.5l108 82l23 -4l-346 -1395h-135l137 553q-100 -98 -192.5 -143t-194.5 -45q-158 0 -260.5 111.5t-102.5 287.5zM229 389q0 -131 72 -209t191 -78q92 0 184 44t194 137l134 538 q-66 45 -134.5 65.5t-148.5 20.5q-195 0 -343.5 -152.5t-148.5 -365.5z" />
<glyph unicode="r" horiz-adv-x="806" d="M57 0l246 989l146 37l-64 -258q147 158 228 209t167 51q20 0 40 -3t38 -7l-20 -144q-25 6 -43.5 8.5t-34.5 2.5q-82 0 -175.5 -52.5t-228.5 -175.5l-163 -657h-136z" />
<glyph unicode="s" horiz-adv-x="987" d="M29 272l6 2q88 -84 191.5 -130t209.5 -46t178 46t72 114q0 57 -45 99.5t-166 95.5q-158 66 -220 133t-62 168q0 121 105 200.5t267 79.5q92 0 178 -28.5t160 -81.5l4 -152l-4 -2q-86 74 -172 108.5t-176 34.5q-100 0 -164.5 -43t-64.5 -106q0 -57 43 -98t168 -97 q154 -68 217 -135t63 -164q0 -129 -108.5 -211t-282.5 -82q-100 0 -199.5 35t-171.5 97z" />
<glyph unicode="t" horiz-adv-x="884" d="M170 893l29 119h184l63 237l148 54l-78 -291h410l-29 -119h-414l-143 -535q-6 -23 -10 -47t-4 -49q0 -72 46 -117t122 -45q63 0 124.5 26t126.5 79l5 -2l-50 -156q-51 -35 -109.5 -52.5t-121.5 -17.5q-125 0 -200.5 75t-75.5 198q0 35 4 65.5t14 63.5l139 514h-180z" />
<glyph unicode="u" horiz-adv-x="1218" d="M131 283q0 37 5 77.5t18 90.5l141 561h135l-145 -588q-8 -33 -12.5 -61.5t-4.5 -53.5q0 -96 53.5 -152.5t143.5 -56.5q88 0 182 51.5t205 161.5l174 699h135l-252 -1012h-135l47 193q-102 -109 -196.5 -162.5t-190.5 -53.5q-133 0 -218 84t-85 222z" />
<glyph unicode="v" horiz-adv-x="1148" d="M178 1012h137l181 -791l567 791h160l-764 -1037h-31z" />
<glyph unicode="w" horiz-adv-x="1771" d="M184 1012h135l101 -852l567 860h29l151 -860l521 852h149l-645 -1026h-117l-135 757l-504 -757h-114z" />
<glyph unicode="x" horiz-adv-x="1118" d="M-57 0v4l538 524l-266 484h152l215 -402l403 402h168v-4l-508 -494l283 -514h-150l-231 432l-436 -432h-168z" />
<glyph unicode="y" horiz-adv-x="1087" d="M-147 -207l4 4q37 -31 78.5 -46t89.5 -15q78 0 142 46t132 146l82 127l-203 957h139l164 -819l529 819h155l-757 -1147q-92 -135 -179.5 -195.5t-193.5 -60.5q-45 0 -82 10t-66 31z" />
<glyph unicode="z" horiz-adv-x="1062" d="M-51 20l872 873h-631l29 119h862l6 -23l-874 -872h698l-84 -117h-872z" />
<glyph unicode="{" horiz-adv-x="1007" d="M127 594l14 61l142 17q131 18 193.5 65t62.5 129q0 20 -3.5 51t-15.5 99q-10 72 -14 106.5t-4 59.5q0 158 112.5 246t313.5 88h219l10 -91h-235q-133 0 -208 -66.5t-75 -182.5q0 -23 3 -52.5t13 -95.5q10 -68 13.5 -101.5t3.5 -58.5q0 -96 -63.5 -162.5t-184.5 -93.5 q68 -25 104.5 -71.5t36.5 -106.5q0 -43 -22.5 -92t-93.5 -147q-66 -88 -85.5 -130t-19.5 -75q0 -82 58.5 -124t175.5 -42h180l-49 -90h-172q-160 0 -249 66.5t-89 185.5q0 51 24.5 105t100.5 153q61 82 79.5 119.5t18.5 70.5q0 59 -44 96t-126 48z" />
<glyph unicode="|" horiz-adv-x="679" d="M88 -266l442 1782h121l-442 -1782h-121z" />
<glyph unicode="}" horiz-adv-x="1007" d="M-90 -176h235q133 0 208 66.5t75 183.5q0 23 -3 52.5t-13 94.5q-10 68 -13.5 101.5t-3.5 58.5q0 96 63.5 162.5t184.5 93.5q-68 25 -104.5 72t-36.5 106q0 43 22.5 92t93.5 148q66 88 85.5 130t19.5 75q0 82 -59.5 123.5t-174.5 41.5h-182l49 91h174q160 0 249 -67 t89 -185q0 -51 -24.5 -105.5t-100.5 -152.5q-63 -82 -81.5 -120t-18.5 -71q0 -57 45 -95t127 -48l125 -17l-14 -61l-142 -16q-131 -18 -193.5 -65.5t-62.5 -129.5q0 -20 3.5 -51t15.5 -99q10 -72 14 -106t4 -59q0 -158 -112.5 -246t-313.5 -88h-219z" />
<glyph unicode="~" d="M135 596q111 170 177.5 233.5t136.5 63.5q33 0 82.5 -22.5t162.5 -92.5q96 -59 135 -77.5t64 -18.5q41 0 89 42t144 169l74 -49q-115 -176 -180.5 -237.5t-134.5 -61.5q-33 0 -83 22.5t-163 94.5q-96 59 -135 77.5t-64 18.5q-41 0 -88 -42t-143 -169z" />
<glyph unicode="&#xa1;" horiz-adv-x="514" d="M57 0l70 274l227 742h62l-144 -742l-69 -274h-146zM350 1339q0 45 33 77t78 32t76.5 -32t31.5 -77t-31.5 -76.5t-76.5 -31.5t-78 31.5t-33 76.5z" />
<glyph unicode="&#xa2;" horiz-adv-x="1085" d="M154 627q0 246 169 420t410 178l55 219h99l-60 -225q78 -14 147.5 -48t125.5 -88l-25 -135h-4q-66 68 -133.5 106t-140.5 48l-201 -776q96 0 188.5 36.5t182.5 112.5l6 -2l-72 -174q-70 -45 -155 -69.5t-171 -24.5h-8l-57 -217h-98l59 227q-145 33 -231 143.5t-86 268.5z M285 635q0 -119 58 -198t161 -101l198 768q-176 -14 -296.5 -149.5t-120.5 -319.5z" />
<glyph unicode="&#xa3;" horiz-adv-x="1185" d="M8 33q289 211 378 309t89 193q0 25 -3 49t-9 51h-322l27 104h266q-31 104 -43 169t-12 114q0 190 134 313t345 123q100 0 196.5 -37t176.5 -104l6 -152l-4 -2q-92 84 -186.5 126t-192.5 42q-147 0 -242.5 -87t-95.5 -224q0 -39 10.5 -93.5t46.5 -187.5h490l-25 -104h-440 q6 -23 8 -47.5t2 -52.5q0 -106 -67.5 -198.5t-233.5 -209.5h674l-70 -127h-899z" />
<glyph unicode="&#xa5;" horiz-adv-x="1269" d="M119 342l22 94h408l49 193h-408l23 94h365l-285 711h145l254 -652l580 652h168l-639 -711h364l-24 -94h-410l-47 -193h410l-25 -94h-410l-84 -342h-135l86 342h-407z" />
<glyph unicode="&#xa7;" horiz-adv-x="1282" d="M18 -86l5 2q109 -94 219 -139t229 -45q129 0 209 53t80 137q0 76 -62.5 132.5t-220.5 127.5q-205 94 -284.5 174t-79.5 195q0 129 107.5 212t324.5 124q-76 53 -110 111.5t-34 134.5q0 145 121 235t318 90q104 0 199.5 -26.5t181.5 -77.5l6 -150l-4 -2 q-94 66 -190.5 98.5t-198.5 32.5q-131 0 -213 -52t-82 -136q0 -76 61.5 -131.5t220.5 -128.5q203 -94 284 -175t81 -196q0 -129 -106.5 -212t-323.5 -124q74 -53 107.5 -111.5t33.5 -134.5q0 -143 -120 -234t-312 -91q-115 0 -221.5 33.5t-190.5 95.5zM250 561 q0 -78 65.5 -134t237.5 -136q18 -8 38.5 -18.5t57.5 -28.5q197 41 298.5 106.5t101.5 153.5q0 78 -67 136t-237 136q-43 20 -61 29.5t-33 17.5q-199 -41 -300 -107.5t-101 -154.5z" />
<glyph unicode="&#xa8;" horiz-adv-x="1024" d="M397 1327q0 41 30 70.5t71 29.5t70.5 -29.5t29.5 -70.5t-29.5 -70.5t-70.5 -29.5q-43 0 -72 28.5t-29 71.5zM817 1327q0 41 30 70.5t71 29.5t70.5 -29.5t29.5 -70.5t-29.5 -70.5t-70.5 -29.5q-43 0 -72 28.5t-29 71.5z" />
<glyph unicode="&#xa9;" horiz-adv-x="1869" d="M162 715q0 164 63.5 313.5t180.5 263.5q117 113 268 174.5t315 61.5q166 0 315.5 -60.5t266.5 -173.5t179 -262t62 -313t-63 -313.5t-180 -264.5q-117 -113 -268.5 -174t-315.5 -61q-166 0 -315.5 60t-266.5 173t-179 262.5t-62 313.5zM223 717q0 -315 223.5 -534.5 t540.5 -219.5q319 0 542.5 219t223.5 535q0 315 -223.5 534t-542.5 219q-317 0 -540.5 -220t-223.5 -533zM526 719q0 201 142.5 335t351.5 134q92 0 173 -27.5t153 -83.5v-119h-5q-82 68 -160.5 100t-162.5 32q-158 0 -270.5 -106.5t-112.5 -260.5q0 -164 109.5 -269.5 t267.5 -105.5q90 0 175 31t165 92l4 -2l-21 -115q-74 -53 -154.5 -78.5t-172.5 -25.5q-203 0 -342.5 132t-139.5 337z" />
<glyph unicode="&#xaa;" horiz-adv-x="987" d="M123 412l22 90h695l-23 -90h-694zM258 883q0 123 119 189.5t340 66.5q33 0 67.5 -1t69.5 -5q4 25 6 40t2 27q0 68 -46 110t-122 42q-68 0 -138.5 -24.5t-149.5 -76.5l-5 2l54 125q57 33 121.5 50.5t134.5 17.5q113 0 185.5 -65.5t72.5 -170.5q0 -27 -4 -56.5t-15 -61.5 l-104 -369l-111 -14l39 133q-88 -72 -168 -107t-153 -35q-88 0 -141.5 50.5t-53.5 132.5zM367 895q0 -49 30.5 -76.5t83.5 -27.5q63 0 139 32.5t175 102.5l39 135q-45 2 -72 3t-49 1q-164 0 -255 -45t-91 -125z" />
<glyph unicode="&#xab;" horiz-adv-x="1284" d="M106 494l7 24l592 508l43 -41l-474 -491l232 -478l-51 -30zM623 494l4 24l592 508l43 -41l-471 -489l231 -480l-53 -30z" />
<glyph unicode="&#xad;" horiz-adv-x="759" d="M121 492l33 129h510l-33 -129h-510z" />
<glyph unicode="&#xae;" horiz-adv-x="1153" d="M254 1034q0 186 132 316.5t323 130.5q190 0 322 -129.5t132 -315.5t-133 -316t-323 -130q-188 0 -320.5 129t-132.5 315zM301 1034q0 -170 118 -285.5t290 -115.5q170 0 287.5 116.5t117.5 284.5q0 170 -116.5 286t-288.5 116q-170 0 -289 -117t-119 -285zM547 793v507 h155q80 0 130.5 -41.5t50.5 -111.5q0 -55 -34 -95t-93 -57l190 -202h-92l-180 192h-56v-192h-71zM618 1049h74q53 0 84 24.5t31 69.5q0 43 -31 68.5t-82 25.5h-76v-188z" />
<glyph unicode="&#xaf;" horiz-adv-x="1024" d="M360 1276l27 106h670l-27 -106h-670z" />
<glyph unicode="&#xb0;" horiz-adv-x="1093" d="M248 969q0 207 140 350t337 143q166 0 273.5 -107.5t107.5 -275.5q0 -207 -140.5 -350t-338.5 -143q-166 0 -272.5 107.5t-106.5 275.5zM367 975q0 -129 73.5 -207t192.5 -78q143 0 248.5 112.5t105.5 270.5q0 129 -73.5 207t-192.5 78q-145 0 -249.5 -112.5 t-104.5 -270.5z" />
<glyph unicode="&#xb1;" d="M-10 0l30 119h996l-31 -119h-995zM205 860l31 123h434l112 451h127l-112 -451h434l-31 -123h-434l-113 -452h-127l113 452h-434z" />
<glyph unicode="&#xb4;" horiz-adv-x="1024" d="M629 1221l264 331h192v-4l-378 -327h-78z" />
<glyph unicode="&#xb5;" horiz-adv-x="1230" d="M-39 -385l346 1397h137l-147 -588q-8 -33 -12 -61.5t-4 -53.5q0 -96 54 -152.5t144 -56.5q88 0 182.5 51.5t204.5 161.5l172 699h138l-252 -1012h-113l35 203q-100 -109 -197.5 -163t-195.5 -54q-90 0 -154.5 46t-89.5 128l-98 -463l-21 -82h-129z" />
<glyph unicode="&#xb6;" horiz-adv-x="1368" d="M229 918q0 219 187.5 367.5t468.5 148.5h516l-357 -1434h-100l326 1311h-209l-326 -1311h-98l129 522h-84q-205 0 -329 108.5t-124 287.5zM369 911q0 -137 90 -217t243 -80h89l172 697h-101q-211 0 -352 -115t-141 -285z" />
<glyph unicode="&#xb7;" horiz-adv-x="434" d="M121 555q0 45 31.5 78t76.5 33t77 -33t32 -78t-32 -77t-77 -32t-76.5 32t-31.5 77z" />
<glyph unicode="&#xb8;" horiz-adv-x="1024" d="M123 -295l4 4q43 -18 83 -26.5t85 -8.5q68 0 107.5 21.5t39.5 56.5q0 29 -28.5 46.5t-77.5 17.5q-23 0 -49.5 -4.5t-67.5 -12.5l-4 8l141 203h97l-88 -123h20q72 0 118 -37t46 -94q0 -72 -65.5 -113.5t-180.5 -41.5q-39 0 -76 6t-67 16z" />
<glyph unicode="&#xba;" horiz-adv-x="1013" d="M127 412l23 90h714l-22 -90h-715zM262 1036q0 178 123 299t303 121q152 0 250 -96t98 -246q0 -178 -122.5 -299t-303.5 -121q-152 0 -250 96.5t-98 245.5zM375 1040q0 -111 66.5 -178t174.5 -67q127 0 217.5 92t90.5 223q0 111 -66.5 178.5t-175.5 67.5 q-127 0 -217 -92.5t-90 -223.5z" />
<glyph unicode="&#xbb;" horiz-adv-x="1284" d="M20 27l474 491l-232 477l51 31l349 -508l-7 -24l-592 -508zM537 27l473 491l-232 477l51 31l349 -508l-7 -24l-591 -508z" />
<glyph unicode="&#xbc;" horiz-adv-x="1628" d="M110 -4l672 747l614 695h123l-671 -748l-615 -694h-123zM217 1131l28 119l379 198l19 -6l-213 -854h-111l170 684l-270 -143zM807 227l584 625h135l-141 -563h143l-22 -88h-142l-51 -201h-104l49 201h-447zM979 289h301l111 446z" />
<glyph unicode="&#xbd;" horiz-adv-x="1687" d="M110 -4l672 747l614 695h123l-671 -748l-615 -694h-123zM217 1131l28 119l379 198l19 -6l-213 -854h-111l170 684l-270 -143zM924 37l381 350q113 102 149.5 155.5t36.5 104.5t-35.5 81t-95.5 30q-72 0 -143.5 -40t-140.5 -122h-4l18 135q53 59 128 93t155 34 q102 0 165.5 -54t63.5 -142q0 -74 -46 -143.5t-175 -188.5l-256 -232h416l-72 -98h-543z" />
<glyph unicode="&#xbe;" horiz-adv-x="1769" d="M135 766l4 2q55 -49 117.5 -73.5t130.5 -24.5q90 0 148 41t58 104q0 66 -61 106t-192 62l10 43q170 45 251 98.5t81 122.5q0 45 -37 74t-97 29q-66 0 -132 -24.5t-138 -73.5l-4 2l31 114q57 39 123.5 58.5t136.5 19.5q100 0 164.5 -53t64.5 -135q0 -84 -65.5 -148.5 t-186.5 -103.5q80 -25 122 -75t42 -120q0 -102 -89 -168.5t-228 -66.5q-72 0 -135.5 18.5t-106.5 52.5zM250 -4l672 747l614 695h123l-671 -748l-615 -694h-123zM946 227l584 625h135l-141 -563h143l-22 -88h-142l-51 -201h-104l49 201h-447zM1118 289h301l111 446z" />
<glyph unicode="&#xbf;" horiz-adv-x="987" d="M59 262q0 117 72 201t252 168q152 72 207 124t55 119q0 27 -7 54.5t-28 77.5h74q35 -53 51.5 -94.5t16.5 -75.5q0 -90 -65.5 -159t-242.5 -153q-141 -68 -195 -123t-54 -131q0 -74 56 -119t150 -45q109 0 219.5 52.5t227.5 158.5l4 -2l-43 -174q-84 -76 -194.5 -118.5 t-223.5 -42.5q-147 0 -239.5 78.5t-92.5 203.5zM643 1339q0 45 32 77t77 32t76.5 -32t31.5 -77t-31.5 -76.5t-76.5 -31.5t-77 31.5t-32 76.5z" />
<glyph unicode="&#xc0;" horiz-adv-x="1587" d="M-53 0l1009 1444h142l291 -1444h-144l-76 391h-790l-270 -391h-162zM467 520h678l-148 766zM807 1870v2h184l104 -289h-69z" />
<glyph unicode="&#xc1;" horiz-adv-x="1587" d="M-53 0l1009 1444h142l291 -1444h-144l-76 391h-790l-270 -391h-162zM467 520h678l-148 766zM987 1583l248 289h211v-2l-371 -287h-88z" />
<glyph unicode="&#xc2;" horiz-adv-x="1587" d="M-53 0l1009 1444h142l291 -1444h-144l-76 391h-790l-270 -391h-162zM467 520h678l-148 766zM723 1583v4l337 285h125l199 -289h-78l-200 184l-293 -184h-90z" />
<glyph unicode="&#xc3;" horiz-adv-x="1587" d="M-53 0l1009 1444h142l291 -1444h-144l-76 391h-790l-270 -391h-162zM467 520h678l-148 766zM684 1620q82 129 137 179t115 50q31 0 67.5 -16.5t108.5 -69.5q59 -41 85.5 -54t47.5 -13q37 0 75.5 33.5t110.5 128.5l58 -46q-82 -129 -137.5 -179t-114.5 -50q-31 0 -68 16.5 t-109 69.5q-59 41 -85.5 54.5t-47.5 13.5q-37 0 -75.5 -34t-110.5 -128z" />
<glyph unicode="&#xc4;" horiz-adv-x="1587" d="M-53 0l1009 1444h142l291 -1444h-144l-76 391h-790l-270 -391h-162zM467 520h678l-148 766zM747 1686q0 43 29.5 72.5t70.5 29.5q43 0 73 -29.5t30 -72.5q0 -41 -30 -71t-73 -30q-41 0 -70.5 30t-29.5 71zM1187 1686q0 43 29 72.5t72 29.5t71.5 -29.5t28.5 -72.5 t-28.5 -72t-71.5 -29t-72 28.5t-29 72.5z" />
<glyph unicode="&#xc5;" horiz-adv-x="1587" d="M-53 0l956 1366q-49 33 -76.5 83t-27.5 112q0 106 78.5 182t187.5 76q102 0 168.5 -64.5t66.5 -163.5q0 -82 -50 -150.5t-130 -94.5l269 -1346h-144l-76 391h-790l-270 -391h-162zM469 520h676l-148 766zM872 1563q0 -72 46.5 -118t117.5 -46q78 0 134.5 56t56.5 134 q0 72 -46 117t-118 45q-78 0 -134.5 -55t-56.5 -133z" />
<glyph unicode="&#xc6;" horiz-adv-x="1976" d="M-100 0v4l1282 1430h891l-33 -131h-664l-127 -508h568l-35 -131h-563l-134 -533h699l-82 -131h-793l97 391h-588l-350 -391h-168zM532 520h506l195 783z" />
<glyph unicode="&#xc7;" horiz-adv-x="1478" d="M170 602q0 170 61.5 324.5t178.5 275.5q117 123 270.5 189.5t318.5 66.5q156 0 284 -61.5t230 -184.5l-32 -170h-4q-100 141 -221 212t-263 71q-133 0 -258 -57.5t-221 -161.5q-94 -100 -145.5 -228t-51.5 -266q0 -223 135.5 -363t348.5 -140q137 0 268 59t264 180l6 -4 l-84 -209q-96 -76 -218 -118t-249 -42l-69 -98h20q72 0 118 -37t46 -94q0 -72 -65.5 -114t-180.5 -42q-39 0 -75.5 6.5t-67.5 16.5l-37 82l4 4q43 -18 83 -26.5t85 -8.5q68 0 108 21.5t40 56.5q0 29 -29 46t-78 17q-23 0 -49.5 -4t-67.5 -12l-4 8l127 185 q-236 29 -381 198.5t-145 421.5z" />
<glyph unicode="&#xc8;" horiz-adv-x="1155" d="M90 0l356 1434h805l-32 -131h-662l-127 -508h565l-32 -131h-564l-133 -533h697l-80 -131h-793zM633 1870v2h184l104 -289h-69z" />
<glyph unicode="&#xc9;" horiz-adv-x="1155" d="M90 0l356 1434h805l-32 -131h-662l-127 -508h565l-32 -131h-564l-133 -533h697l-80 -131h-793zM813 1583l248 289h211v-2l-371 -287h-88z" />
<glyph unicode="&#xca;" horiz-adv-x="1155" d="M90 0l356 1434h805l-32 -131h-662l-127 -508h565l-32 -131h-564l-133 -533h697l-80 -131h-793zM549 1583v4l337 285h125l199 -289h-78l-200 184l-293 -184h-90z" />
<glyph unicode="&#xcb;" horiz-adv-x="1155" d="M90 0l356 1434h805l-32 -131h-662l-127 -508h565l-32 -131h-564l-133 -533h697l-80 -131h-793zM573 1686q0 43 29.5 72.5t70.5 29.5q43 0 73 -29.5t30 -72.5q0 -41 -30 -71t-73 -30q-41 0 -70.5 30t-29.5 71zM1013 1686q0 43 29 72.5t72 29.5t71.5 -29.5t28.5 -72.5 t-28.5 -72t-71.5 -29t-72 28.5t-29 72.5z" />
<glyph unicode="&#xcc;" horiz-adv-x="593" d="M100 0l357 1434h143l-356 -1434h-144zM318 1870v2h184l104 -289h-69z" />
<glyph unicode="&#xcd;" horiz-adv-x="593" d="M100 0l357 1434h143l-356 -1434h-144zM498 1583l248 289h211v-2l-371 -287h-88z" />
<glyph unicode="&#xce;" horiz-adv-x="593" d="M100 0l357 1434h143l-356 -1434h-144zM234 1583v4l337 285h125l199 -289h-78l-200 184l-293 -184h-90z" />
<glyph unicode="&#xcf;" horiz-adv-x="593" d="M100 0l357 1434h143l-356 -1434h-144zM258 1686q0 43 29.5 72.5t70.5 29.5q43 0 73 -29.5t30 -72.5q0 -41 -30 -71t-73 -30q-41 0 -70.5 30t-29.5 71zM698 1686q0 43 29 72.5t72 29.5t71.5 -29.5t28.5 -72.5t-28.5 -72t-71.5 -29t-72 28.5t-29 72.5z" />
<glyph unicode="&#xd0;" horiz-adv-x="1632" d="M82 680l29 108h217l159 646h385q319 0 509 -163t190 -437q0 -360 -280.5 -597t-698.5 -237h-461l170 680h-219zM305 131h283q354 0 594.5 197.5t240.5 490.5q0 223 -152.5 353.5t-416.5 130.5h-258l-127 -515h408l-27 -108h-408z" />
<glyph unicode="&#xd1;" horiz-adv-x="1677" d="M90 0l356 1434h134l690 -1155l284 1155h138l-357 -1442h-51l-747 1253l-310 -1245h-137zM723 1620q82 129 137 179t115 50q31 0 67.5 -16.5t108.5 -69.5q59 -41 85.5 -54t47.5 -13q37 0 75.5 33.5t110.5 128.5l58 -46q-82 -129 -137.5 -179t-114.5 -50q-31 0 -68 16.5 t-109 69.5q-59 41 -85.5 54.5t-47.5 13.5q-37 0 -75.5 -34t-110.5 -128z" />
<glyph unicode="&#xd2;" horiz-adv-x="1712" d="M174 616q0 168 62.5 322t177.5 272q117 121 269.5 186.5t317.5 65.5q283 0 462 -179t179 -466q0 -168 -62 -321.5t-177 -272.5q-117 -121 -269.5 -186.5t-318.5 -65.5q-283 0 -462 179.5t-179 465.5zM322 621q0 -231 140 -374t365 -143q133 0 257 56.5t221 161.5 q92 100 141 227t49 264q0 231 -141.5 373.5t-366.5 142.5q-133 0 -257 -56t-218 -161q-92 -100 -141 -227t-49 -264zM836 1880v2h184l104 -289h-69z" />
<glyph unicode="&#xd3;" horiz-adv-x="1712" d="M174 616q0 168 62.5 322t177.5 272q117 121 269.5 186.5t317.5 65.5q283 0 462 -179t179 -466q0 -168 -62 -321.5t-177 -272.5q-117 -121 -269.5 -186.5t-318.5 -65.5q-283 0 -462 179.5t-179 465.5zM322 621q0 -231 140 -374t365 -143q133 0 257 56.5t221 161.5 q92 100 141 227t49 264q0 231 -141.5 373.5t-366.5 142.5q-133 0 -257 -56t-218 -161q-92 -100 -141 -227t-49 -264zM1016 1593l248 289h211v-2l-371 -287h-88z" />
<glyph unicode="&#xd4;" horiz-adv-x="1712" d="M174 616q0 168 62.5 322t177.5 272q117 121 269.5 186.5t317.5 65.5q283 0 462 -179t179 -466q0 -168 -62 -321.5t-177 -272.5q-117 -121 -269.5 -186.5t-318.5 -65.5q-283 0 -462 179.5t-179 465.5zM322 621q0 -231 140 -374t365 -143q133 0 257 56.5t221 161.5 q92 100 141 227t49 264q0 231 -141.5 373.5t-366.5 142.5q-133 0 -257 -56t-218 -161q-92 -100 -141 -227t-49 -264zM752 1593v4l337 285h125l199 -289h-78l-200 184l-293 -184h-90z" />
<glyph unicode="&#xd5;" horiz-adv-x="1712" d="M174 616q0 168 62.5 322t177.5 272q117 121 269.5 186.5t317.5 65.5q283 0 462 -179t179 -466q0 -168 -62 -321.5t-177 -272.5q-117 -121 -269.5 -186.5t-318.5 -65.5q-283 0 -462 179.5t-179 465.5zM322 621q0 -231 140 -374t365 -143q133 0 257 56.5t221 161.5 q92 100 141 227t49 264q0 231 -141.5 373.5t-366.5 142.5q-133 0 -257 -56t-218 -161q-92 -100 -141 -227t-49 -264zM713 1630q82 129 137 179t115 50q31 0 67.5 -16.5t108.5 -69.5q59 -41 85.5 -54t47.5 -13q37 0 75.5 33.5t110.5 128.5l58 -46q-82 -129 -137.5 -179 t-114.5 -50q-31 0 -68 16.5t-109 69.5q-59 41 -85.5 54.5t-47.5 13.5q-37 0 -75.5 -34t-110.5 -128z" />
<glyph unicode="&#xd6;" horiz-adv-x="1712" d="M174 616q0 168 62.5 322t177.5 272q117 121 269.5 186.5t317.5 65.5q283 0 462 -179t179 -466q0 -168 -62 -321.5t-177 -272.5q-117 -121 -269.5 -186.5t-318.5 -65.5q-283 0 -462 179.5t-179 465.5zM322 621q0 -231 140 -374t365 -143q133 0 257 56.5t221 161.5 q92 100 141 227t49 264q0 231 -141.5 373.5t-366.5 142.5q-133 0 -257 -56t-218 -161q-92 -100 -141 -227t-49 -264zM776 1696q0 43 29.5 72.5t70.5 29.5q43 0 73 -29.5t30 -72.5q0 -41 -30 -71t-73 -30q-41 0 -70.5 30t-29.5 71zM1216 1696q0 43 29 72.5t72 29.5 t71.5 -29.5t28.5 -72.5t-28.5 -72t-71.5 -29t-72 28.5t-29 72.5z" />
<glyph unicode="&#xd7;" d="M125 362l461 367l-283 367l103 80l274 -373l455 371l77 -97l-462 -366l282 -367l-100 -80l-275 371l-456 -371z" />
<glyph unicode="&#xd8;" horiz-adv-x="1712" d="M20 -84l291 287q-68 84 -102.5 188.5t-34.5 224.5q0 168 62.5 322t177.5 272q117 121 269.5 186.5t317.5 65.5q125 0 233.5 -39t195.5 -112l212 211h152v-4l-289 -287q68 -84 102.5 -188.5t34.5 -225.5q0 -168 -62 -321.5t-177 -272.5q-117 -121 -269.5 -186.5 t-318.5 -65.5q-125 0 -233.5 39t-194.5 113l-213 -211h-154v4zM315 621q0 -94 23.5 -176.5t71.5 -149.5l921 924q-68 55 -154.5 84.5t-189.5 29.5q-133 0 -258 -57.5t-221 -161.5q-92 -100 -142.5 -227t-50.5 -266zM483 215q68 -55 155 -85t189 -30q133 0 258 57.5 t222 159.5q92 102 142 229.5t50 266.5q0 96 -23.5 178t-70.5 146z" />
<glyph unicode="&#xd9;" horiz-adv-x="1589" d="M209 465q0 43 7 94t20 105l192 770h143l-196 -789q-10 -45 -16.5 -89t-6.5 -81q0 -168 105.5 -267t283.5 -99q195 0 335.5 122.5t195.5 346.5l213 856h139l-219 -881q-70 -281 -245 -429.5t-433 -148.5q-233 0 -375.5 134.5t-142.5 355.5zM807 1870v2h184l104 -289h-69z " />
<glyph unicode="&#xda;" horiz-adv-x="1589" d="M209 465q0 43 7 94t20 105l192 770h143l-196 -789q-10 -45 -16.5 -89t-6.5 -81q0 -168 105.5 -267t283.5 -99q195 0 335.5 122.5t195.5 346.5l213 856h139l-219 -881q-70 -281 -245 -429.5t-433 -148.5q-233 0 -375.5 134.5t-142.5 355.5zM987 1583l248 289h211v-2 l-371 -287h-88z" />
<glyph unicode="&#xdb;" horiz-adv-x="1589" d="M209 465q0 43 7 94t20 105l192 770h143l-196 -789q-10 -45 -16.5 -89t-6.5 -81q0 -168 105.5 -267t283.5 -99q195 0 335.5 122.5t195.5 346.5l213 856h139l-219 -881q-70 -281 -245 -429.5t-433 -148.5q-233 0 -375.5 134.5t-142.5 355.5zM723 1583v4l337 285h125 l199 -289h-78l-200 184l-293 -184h-90z" />
<glyph unicode="&#xdc;" horiz-adv-x="1589" d="M209 465q0 43 7 94t20 105l192 770h143l-196 -789q-10 -45 -16.5 -89t-6.5 -81q0 -168 105.5 -267t283.5 -99q195 0 335.5 122.5t195.5 346.5l213 856h139l-219 -881q-70 -281 -245 -429.5t-433 -148.5q-233 0 -375.5 134.5t-142.5 355.5zM747 1686q0 43 29.5 72.5 t70.5 29.5q43 0 73 -29.5t30 -72.5q0 -41 -30 -71t-73 -30q-41 0 -70.5 30t-29.5 71zM1187 1686q0 43 29 72.5t72 29.5t71.5 -29.5t28.5 -72.5t-28.5 -72t-71.5 -29t-72 28.5t-29 72.5z" />
<glyph unicode="&#xdd;" horiz-adv-x="1333" d="M270 1434h152l301 -660l625 660h176v-4l-756 -791l-158 -639h-143l162 655zM844 1583l248 289h211v-2l-371 -287h-88z" />
<glyph unicode="&#xde;" horiz-adv-x="1218" d="M90 0l356 1434h144l-68 -273h221q195 0 314 -102t119 -268q0 -217 -165 -351.5t-433 -134.5h-269l-76 -305h-143zM340 434h254q193 0 313.5 97t120.5 249q0 119 -81 185.5t-224 66.5h-234z" />
<glyph unicode="&#xdf;" horiz-adv-x="1316" d="M143 0l222 893h-185l29 119h186l31 125q47 193 171 300t298 107q156 0 251 -91t95 -241q0 -135 -90 -248.5t-277 -211.5q143 -61 216 -155.5t73 -217.5q0 -160 -121.5 -275.5t-304.5 -119.5q-63 -2 -124.5 12t-112.5 43l-21 137l2 4q61 -39 122 -57.5t128 -16.5 q125 2 211 84t86 193t-93 195t-276 137l3 51q227 100 334.5 205.5t107.5 228.5q0 100 -60.5 159.5t-160.5 59.5q-117 0 -205 -85t-125 -232l-274 -1102h-136z" />
<glyph unicode="&#xe0;" horiz-adv-x="1124" d="M45 236q0 168 150.5 259t429.5 91q57 0 114.5 -3t106.5 -10q6 27 9 56.5t3 56.5q0 102 -65.5 161.5t-180.5 59.5q-90 0 -182 -30.5t-192 -94.5l-5 2l68 160q76 43 160 65.5t172 22.5q166 0 263 -91t97 -243q0 -37 -6 -77.5t-18 -90.5l-138 -510l-145 -38l49 188 q-125 -98 -227 -143t-197 -45q-119 0 -192.5 69.5t-73.5 184.5zM180 250q0 -70 44 -111t120 -41q88 0 188.5 42t231.5 132l55 209q-47 4 -92 7.5t-88 3.5q-219 0 -339 -64.5t-120 -177.5zM482 1552h172l108 -331h-65z" />
<glyph unicode="&#xe1;" horiz-adv-x="1124" d="M45 236q0 168 150.5 259t429.5 91q57 0 114.5 -3t106.5 -10q6 27 9 56.5t3 56.5q0 102 -65.5 161.5t-180.5 59.5q-90 0 -182 -30.5t-192 -94.5l-5 2l68 160q76 43 160 65.5t172 22.5q166 0 263 -91t97 -243q0 -37 -6 -77.5t-18 -90.5l-138 -510l-145 -38l49 188 q-125 -98 -227 -143t-197 -45q-119 0 -192.5 69.5t-73.5 184.5zM180 250q0 -70 44 -111t120 -41q88 0 188.5 42t231.5 132l55 209q-47 4 -92 7.5t-88 3.5q-219 0 -339 -64.5t-120 -177.5zM662 1221l264 331h192v-4l-378 -327h-78z" />
<glyph unicode="&#xe2;" horiz-adv-x="1124" d="M45 236q0 168 150.5 259t429.5 91q57 0 114.5 -3t106.5 -10q6 27 9 56.5t3 56.5q0 102 -65.5 161.5t-180.5 59.5q-90 0 -182 -30.5t-192 -94.5l-5 2l68 160q76 43 160 65.5t172 22.5q166 0 263 -91t97 -243q0 -37 -6 -77.5t-18 -90.5l-138 -510l-145 -38l49 188 q-125 -98 -227 -143t-197 -45q-119 0 -192.5 69.5t-73.5 184.5zM180 250q0 -70 44 -111t120 -41q88 0 188.5 42t231.5 132l55 209q-47 4 -92 7.5t-88 3.5q-219 0 -339 -64.5t-120 -177.5zM410 1221v2l332 329h122l168 -331h-67l-182 215l-297 -215h-76z" />
<glyph unicode="&#xe3;" horiz-adv-x="1124" d="M45 236q0 168 150.5 259t429.5 91q57 0 114.5 -3t106.5 -10q6 27 9 56.5t3 56.5q0 102 -65.5 161.5t-180.5 59.5q-90 0 -182 -30.5t-192 -94.5l-5 2l68 160q76 43 160 65.5t172 22.5q166 0 263 -91t97 -243q0 -37 -6 -77.5t-18 -90.5l-138 -510l-145 -38l49 188 q-125 -98 -227 -143t-197 -45q-119 0 -192.5 69.5t-73.5 184.5zM180 250q0 -70 44 -111t120 -41q88 0 188.5 42t231.5 132l55 209q-47 4 -92 7.5t-88 3.5q-219 0 -339 -64.5t-120 -177.5zM348 1262q96 154 150.5 205t109.5 51q29 0 67 -19t116 -78q63 -49 91 -63.5t46 -14.5 q31 0 67.5 35t120.5 148l60 -43q-98 -156 -151.5 -207t-108.5 -51q-29 0 -68 19.5t-117 78.5q-63 47 -89.5 61.5t-45.5 14.5q-33 0 -69.5 -36t-118.5 -146z" />
<glyph unicode="&#xe4;" horiz-adv-x="1124" d="M45 236q0 168 150.5 259t429.5 91q57 0 114.5 -3t106.5 -10q6 27 9 56.5t3 56.5q0 102 -65.5 161.5t-180.5 59.5q-90 0 -182 -30.5t-192 -94.5l-5 2l68 160q76 43 160 65.5t172 22.5q166 0 263 -91t97 -243q0 -37 -6 -77.5t-18 -90.5l-138 -510l-145 -38l49 188 q-125 -98 -227 -143t-197 -45q-119 0 -192.5 69.5t-73.5 184.5zM180 250q0 -70 44 -111t120 -41q88 0 188.5 42t231.5 132l55 209q-47 4 -92 7.5t-88 3.5q-219 0 -339 -64.5t-120 -177.5zM430 1327q0 41 30 70.5t71 29.5t70.5 -29.5t29.5 -70.5t-29.5 -70.5t-70.5 -29.5 q-43 0 -72 28.5t-29 71.5zM850 1327q0 41 30 70.5t71 29.5t70.5 -29.5t29.5 -70.5t-29.5 -70.5t-70.5 -29.5q-43 0 -72 28.5t-29 71.5z" />
<glyph unicode="&#xe5;" horiz-adv-x="1124" d="M45 236q0 168 150.5 259t429.5 91q57 0 114.5 -3t106.5 -10q6 27 9 56.5t3 56.5q0 102 -65.5 161.5t-180.5 59.5q-90 0 -182 -30.5t-192 -94.5l-5 2l68 160q76 43 160 65.5t172 22.5q166 0 263 -91t97 -243q0 -37 -6 -77.5t-18 -90.5l-138 -510l-145 -38l49 188 q-125 -98 -227 -143t-197 -45q-119 0 -192.5 69.5t-73.5 184.5zM180 250q0 -70 44 -111t120 -41q88 0 188.5 42t231.5 132l55 209q-47 4 -92 7.5t-88 3.5q-219 0 -339 -64.5t-120 -177.5zM529 1450q0 113 77.5 192.5t186.5 79.5q100 0 167.5 -66.5t67.5 -168.5 q0 -111 -78.5 -190.5t-187.5 -79.5q-100 0 -166.5 66.5t-66.5 166.5zM602 1452q0 -74 46.5 -121t117.5 -47q78 0 133.5 59.5t55.5 141.5q0 74 -47.5 122t-116.5 48q-78 0 -133.5 -59.5t-55.5 -143.5z" />
<glyph unicode="&#xe6;" horiz-adv-x="1839" d="M45 236q0 168 149.5 259t423.5 91q57 0 112.5 -3t105.5 -10q6 27 9 56.5t3 56.5q0 102 -64.5 161.5t-177.5 59.5q-86 0 -177 -30.5t-191 -94.5l-5 2l68 160q76 43 158 65.5t170 22.5q125 0 212 -54t122 -153q82 100 195.5 157.5t234.5 57.5q164 0 265 -106.5t101 -282.5 q0 -53 -7 -103t-21 -97h-783v-27q0 -154 83 -238t231 -84q92 0 183 30t177 87l4 -4l-35 -139q-78 -49 -169 -74t-187 -25q-133 0 -233.5 60.5t-147.5 171.5q-156 -121 -278.5 -174t-249.5 -53t-204 69.5t-77 184.5zM180 250q0 -70 46 -111t124 -41q96 0 207 51.5t264 165.5 q-4 20 -6 44t-2 51q0 12 1 26.5t3 42.5q-45 6 -92 9.5t-94 3.5q-215 0 -333 -64.5t-118 -177.5zM965 555h653q4 23 5 42.5t1 39.5q0 133 -66.5 208t-183.5 75q-133 0 -250.5 -104.5t-158.5 -260.5z" />
<glyph unicode="&#xe7;" horiz-adv-x="1081" d="M96 414q0 262 177.5 442t428.5 180q98 0 189.5 -37.5t155.5 -105.5l-29 -150h-4q-66 84 -147 126t-177 42q-184 0 -319 -144t-135 -345q0 -147 85 -234.5t228 -87.5q98 0 192.5 39t182.5 115l4 -2l-72 -180q-68 -45 -154 -71t-174 -26l-67 -94h20q72 0 118 -37t46 -94 q0 -72 -65.5 -114t-180.5 -42q-39 0 -75.5 6.5t-67.5 16.5l-37 82l4 4q43 -18 83 -26.5t85 -8.5q68 0 108 21.5t40 56.5q0 29 -29 46.5t-78 17.5q-23 0 -49.5 -4.5t-67.5 -12.5l-4 8l127 183q-158 27 -250 142.5t-92 287.5z" />
<glyph unicode="&#xe8;" horiz-adv-x="1132" d="M96 410q0 258 174 444t410 186q166 0 269.5 -106.5t103.5 -282.5q0 -47 -7.5 -98t-21.5 -102h-793v-27q0 -152 84 -237t234 -85q92 0 185 30t181 87l3 -4l-33 -139q-80 -49 -172 -74t-191 -25q-193 0 -309.5 119t-116.5 314zM248 555h661q4 20 6.5 39.5t2.5 42.5 q0 131 -68 207t-186 76q-135 0 -255 -104.5t-161 -260.5zM502 1558h172l108 -331h-65z" />
<glyph unicode="&#xe9;" horiz-adv-x="1132" d="M96 410q0 258 174 444t410 186q166 0 269.5 -106.5t103.5 -282.5q0 -47 -7.5 -98t-21.5 -102h-793v-27q0 -152 84 -237t234 -85q92 0 185 30t181 87l3 -4l-33 -139q-80 -49 -172 -74t-191 -25q-193 0 -309.5 119t-116.5 314zM248 555h661q4 20 6.5 39.5t2.5 42.5 q0 131 -68 207t-186 76q-135 0 -255 -104.5t-161 -260.5zM682 1227l264 331h192v-4l-378 -327h-78z" />
<glyph unicode="&#xea;" horiz-adv-x="1132" d="M96 410q0 258 174 444t410 186q166 0 269.5 -106.5t103.5 -282.5q0 -47 -7.5 -98t-21.5 -102h-793v-27q0 -152 84 -237t234 -85q92 0 185 30t181 87l3 -4l-33 -139q-80 -49 -172 -74t-191 -25q-193 0 -309.5 119t-116.5 314zM248 555h661q4 20 6.5 39.5t2.5 42.5 q0 131 -68 207t-186 76q-135 0 -255 -104.5t-161 -260.5zM430 1227v2l332 329h122l168 -331h-67l-182 215l-297 -215h-76z" />
<glyph unicode="&#xeb;" horiz-adv-x="1132" d="M96 410q0 258 174 444t410 186q166 0 269.5 -106.5t103.5 -282.5q0 -47 -7.5 -98t-21.5 -102h-793v-27q0 -152 84 -237t234 -85q92 0 185 30t181 87l3 -4l-33 -139q-80 -49 -172 -74t-191 -25q-193 0 -309.5 119t-116.5 314zM248 555h661q4 20 6.5 39.5t2.5 42.5 q0 131 -68 207t-186 76q-135 0 -255 -104.5t-161 -260.5zM450 1333q0 41 30 70.5t71 29.5t70.5 -29.5t29.5 -70.5t-29.5 -70.5t-70.5 -29.5q-43 0 -72 28.5t-29 71.5zM870 1333q0 41 30 70.5t71 29.5t70.5 -29.5t29.5 -70.5t-29.5 -70.5t-70.5 -29.5q-43 0 -72 28.5 t-29 71.5z" />
<glyph unicode="&#xec;" horiz-adv-x="520" d="M68 0l249 1012h138l-252 -1012h-135zM197 1552h172l108 -331h-65z" />
<glyph unicode="&#xed;" horiz-adv-x="520" d="M68 0l249 1012h138l-252 -1012h-135zM377 1221l264 331h192v-4l-378 -327h-78z" />
<glyph unicode="&#xee;" horiz-adv-x="520" d="M68 0l249 1012h138l-252 -1012h-135zM125 1221v2l332 329h122l168 -331h-67l-182 215l-297 -215h-76z" />
<glyph unicode="&#xef;" horiz-adv-x="520" d="M68 0l249 1012h138l-252 -1012h-135zM145 1327q0 41 30 70.5t71 29.5t70.5 -29.5t29.5 -70.5t-29.5 -70.5t-70.5 -29.5q-43 0 -72 28.5t-29 71.5zM565 1327q0 41 30 70.5t71 29.5t70.5 -29.5t29.5 -70.5t-29.5 -70.5t-70.5 -29.5q-43 0 -72 28.5t-29 71.5z" />
<glyph unicode="&#xf0;" horiz-adv-x="1234" d="M92 414q0 217 159 374.5t376 157.5q104 0 190 -39t150 -114q-31 133 -92.5 243.5t-165.5 218.5l-162 -141l-62 70l158 135q-33 31 -74 66.5t-90 74.5l84 86q45 -35 89 -70.5t85 -76.5l168 147l62 -69l-166 -142q156 -168 230.5 -355.5t74.5 -406.5q0 -268 -156.5 -435 t-402.5 -167q-201 0 -328 125t-127 318zM229 418q0 -143 92.5 -234.5t235.5 -91.5q172 0 292 122t120 302q0 139 -93.5 225t-240.5 86q-164 0 -285 -121.5t-121 -287.5z" />
<glyph unicode="&#xf1;" horiz-adv-x="1218" d="M57 0l246 989l146 37l-54 -211q102 113 197.5 166t191.5 53q133 0 218 -84t85 -221q0 -33 -5 -70.5t-19 -97.5l-139 -561h-136l146 588q8 33 12 61t4 53q0 96 -53 152.5t-143 56.5t-184.5 -52t-204.5 -163l-172 -696h-136zM393 1262q96 154 150.5 205t109.5 51 q29 0 67 -19t116 -78q63 -49 91 -63.5t46 -14.5q31 0 67.5 35t120.5 148l60 -43q-98 -156 -151.5 -207t-108.5 -51q-29 0 -68 19.5t-117 78.5q-63 47 -89.5 61.5t-45.5 14.5q-33 0 -69.5 -36t-118.5 -146z" />
<glyph unicode="&#xf2;" horiz-adv-x="1245" d="M98 428q0 258 172 435t420 177q201 0 328 -126.5t127 -329.5q0 -260 -171 -436.5t-419 -176.5q-201 0 -329 128t-128 329zM238 432q0 -154 91 -247t236 -93q182 0 312.5 142.5t130.5 345.5q0 152 -91.5 245t-236.5 93q-182 0 -312 -141.5t-130 -344.5zM531 1558h172 l108 -331h-65z" />
<glyph unicode="&#xf3;" horiz-adv-x="1245" d="M98 428q0 258 172 435t420 177q201 0 328 -126.5t127 -329.5q0 -260 -171 -436.5t-419 -176.5q-201 0 -329 128t-128 329zM238 432q0 -154 91 -247t236 -93q182 0 312.5 142.5t130.5 345.5q0 152 -91.5 245t-236.5 93q-182 0 -312 -141.5t-130 -344.5zM711 1227l264 331 h192v-4l-378 -327h-78z" />
<glyph unicode="&#xf4;" horiz-adv-x="1245" d="M98 428q0 258 172 435t420 177q201 0 328 -126.5t127 -329.5q0 -260 -171 -436.5t-419 -176.5q-201 0 -329 128t-128 329zM238 432q0 -154 91 -247t236 -93q182 0 312.5 142.5t130.5 345.5q0 152 -91.5 245t-236.5 93q-182 0 -312 -141.5t-130 -344.5zM459 1227v2 l332 329h122l168 -331h-67l-182 215l-297 -215h-76z" />
<glyph unicode="&#xf5;" horiz-adv-x="1245" d="M98 428q0 258 172 435t420 177q201 0 328 -126.5t127 -329.5q0 -260 -171 -436.5t-419 -176.5q-201 0 -329 128t-128 329zM238 432q0 -154 91 -247t236 -93q182 0 312.5 142.5t130.5 345.5q0 152 -91.5 245t-236.5 93q-182 0 -312 -141.5t-130 -344.5zM397 1268 q96 154 150.5 205t109.5 51q29 0 67 -19t116 -78q63 -49 91 -63.5t46 -14.5q31 0 67.5 35t120.5 148l60 -43q-98 -156 -151.5 -207t-108.5 -51q-29 0 -68 19.5t-117 78.5q-63 47 -89.5 61.5t-45.5 14.5q-33 0 -69.5 -36t-118.5 -146z" />
<glyph unicode="&#xf6;" horiz-adv-x="1245" d="M98 428q0 258 172 435t420 177q201 0 328 -126.5t127 -329.5q0 -260 -171 -436.5t-419 -176.5q-201 0 -329 128t-128 329zM238 432q0 -154 91 -247t236 -93q182 0 312.5 142.5t130.5 345.5q0 152 -91.5 245t-236.5 93q-182 0 -312 -141.5t-130 -344.5zM479 1333 q0 41 30 70.5t71 29.5t70.5 -29.5t29.5 -70.5t-29.5 -70.5t-70.5 -29.5q-43 0 -72 28.5t-29 71.5zM899 1333q0 41 30 70.5t71 29.5t70.5 -29.5t29.5 -70.5t-29.5 -70.5t-70.5 -29.5q-43 0 -72 28.5t-29 71.5z" />
<glyph unicode="&#xf7;" d="M141 659l29 121h1024l-29 -121h-1024zM455 301q0 45 31.5 77t76.5 32t78 -32t33 -77t-33 -76.5t-78 -31.5t-76.5 31.5t-31.5 76.5zM662 1135q0 45 31.5 77.5t76.5 32.5t78 -32.5t33 -77.5t-33 -77t-78 -32t-76.5 32t-31.5 77z" />
<glyph unicode="&#xf8;" horiz-adv-x="1245" d="M-37 -92l227 233q-45 59 -68.5 132t-23.5 155q0 258 172 435t420 177q82 0 157 -25.5t136 -72.5l162 166h137v-4l-229 -234q45 -59 68.5 -131.5t23.5 -154.5q0 -260 -171 -436.5t-419 -176.5q-84 0 -158.5 24.5t-134.5 74.5l-164 -166h-135v4zM233 432q0 -57 13.5 -107.5 t38.5 -91.5l606 621q-43 33 -96.5 50.5t-114.5 17.5q-180 0 -313.5 -144.5t-133.5 -345.5zM352 158q43 -35 97.5 -52.5t115.5 -17.5q180 0 313.5 145.5t133.5 346.5q0 57 -13.5 107t-40.5 91z" />
<glyph unicode="&#xf9;" horiz-adv-x="1218" d="M131 283q0 37 5 77.5t18 90.5l141 561h135l-145 -588q-8 -33 -12.5 -61.5t-4.5 -53.5q0 -96 53.5 -152.5t143.5 -56.5q88 0 182 51.5t205 161.5l174 699h135l-252 -1012h-135l47 193q-102 -109 -196.5 -162.5t-190.5 -53.5q-133 0 -218 84t-85 222zM517 1552h172 l108 -331h-65z" />
<glyph unicode="&#xfa;" horiz-adv-x="1218" d="M131 283q0 37 5 77.5t18 90.5l141 561h135l-145 -588q-8 -33 -12.5 -61.5t-4.5 -53.5q0 -96 53.5 -152.5t143.5 -56.5q88 0 182 51.5t205 161.5l174 699h135l-252 -1012h-135l47 193q-102 -109 -196.5 -162.5t-190.5 -53.5q-133 0 -218 84t-85 222zM697 1221l264 331h192 v-4l-378 -327h-78z" />
<glyph unicode="&#xfb;" horiz-adv-x="1218" d="M131 283q0 37 5 77.5t18 90.5l141 561h135l-145 -588q-8 -33 -12.5 -61.5t-4.5 -53.5q0 -96 53.5 -152.5t143.5 -56.5q88 0 182 51.5t205 161.5l174 699h135l-252 -1012h-135l47 193q-102 -109 -196.5 -162.5t-190.5 -53.5q-133 0 -218 84t-85 222zM445 1221v2l332 329 h122l168 -331h-67l-182 215l-297 -215h-76z" />
<glyph unicode="&#xfc;" horiz-adv-x="1218" d="M131 283q0 37 5 77.5t18 90.5l141 561h135l-145 -588q-8 -33 -12.5 -61.5t-4.5 -53.5q0 -96 53.5 -152.5t143.5 -56.5q88 0 182 51.5t205 161.5l174 699h135l-252 -1012h-135l47 193q-102 -109 -196.5 -162.5t-190.5 -53.5q-133 0 -218 84t-85 222zM465 1327 q0 41 30 70.5t71 29.5t70.5 -29.5t29.5 -70.5t-29.5 -70.5t-70.5 -29.5q-43 0 -72 28.5t-29 71.5zM885 1327q0 41 30 70.5t71 29.5t70.5 -29.5t29.5 -70.5t-29.5 -70.5t-70.5 -29.5q-43 0 -72 28.5t-29 71.5z" />
<glyph unicode="&#xfd;" horiz-adv-x="1087" d="M-147 -207l4 4q37 -31 78.5 -46t89.5 -15q78 0 142 46t132 146l82 127l-203 957h139l164 -819l529 819h155l-757 -1147q-92 -135 -179.5 -195.5t-193.5 -60.5q-45 0 -82 10t-66 31zM637 1221l264 331h192v-4l-378 -327h-78z" />
<glyph unicode="&#xfe;" horiz-adv-x="1249" d="M-39 -385l469 1878l150 53l-177 -702q100 98 192.5 143t195.5 45q160 0 263 -111.5t103 -287.5q0 -133 -50 -254t-142 -213q-88 -88 -199 -135t-229 -47q-92 0 -175 27.5t-147 80.5l-119 -477h-135zM246 211q61 -55 132.5 -82t153.5 -27q195 0 340.5 153t145.5 366 q0 133 -72 210.5t-192 77.5q-92 0 -184.5 -43t-194.5 -135z" />
<glyph unicode="&#xff;" horiz-adv-x="1087" d="M-147 -207l4 4q37 -31 78.5 -46t89.5 -15q78 0 142 46t132 146l82 127l-203 957h139l164 -819l529 819h155l-757 -1147q-92 -135 -179.5 -195.5t-193.5 -60.5q-45 0 -82 10t-66 31zM405 1327q0 41 30 70.5t71 29.5t70.5 -29.5t29.5 -70.5t-29.5 -70.5t-70.5 -29.5 q-43 0 -72 28.5t-29 71.5zM825 1327q0 41 30 70.5t71 29.5t70.5 -29.5t29.5 -70.5t-29.5 -70.5t-70.5 -29.5q-43 0 -72 28.5t-29 71.5z" />
<glyph unicode="&#x152;" horiz-adv-x="1998" d="M166 600q0 360 280.5 597t698.5 237h952l-35 -131h-661l-127 -508h565l-33 -131h-563l-133 -533h698l-82 -131h-854q-328 0 -517 161t-189 439zM313 614q2 -227 155 -355t425 -128h74l290 1172h-108q-354 0 -595 -198t-241 -491z" />
<glyph unicode="&#x153;" horiz-adv-x="2009" d="M98 428q0 258 170 435t414 177q141 0 248.5 -73.5t154.5 -202.5q82 129 208 202.5t266 73.5q166 0 268 -106.5t102 -282.5q0 -53 -7 -103t-21 -97h-793v-27q0 -152 84 -237t233 -85q94 0 186.5 30t180.5 87l4 -4l-35 -139q-78 -49 -170 -74t-190 -25q-139 0 -240.5 67 t-144.5 187q-80 -123 -205 -191.5t-266 -68.5q-197 0 -322 127t-125 330zM238 432q0 -154 87 -247t228 -93q178 0 307 142.5t129 345.5q0 152 -87 245t-230 93q-178 0 -306 -142.5t-128 -343.5zM1126 555h662q4 23 5 42.5t1 39.5q0 131 -67.5 207t-186.5 76 q-133 0 -253 -104.5t-161 -260.5z" />
<glyph unicode="&#x178;" horiz-adv-x="1333" d="M270 1434h152l301 -660l625 660h176v-4l-756 -791l-158 -639h-143l162 655zM604 1686q0 43 29.5 72.5t70.5 29.5q43 0 73 -29.5t30 -72.5q0 -41 -30 -71t-73 -30q-41 0 -70.5 30t-29.5 71zM1044 1686q0 43 29 72.5t72 29.5t71.5 -29.5t28.5 -72.5t-28.5 -72t-71.5 -29 t-72 28.5t-29 72.5z" />
<glyph unicode="&#x2c6;" horiz-adv-x="1024" d="M377 1221v2l332 329h122l168 -331h-67l-182 215l-297 -215h-76z" />
<glyph unicode="&#x2dc;" horiz-adv-x="1024" d="M315 1262q96 154 150.5 205t109.5 51q29 0 67 -19t116 -78q63 -49 91 -63.5t46 -14.5q31 0 67.5 35t120.5 148l60 -43q-98 -156 -151.5 -207t-108.5 -51q-29 0 -68 19.5t-117 78.5q-63 47 -89.5 61.5t-45.5 14.5q-33 0 -69.5 -36t-118.5 -146z" />
<glyph unicode="&#x2000;" horiz-adv-x="941" />
<glyph unicode="&#x2001;" horiz-adv-x="1882" />
<glyph unicode="&#x2002;" horiz-adv-x="941" />
<glyph unicode="&#x2003;" horiz-adv-x="1882" />
<glyph unicode="&#x2004;" horiz-adv-x="627" />
<glyph unicode="&#x2005;" horiz-adv-x="470" />
<glyph unicode="&#x2006;" horiz-adv-x="313" />
<glyph unicode="&#x2007;" horiz-adv-x="313" />
<glyph unicode="&#x2008;" horiz-adv-x="235" />
<glyph unicode="&#x2009;" horiz-adv-x="376" />
<glyph unicode="&#x200a;" horiz-adv-x="104" />
<glyph unicode="&#x2010;" horiz-adv-x="759" d="M121 492l33 129h510l-33 -129h-510z" />
<glyph unicode="&#x2011;" horiz-adv-x="759" d="M121 492l33 129h510l-33 -129h-510z" />
<glyph unicode="&#x2012;" horiz-adv-x="759" d="M121 492l33 129h510l-33 -129h-510z" />
<glyph unicode="&#x2013;" horiz-adv-x="1114" d="M121 494l31 124h868l-31 -124h-868z" />
<glyph unicode="&#x2014;" horiz-adv-x="1892" d="M121 494l31 124h1646l-31 -124h-1646z" />
<glyph unicode="&#x2018;" horiz-adv-x="411" d="M227 1067q0 84 67.5 170t237.5 211l39 -43q-125 -121 -171 -193t-46 -133q0 -47 17.5 -94t64.5 -125h-143q-35 63 -50.5 111.5t-15.5 95.5z" />
<glyph unicode="&#x2019;" horiz-adv-x="411" d="M160 891q123 119 170 189.5t47 133.5q0 43 -16.5 89.5t-65.5 130.5h143q35 -63 50.5 -111.5t15.5 -95.5q0 -82 -66.5 -167t-238.5 -214z" />
<glyph unicode="&#x201a;" horiz-adv-x="385" d="M-147 -315q123 119 170 189.5t47 133.5q0 43 -16.5 89.5t-65.5 130.5h143q35 -63 50.5 -111.5t15.5 -95.5q0 -82 -66.5 -167t-238.5 -214z" />
<glyph unicode="&#x201c;" horiz-adv-x="780" d="M227 1067q0 84 67.5 170t237.5 211l39 -43q-125 -121 -171 -193t-46 -133q0 -47 17.5 -94t64.5 -125h-143q-35 63 -50.5 111.5t-15.5 95.5zM598 1067q0 84 68.5 171t236.5 210l37 -43q-123 -119 -169 -191t-46 -135q0 -45 16.5 -92t63.5 -127h-141q-35 63 -50.5 111.5 t-15.5 95.5z" />
<glyph unicode="&#x201d;" horiz-adv-x="780" d="M160 891q123 119 170 189.5t47 133.5q0 43 -16.5 89.5t-65.5 130.5h143q35 -63 50.5 -111.5t15.5 -95.5q0 -82 -66.5 -167t-238.5 -214zM530 891q123 119 170.5 189.5t47.5 133.5q0 43 -16.5 89.5t-65.5 130.5h143q35 -63 50 -111.5t15 -95.5q0 -82 -66.5 -167 t-238.5 -214z" />
<glyph unicode="&#x201e;" horiz-adv-x="755" d="M-147 -315q123 119 170 189.5t47 133.5q0 43 -16.5 89.5t-65.5 130.5h143q35 -63 50.5 -111.5t15.5 -95.5q0 -82 -66.5 -167t-238.5 -214zM223 -315q123 119 170.5 189.5t47.5 133.5q0 43 -16.5 89.5t-65.5 130.5h143q35 -63 50 -111.5t15 -95.5q0 -82 -66.5 -167 t-238.5 -214z" />
<glyph unicode="&#x2022;" horiz-adv-x="911" d="M279 717q0 102 70.5 175t168.5 73q96 0 160.5 -65.5t64.5 -164.5q0 -102 -70.5 -175t-170.5 -73q-96 0 -159.5 65.5t-63.5 164.5z" />
<glyph unicode="&#x2026;" horiz-adv-x="1110" d="M-25 90q0 43 31 74t74 31t73.5 -31t30.5 -74t-30.5 -73.5t-73.5 -30.5t-74 30.5t-31 73.5zM346 90q0 43 31 74t74 31t73.5 -31t30.5 -74t-30.5 -73.5t-73.5 -30.5t-74 30.5t-31 73.5zM717 90q0 43 30.5 74t73.5 31t74 -31t31 -74t-31 -73.5t-74 -30.5t-73.5 30.5 t-30.5 73.5z" />
<glyph unicode="&#x202f;" horiz-adv-x="376" />
<glyph unicode="&#x2039;" horiz-adv-x="788" d="M106 494l7 24l612 508l43 -41l-492 -491l250 -478l-51 -30z" />
<glyph unicode="&#x203a;" horiz-adv-x="788" d="M20 27l492 489l-250 479l51 31l369 -508l-6 -24l-613 -508z" />
<glyph unicode="&#x205f;" horiz-adv-x="470" />
<glyph unicode="&#x20ac;" horiz-adv-x="1370" d="M68 512l24 94h234q4 59 13 116.5t23 111.5h-215l23 94h223q92 242 278.5 386t407.5 144q102 0 192.5 -32.5t164.5 -94.5l-25 -137h-4q-76 70 -157 103.5t-173 33.5q-168 0 -313.5 -108.5t-224.5 -294.5h622l-22 -94h-635q-16 -57 -26.5 -113.5t-12.5 -114.5h616l-22 -94 h-596q6 -193 98 -301.5t246 -108.5q96 0 187 36t190 112l2 -2l-56 -172q-74 -49 -160.5 -75t-170.5 -26q-213 0 -341 144.5t-134 392.5h-256z" />
<glyph unicode="&#x2122;" horiz-adv-x="2052" d="M260 1339l23 95h743l-25 -95h-317l-178 -712h-103l179 712h-322zM961 629l243 805h139l152 -629l465 629h156l-156 -805h-98l133 694l-529 -707h-20l-174 709l-211 -696h-100z" />
<glyph unicode="&#x25fc;" horiz-adv-x="1013" d="M0 0v1014h1014v-1014h-1014z" />
<glyph unicode="&#xfb03;" horiz-adv-x="2086" d="M143 0l222 893h-185l29 119h184l53 213q39 156 135.5 237.5t237.5 81.5q45 0 86 -10t72 -29l31 -141l-4 -4q-41 31 -85.5 45t-97.5 14q-94 0 -156.5 -58t-91.5 -171l-43 -178h344l-28 -119h-344l-223 -893h-136zM925 0l222 893h-185l29 119h184l53 213 q39 156 135.5 237.5t237.5 81.5q45 0 86 -10t72 -29l31 -141l-4 -4q-41 31 -85.5 45t-97.5 14q-94 0 -156.5 -58t-91.5 -171l-43 -178h344l-28 -119h-344l-223 -893h-136zM1633 0l249 1012h138l-252 -1012h-135zM1936 1372q0 41 29.5 71t70.5 30t69.5 -30t28.5 -71 q0 -43 -28.5 -71.5t-71.5 -28.5q-41 0 -69.5 29.5t-28.5 70.5z" />
<glyph unicode="&#xfb04;" horiz-adv-x="2086" d="M143 0l222 893h-185l29 119h184l53 213q39 156 135.5 237.5t237.5 81.5q45 0 86 -10t72 -29l31 -141l-4 -4q-41 31 -85.5 45t-97.5 14q-94 0 -156.5 -58t-91.5 -171l-43 -178h344l-28 -119h-344l-223 -893h-136zM925 0l222 893h-185l29 119h184l53 213 q39 156 135.5 237.5t237.5 81.5q45 0 86 -10t72 -29l31 -141l-4 -4q-41 31 -85.5 45t-97.5 14q-94 0 -156.5 -58t-91.5 -171l-43 -178h344l-28 -119h-344l-223 -893h-136zM1633 0l370 1493l150 53l-385 -1546h-135z" />
</font>
</defs>
</svg>
