<?xml version="1.0" standalone="no"?>
<!DOCTYPE svg PUBLIC "-//W3C//DTD SVG 1.1//EN" "http://www.w3.org/Graphics/SVG/1.1/DTD/svg11.dtd" >
<svg xmlns="http://www.w3.org/2000/svg">
<metadata></metadata>
<defs>
<font id="mallory_mediumregular" horiz-adv-x="1228" >
<font-face units-per-em="2048" ascent="1638" descent="-410" />
<missing-glyph horiz-adv-x="444" />
<glyph unicode="&#xfb01;" horiz-adv-x="1429" d="M74 838v198h176v133q0 178 98 280.5t270 102.5q55 0 99.5 -8t93.5 -28l35 -222l-4 -4q-57 29 -100.5 41t-88.5 12q-76 0 -120 -46t-44 -126v-135h332v-198h-329v-838h-242v838h-176zM987 1395q0 63 45 107t111 44t110.5 -44t44.5 -107t-45 -107.5t-110 -44.5 q-66 0 -111 44t-45 108zM1022 0v1036h242v-1036h-242z" />
<glyph unicode="&#xfb02;" horiz-adv-x="1429" d="M74 838v198h176v133q0 178 98 280.5t270 102.5q55 0 99.5 -8t93.5 -28l35 -222l-4 -4q-57 29 -100.5 41t-88.5 12q-76 0 -120 -46t-44 -126v-135h332v-198h-329v-838h-242v838h-176zM1022 0v1479l242 75v-1554h-242z" />
<glyph horiz-adv-x="0" />
<glyph horiz-adv-x="0" />
<glyph horiz-adv-x="682" />
<glyph unicode="&#xd;" horiz-adv-x="681" />
<glyph unicode=" "  horiz-adv-x="444" />
<glyph unicode="&#x09;" horiz-adv-x="444" />
<glyph unicode="&#xa0;" horiz-adv-x="444" />
<glyph unicode="!" horiz-adv-x="555" d="M115 143q0 68 48 116t116 48t115.5 -48t47.5 -116q0 -66 -47.5 -113.5t-115.5 -47.5t-116 47t-48 114zM141 1245v189h275v-189l-84 -760h-107z" />
<glyph unicode="&#x22;" horiz-adv-x="978" d="M80 858l158 576h286l-344 -609zM508 858l158 576h284l-342 -609z" />
<glyph unicode="#" horiz-adv-x="1390" d="M59 332v219h265l77 332h-239v219h291l79 336h162l-80 -336h363l80 336h160l-80 -336h196v-219h-248l-77 -332h223v-219h-275l-79 -336h-162l80 336h-361l-80 -336h-161l79 336h-213zM485 551h361l80 332h-363z" />
<glyph unicode="$" horiz-adv-x="1208" d="M82 408l4 2q104 -74 206.5 -122t194.5 -67l39 410q-227 55 -319 150.5t-92 254.5q0 178 134 288t353 114l25 241h166l-25 -254q74 -10 141.5 -33.5t124.5 -58.5v-258h-4q-63 43 -138 77t-151 52l-36 -389q227 -61 314 -154.5t87 -252.5q0 -178 -128 -289t-349 -121 l-31 -313h-166l31 319q-88 12 -173 45t-161 84zM356 1053q0 -70 43 -114t150 -79l35 363q-104 -4 -166 -49t-62 -121zM645 213q106 10 162.5 58t56.5 126q0 72 -42 116t-140 77z" />
<glyph unicode="%" horiz-adv-x="1898" d="M80 1044q0 184 102.5 301t261.5 117q158 0 259.5 -115.5t101.5 -297.5t-102.5 -299t-262.5 -117q-158 0 -259 115.5t-101 295.5zM270 1049q0 -113 47.5 -180.5t126.5 -67.5q78 0 125 67.5t47 178.5q0 115 -48 182t-128 67q-76 0 -123 -68.5t-47 -178.5zM369 -4l518 760 l446 682h197l-520 -760l-447 -682h-194zM1092 385q0 182 102 299t262 117q158 0 259.5 -116t101.5 -296q0 -184 -102.5 -301t-262.5 -117q-158 0 -259 116t-101 298zM1282 389q0 -113 47 -181.5t127 -68.5q78 0 125 67.5t47 178.5q0 113 -47 181.5t-127 68.5 q-78 0 -125 -67.5t-47 -178.5z" />
<glyph unicode="&#x26;" horiz-adv-x="1464" d="M82 354q0 127 83 226.5t257 181.5q-68 104 -97.5 182t-29.5 148q0 162 113.5 266t293.5 104q156 0 259.5 -96t103.5 -242q0 -115 -87 -220t-257 -197q41 -53 95 -114t122 -130q43 51 96 120.5t123 168.5h248l-2 -7q-113 -158 -187.5 -255t-136.5 -166 q106 -100 188.5 -174t159.5 -144v-6h-301q-29 25 -59.5 53.5t-130.5 122.5q-113 -100 -221.5 -146t-229.5 -46q-180 0 -291.5 103t-111.5 267zM322 369q0 -78 54 -130.5t138 -52.5q70 0 137.5 32t143.5 97q-80 80 -145.5 154t-119.5 141q-111 -63 -159.5 -119t-48.5 -122z M522 1090q0 -53 22.5 -111.5t73.5 -134.5q113 66 170.5 132t57.5 132q0 72 -43 119t-109 47q-78 0 -125 -51.5t-47 -132.5z" />
<glyph unicode="'" horiz-adv-x="552" d="M80 858l158 576h288l-346 -609z" />
<glyph unicode="(" horiz-adv-x="868" d="M145 625q0 270 146.5 491t468.5 424l63 -74q-223 -186 -332.5 -394.5t-109.5 -446.5t109.5 -447t332.5 -395l-63 -74q-322 203 -468.5 424t-146.5 492z" />
<glyph unicode=")" horiz-adv-x="868" d="M45 -217q221 186 330.5 396t109.5 446t-109.5 445.5t-330.5 395.5l64 74q322 -203 468 -424t146 -491t-146.5 -491.5t-467.5 -424.5z" />
<glyph unicode="*" horiz-adv-x="1075" d="M82 1018l82 248l297 -213l-15 -39zM176 731l295 219l33 -24l-115 -346zM408 1442h260l-111 -348h-41zM571 926l33 24l295 -219l-213 -151zM612 1053l297 213l82 -248l-364 -4z" />
<glyph unicode="+" d="M96 612v209h410v412h217v-412h410v-209h-410v-413h-217v413h-410z" />
<glyph unicode="," horiz-adv-x="458" d="M-31 -291q102 137 131 231.5t29 262.5v69h242q0 -197 -61.5 -322.5t-272.5 -301.5z" />
<glyph unicode="-" horiz-adv-x="811" d="M123 455v223h565v-223h-565z" />
<glyph unicode="." horiz-adv-x="458" d="M66 145q0 68 48 117t115 49q68 0 116 -49t48 -117t-48 -115.5t-116 -47.5t-115.5 48t-47.5 115z" />
<glyph unicode="/" horiz-adv-x="958" d="M-14 -266l719 1782h196l-719 -1782h-196z" />
<glyph unicode="0" horiz-adv-x="1400" d="M115 715q0 326 163.5 536.5t423.5 210.5t422 -208.5t162 -534.5q0 -328 -164 -538t-424 -210q-262 0 -422.5 207t-160.5 537zM365 719q0 -231 93 -376.5t244 -145.5q150 0 243 144t93 374q0 229 -95 375.5t-245 146.5t-241.5 -144.5t-91.5 -373.5z" />
<glyph unicode="1" horiz-adv-x="909" d="M86 850v264l576 348l34 -10v-1452h-247v1071z" />
<glyph unicode="2" horiz-adv-x="1191" d="M92 78l498 594q111 133 146.5 204.5t35.5 147.5q0 88 -57.5 145.5t-147.5 57.5q-102 0 -201.5 -66.5t-211.5 -212.5h-4l-33 271q100 119 218 177t257 58q193 0 310.5 -110.5t117.5 -290.5q0 -115 -48 -216.5t-188 -263.5l-301 -354l629 2l-102 -221h-901z" />
<glyph unicode="3" horiz-adv-x="1132" d="M96 365l4 2q125 -92 223.5 -131t200.5 -39q111 0 182.5 56t71.5 144q0 109 -103.5 173.5t-348.5 109.5v84q236 84 327.5 150.5t91.5 156.5q0 76 -55 121t-147 45q-88 0 -185.5 -41t-212.5 -129h-4v254q119 76 217.5 105.5t210.5 29.5q199 0 313.5 -96t114.5 -260 q0 -109 -66.5 -197t-199.5 -151q143 -47 222 -142.5t79 -222.5q0 -178 -141 -294t-348 -116q-115 0 -204 24t-204 93z" />
<glyph unicode="4" horiz-adv-x="1296" d="M39 373l698 1071h264v-934h228v-197h-228v-313h-233v313h-721zM352 510h420v661z" />
<glyph unicode="5" horiz-adv-x="1191" d="M125 311q117 -61 217 -91t193 -30q131 0 215 74t84 189q0 119 -80 184t-224 65q-74 0 -160.5 -17t-170.5 -50l-29 14l51 785h799v-222h-596l-25 -329q41 12 90.5 18t104.5 6q225 0 359 -120.5t134 -327.5q0 -213 -148 -348.5t-390 -135.5q-109 0 -207 22.5t-186 65.5z " />
<glyph unicode="6" horiz-adv-x="1251" d="M106 492q0 139 60.5 277t224.5 368l213 297h291l-297 -396q-49 -68 -66.5 -93t-29.5 -46q57 18 108.5 26.5t110.5 8.5q186 0 312 -126t126 -327q0 -215 -153.5 -362.5t-382.5 -147.5q-238 0 -377.5 141.5t-139.5 379.5zM354 496q0 -139 75 -225.5t198 -86.5 q125 0 205.5 81t80.5 204q0 129 -79.5 197.5t-225.5 68.5q-47 0 -95 -5t-105 -17q-27 -59 -40.5 -111.5t-13.5 -105.5z" />
<glyph unicode="7" horiz-adv-x="1204" d="M96 1434h1045l16 -27l-674 -1407h-266l602 1212h-682z" />
<glyph unicode="8" horiz-adv-x="1273" d="M109 381q0 115 63.5 206t179.5 144q-96 51 -148 136t-52 192q0 174 136 286.5t351 112.5q213 0 348 -112.5t135 -286.5q0 -104 -52 -189.5t-148 -138.5q117 -51 180 -142t63 -208q0 -176 -149.5 -291t-380.5 -115t-378.5 114t-147.5 292zM356 406q0 -102 79 -166t204 -64 t203 63.5t78 166.5q0 96 -83 160.5t-202 64.5q-117 0 -198 -64.5t-81 -160.5zM395 1042q0 -94 68.5 -156.5t175.5 -62.5q104 0 173 62.5t69 156.5t-67.5 154.5t-178.5 60.5q-109 0 -174.5 -59t-65.5 -156z" />
<glyph unicode="9" horiz-adv-x="1251" d="M92 944q0 221 151.5 369.5t383.5 148.5q236 0 376 -141t140 -379q0 -139 -60.5 -277.5t-224.5 -367.5l-213 -297h-291l297 395q18 25 38 53.5t44 63.5q-49 -16 -97 -23.5t-104 -7.5q-190 0 -315 128t-125 335zM338 956q0 -135 78 -204.5t229 -69.5q47 0 93 4t96 14 q33 68 47 124.5t14 113.5q0 139 -75 225t-197 86q-125 0 -205 -83t-80 -210z" />
<glyph unicode=":" horiz-adv-x="495" d="M84 145q0 68 48 117t116 49t116 -49t48 -117t-48 -115.5t-116 -47.5t-116 48t-48 115zM84 889q0 68 48 117t116 49t116 -49.5t48 -116.5q0 -68 -48 -116t-116 -48t-116 48t-48 116z" />
<glyph unicode=";" horiz-adv-x="495" d="M-23 -291q104 139 133 234.5t29 259.5v69h240q0 -197 -61.5 -322.5t-272.5 -301.5zM90 889q0 68 48 117t116 49t117 -49.5t49 -116.5q0 -68 -49 -116t-117 -48t-116 48t-48 116z" />
<glyph unicode="&#x3c;" d="M102 668v98l1004 481v-225l-662 -303l662 -301v-232z" />
<glyph unicode="=" d="M115 412v196h999v-196h-999zM115 825v197h999v-197h-999z" />
<glyph unicode="&#x3e;" d="M123 186v228l661 301l-661 301v231l1003 -481v-96z" />
<glyph unicode="?" horiz-adv-x="999" d="M86 1030v256q102 86 206.5 127t223.5 41q180 0 287.5 -94t107.5 -254q0 -111 -53 -185.5t-203 -154.5q-102 -53 -136 -83t-34 -67q0 -23 8.5 -49t36.5 -82h-139q-63 72 -85.5 116t-22.5 93q0 61 43 106.5t174 112.5q104 53 140 92t36 97q0 61 -47 98t-127 37 q-100 0 -195.5 -48t-216.5 -161zM283 143q0 68 47 116t114 48q68 0 116 -48t48 -116t-48 -114.5t-116 -46.5t-114.5 47t-46.5 114z" />
<glyph unicode="@" horiz-adv-x="2084" d="M82 414q0 213 86 416.5t244 363.5t358.5 246t419.5 86q365 0 588 -210t223 -548q0 -287 -146.5 -471t-379.5 -184q-109 0 -183.5 46t-93.5 124q-102 -90 -189 -130t-178 -40q-129 0 -205.5 85t-76.5 232q0 117 49 231.5t139 202.5q88 86 201 133t238 47q57 0 115.5 -15 t115.5 -44l86 41h70l-152 -620q-6 -33 -8 -48.5t-2 -29.5q0 -55 39 -89t104 -34q160 0 272.5 163.5t112.5 395.5q0 317 -201.5 506.5t-541.5 189.5q-203 0 -389.5 -82t-333.5 -231q-147 -150 -227 -340.5t-80 -388.5q0 -346 212 -538.5t593 -192.5q166 0 311 26.5t287 81.5 v-71q-150 -53 -294.5 -78t-308.5 -25q-408 0 -641 212t-233 581zM758 463q0 -80 43 -122t123 -42q57 0 123.5 27.5t156.5 89.5l105 418q-37 14 -71 20t-71 6q-170 0 -289.5 -119.5t-119.5 -277.5z" />
<glyph unicode="A" horiz-adv-x="1638" d="M49 0l651 1440h256l631 -1440h-278l-142 334h-704l-148 -334h-266zM555 553h522l-256 604z" />
<glyph unicode="B" horiz-adv-x="1288" d="M186 0v1434h476q219 0 342.5 -100.5t123.5 -276.5q0 -100 -53 -180t-155 -129q131 -45 199.5 -131t68.5 -207q0 -186 -145.5 -298t-385.5 -112h-471zM434 211h221q127 0 202 57.5t75 151.5q0 100 -75 154.5t-214 54.5h-209v-418zM434 829h184q117 0 188 56.5t71 148.5 q0 88 -64.5 138.5t-175.5 50.5h-203v-394z" />
<glyph unicode="C" horiz-adv-x="1458" d="M102 717q0 315 216.5 528t529.5 213q137 0 256 -43t219 -127v-295h-4q-115 113 -231.5 169.5t-235.5 56.5q-201 0 -343 -144.5t-142 -351.5q0 -219 139 -363.5t342 -144.5q129 0 255 55.5t245 163.5l4 -4l-37 -287q-117 -86 -238 -127t-256 -41q-309 0 -514 208t-205 534 z" />
<glyph unicode="D" horiz-adv-x="1599" d="M186 0v1434h494q379 0 598 -191.5t219 -521.5q0 -324 -226 -522.5t-591 -198.5h-494zM444 231h238q246 0 398.5 133.5t152.5 352.5q0 227 -149.5 356t-407.5 129h-232v-971z" />
<glyph unicode="E" horiz-adv-x="1214" d="M186 0v1434h850l62 -228h-654v-370h545v-218h-545v-391h660l-62 -227h-856z" />
<glyph unicode="F" horiz-adv-x="1130" d="M186 0v1434h887l-61 -230h-568v-401h504v-223h-504v-580h-258z" />
<glyph unicode="G" horiz-adv-x="1613" d="M102 711q0 326 224.5 534.5t572.5 208.5q137 0 258 -27.5t246 -89.5v-272q-143 80 -263 114.5t-241 34.5q-227 0 -379.5 -143t-152.5 -356q0 -225 139 -363.5t362 -138.5q94 0 173 16.5t153 53.5v270h-369v211h615v-610q-143 -90 -287.5 -132t-308.5 -42 q-332 0 -537 200.5t-205 530.5z" />
<glyph unicode="H" horiz-adv-x="1667" d="M186 0v1434h258v-586h779v586h258v-1434h-258v610h-779v-610h-258z" />
<glyph unicode="I" horiz-adv-x="651" d="M197 0v1434h258v-1434h-258z" />
<glyph unicode="J" horiz-adv-x="966" d="M55 324l6 2q70 -55 135 -82t126 -27q100 0 155 59.5t55 167.5v990h259v-1028q0 -201 -112 -313.5t-306 -112.5q-76 0 -142.5 18t-124.5 53z" />
<glyph unicode="K" horiz-adv-x="1445" d="M186 0v1434h258v-596h45l611 596h325v-7l-727 -688l736 -733v-6h-332l-613 625h-45v-625h-258z" />
<glyph unicode="L" horiz-adv-x="1118" d="M186 0v1434h258v-1203h596v-231h-854z" />
<glyph unicode="M" horiz-adv-x="2109" d="M186 0v1434h373l496 -992l491 992h377v-1434h-252v1163l-604 -1186h-31l-604 1176v-1153h-246z" />
<glyph unicode="N" horiz-adv-x="1683" d="M186 0v1434h244l819 -930l-2 930h250v-1442h-127l-936 1063l2 -1055h-250z" />
<glyph unicode="O" horiz-adv-x="1712" d="M102 715q0 315 218.5 531t537.5 216q322 0 538 -214t216 -529t-218 -531.5t-540 -216.5t-537 214t-215 530zM367 719q0 -215 141 -362.5t346 -147.5t348.5 147.5t143.5 358.5q0 213 -144.5 361.5t-351.5 148.5q-203 0 -343 -146.5t-140 -359.5z" />
<glyph unicode="P" horiz-adv-x="1243" d="M186 0v1434h439q252 0 397 -123t145 -340q0 -223 -150.5 -354.5t-400.5 -131.5h-172v-485h-258zM442 705h168q137 0 218 70.5t81 193.5q0 113 -79 178t-214 65h-174v-507z" />
<glyph unicode="Q" horiz-adv-x="1712" d="M102 715q0 315 218.5 531t537.5 216q322 0 538 -213t216 -526q0 -242 -136.5 -432.5t-361.5 -267.5q59 -57 117.5 -83t134.5 -26q49 0 97 10t98 31l4 -4l-78 -227q-33 -12 -75 -19.5t-91 -7.5q-160 0 -277.5 65.5t-242.5 214.5q-303 18 -501 228.5t-198 509.5zM367 719 q0 -215 141 -362.5t346 -147.5t348.5 147.5t143.5 358.5q0 213 -144.5 361.5t-351.5 148.5q-203 0 -343 -146.5t-140 -359.5z" />
<glyph unicode="R" horiz-adv-x="1331" d="M186 0v1434h455q233 0 370.5 -116t137.5 -319q0 -141 -83 -249.5t-228 -157.5l512 -592h-316l-465 549h-125v-549h-258zM440 758h181q119 0 193.5 64.5t74.5 168.5q0 100 -71.5 161.5t-188.5 61.5h-189v-456z" />
<glyph unicode="S" horiz-adv-x="1146" d="M72 424l4 4q117 -102 246 -162.5t237 -60.5q106 0 167.5 46t61.5 128q0 70 -58 122t-226 122q-211 88 -296 187t-85 243q0 184 127 294.5t336 110.5q113 0 208 -25.5t183 -80.5v-269h-4q-102 72 -202.5 109t-192.5 37q-94 0 -148.5 -41t-54.5 -113t54 -120t228 -124 q211 -90 297 -189t86 -245q0 -190 -135 -306t-354 -116q-119 0 -227.5 35t-200.5 103z" />
<glyph unicode="T" horiz-adv-x="1478" d="M72 1202v232h1335v-232h-539v-1202h-258v1202h-538z" />
<glyph unicode="U" horiz-adv-x="1615" d="M170 639v795h258v-799q0 -203 100.5 -313.5t282.5 -110.5t282.5 112.5t100.5 317.5v793h252v-795q0 -313 -168 -488.5t-471 -175.5q-301 0 -469 175.5t-168 488.5z" />
<glyph unicode="V" horiz-adv-x="1597" d="M51 1434h287l463 -1047l473 1047h276l-698 -1463h-123z" />
<glyph unicode="W" horiz-adv-x="2387" d="M66 1434h280l340 -1100l498 1118h35l479 -1116l356 1098h273l-500 -1442h-248l-387 919l-399 -919h-248z" />
<glyph unicode="X" horiz-adv-x="1536" d="M59 0l553 725l-538 709h305l393 -523l391 523h299l-538 -705l557 -729h-305l-412 545l-408 -545h-297z" />
<glyph unicode="Y" horiz-adv-x="1398" d="M18 1434h304l385 -584l383 584h292l-553 -813v-621h-258v616z" />
<glyph unicode="Z" horiz-adv-x="1441" d="M66 31l856 1173h-789v230h1210l15 -31l-858 -1174h872l-104 -229h-1186z" />
<glyph unicode="[" horiz-adv-x="858" d="M201 -266v1782h565l27 -144h-369v-1495h369l-27 -143h-565z" />
<glyph unicode="\" horiz-adv-x="958" d="M59 1516h195l719 -1782h-195z" />
<glyph unicode="]" horiz-adv-x="858" d="M63 -123h371v1495h-371l29 144h565v-1782h-565z" />
<glyph unicode="^" d="M84 686l485 795h90l486 -795h-238l-295 494l-297 -494h-231z" />
<glyph unicode="_" horiz-adv-x="1253" d="M-4 -154h1261v-155h-1261v155z" />
<glyph unicode="`" horiz-adv-x="1024" d="M94 1589v4h309l170 -360h-114z" />
<glyph unicode="a" horiz-adv-x="1171" d="M96 262q0 174 173 260t526 90q-2 115 -58.5 173.5t-163.5 58.5q-86 0 -177 -36t-185 -106l-6 3l45 245q86 53 175 79t191 26q203 0 310.5 -113t107.5 -328v-589l-237 -41v170q-109 -86 -206 -128t-192 -42q-137 0 -220 75.5t-83 202.5zM328 281q0 -51 35.5 -81t101.5 -30 q61 0 142 28.5t188 86.5v192q-236 -16 -351.5 -63t-115.5 -133z" />
<glyph unicode="b" horiz-adv-x="1271" d="M158 -2v1481l241 75v-659q84 84 166 122t178 38q193 0 321 -144.5t128 -363.5q0 -246 -166 -404.5t-410 -158.5q-66 0 -130 12t-138 39l-168 -37h-22zM399 227q51 -18 102.5 -27.5t104.5 -9.5q147 0 245.5 97.5t98.5 244.5q0 141 -79.5 227.5t-206.5 86.5 q-70 0 -132.5 -23.5t-132.5 -74.5v-521z" />
<glyph unicode="c" horiz-adv-x="1093" d="M80 516q0 233 156.5 388t396.5 155q100 0 184 -27.5t160 -87.5v-270h-6q-90 86 -171 126t-161 40q-135 0 -224 -92.5t-89 -229.5q0 -141 85 -231t218 -90q88 0 185 39.5t177 105.5l8 -4l-36 -254q-80 -53 -170.5 -81t-184.5 -28q-233 0 -380.5 149.5t-147.5 391.5z" />
<glyph unicode="d" horiz-adv-x="1282" d="M82 496q0 240 149.5 397.5t360.5 157.5q78 0 148.5 -26t142.5 -79v533l241 75v-1554h-239v145q-82 -88 -164 -126.5t-180 -38.5q-195 0 -327 147t-132 369zM324 512q0 -143 81.5 -232.5t208.5 -89.5q70 0 132.5 24t136.5 79v479q-61 37 -118.5 54.5t-123.5 17.5 q-139 0 -228 -93.5t-89 -238.5z" />
<glyph unicode="e" horiz-adv-x="1153" d="M80 518q0 227 146.5 387t365.5 160q221 0 351 -149.5t130 -389.5q0 -23 -2 -49t-4 -39h-748q23 -123 112 -189.5t226 -66.5q92 0 189.5 31t189.5 86l6 -4l-73 -232q-90 -47 -170 -66.5t-176 -19.5q-250 0 -396.5 146.5t-146.5 394.5zM317 596h521q-10 129 -76.5 201.5 t-175.5 72.5t-181.5 -75.5t-87.5 -198.5z" />
<glyph unicode="f" horiz-adv-x="854" d="M74 838v198h176v133q0 178 98 280.5t270 102.5q55 0 99.5 -8t93.5 -28l35 -222l-4 -4q-57 29 -100.5 41t-88.5 12q-76 0 -120 -46t-44 -126v-135h332v-198h-329v-838h-242v838h-176z" />
<glyph unicode="g" horiz-adv-x="1282" d="M82 516q0 236 164 385.5t407 149.5q70 0 136.5 -12.5t142.5 -41.5l170 39h22v-919q0 -242 -147.5 -380t-405.5 -138q-106 0 -205.5 22.5t-201.5 71.5l-45 241l8 7q129 -70 231.5 -100.5t208.5 -30.5q145 0 231.5 80.5t86.5 220.5v82q-86 -84 -172 -122t-185 -38 q-193 0 -319.5 136t-126.5 347zM324 526q0 -133 77.5 -214t204.5 -81q70 0 136.5 26t142.5 83v467q-57 23 -111.5 33t-111.5 10q-145 0 -241.5 -91.5t-96.5 -232.5z" />
<glyph unicode="h" horiz-adv-x="1253" d="M158 0v1479l241 75v-704q82 109 167 158t192 49q164 0 261 -108.5t97 -293.5v-655h-244v618q0 106 -52 165t-148 59q-70 0 -130.5 -33t-142.5 -115v-694h-241z" />
<glyph unicode="i" horiz-adv-x="577" d="M133 1395q0 63 45 107t111 44t110.5 -44t44.5 -107t-45 -107.5t-110 -44.5q-66 0 -111 44t-45 108zM168 0v1036h242v-1036h-242z" />
<glyph unicode="j" horiz-adv-x="577" d="M-84 -190q27 -8 48.5 -11.5t43.5 -3.5q78 0 119 45t41 131v1065h242v-1056q0 -182 -90.5 -279.5t-256.5 -97.5q-31 0 -59.5 4t-52.5 10zM133 1395q0 63 45 107t111 44t110.5 -44t44.5 -107t-45 -107.5t-110 -44.5q-66 0 -111 44t-45 108z" />
<glyph unicode="k" horiz-adv-x="1165" d="M158 0v1479l241 75v-944h54l378 426h291v-6l-460 -495l493 -529v-6h-303l-399 442h-54v-442h-241z" />
<glyph unicode="l" horiz-adv-x="577" d="M168 0v1479l242 75v-1554h-242z" />
<glyph unicode="m" horiz-adv-x="1898" d="M158 0v1010l239 41v-193q80 104 161 151.5t179 47.5q111 0 194 -58.5t120 -162.5q86 117 172 169t192 52q158 0 251 -108.5t93 -293.5v-655h-241v618q0 104 -50.5 164t-140.5 60q-63 0 -119.5 -32t-130.5 -105q2 -8 2 -18.5v-31.5v-655h-241v618q0 104 -50.5 164 t-140.5 60q-63 0 -118.5 -31t-129.5 -106v-705h-241z" />
<glyph unicode="n" horiz-adv-x="1253" d="M158 0v1010l239 41v-203q84 111 169 160t192 49q164 0 261 -108.5t97 -293.5v-655h-244v618q0 106 -52 165t-148 59q-70 0 -130.5 -33t-142.5 -115v-694h-241z" />
<glyph unicode="o" horiz-adv-x="1261" d="M80 516q0 227 157.5 388t395.5 161q242 0 395.5 -156.5t153.5 -386.5q0 -229 -157.5 -390t-395.5 -161q-240 0 -394.5 158t-154.5 387zM322 516q0 -143 87 -238.5t220 -95.5q135 0 223 97.5t88 242.5q0 141 -87 235.5t-220 94.5q-135 0 -223 -96.5t-88 -239.5z" />
<glyph unicode="p" horiz-adv-x="1282" d="M158 -391v1401l239 41v-162q84 90 166 129t180 39q195 0 327 -148.5t132 -369.5q0 -238 -150.5 -396.5t-361.5 -158.5q-78 0 -148.5 25.5t-142.5 78.5v-479h-241zM399 262q63 -37 122 -54.5t120 -17.5q139 0 229.5 93.5t90.5 240.5q0 143 -83 232.5t-210 89.5 q-70 0 -133.5 -24.5t-135.5 -80.5v-479z" />
<glyph unicode="q" horiz-adv-x="1271" d="M82 489q0 246 165 404t408 158q66 0 132.5 -12.5t138.5 -39.5l166 37h22v-1427h-242v528q-84 -84 -164.5 -120.5t-179.5 -36.5q-190 0 -318 145t-128 364zM324 504q0 -141 78.5 -227.5t207.5 -86.5q68 0 129.5 23t132.5 74v522q-49 18 -98 26.5t-106 8.5q-150 0 -247 -95 t-97 -245z" />
<glyph unicode="r" horiz-adv-x="878" d="M158 0v1010l239 41v-263q115 154 191 209.5t160 55.5q16 0 30.5 -2t34.5 -7l16 -256q-16 4 -30.5 5.5t-30.5 1.5q-88 0 -174 -36t-195 -122v-637h-241z" />
<glyph unicode="s" horiz-adv-x="1042" d="M78 352l6 4q111 -86 230.5 -133t230.5 -47q82 0 132 30t50 77q0 51 -52 80.5t-206 66.5q-201 51 -279.5 123t-78.5 188q0 141 115.5 229.5t303.5 88.5q92 0 181.5 -23.5t167.5 -68.5v-230l-7 -4q-94 61 -187 94t-173 33t-126 -26.5t-46 -71.5q0 -49 52.5 -77.5 t199.5 -63.5q207 -49 285.5 -123t78.5 -203q0 -141 -120.5 -229.5t-311.5 -88.5q-111 0 -208 29t-197 90z" />
<glyph unicode="t" horiz-adv-x="937" d="M63 838v198h168v224l238 73v-297h383v-198h-383v-476q0 -86 41 -129t123 -43q53 0 107.5 23t111.5 70l6 -4l-45 -232q-51 -33 -114.5 -51.5t-131.5 -18.5q-160 0 -248 96.5t-88 274.5v490h-168z" />
<glyph unicode="u" horiz-adv-x="1253" d="M139 381v655h242v-620q0 -104 53 -162.5t148 -58.5q70 0 131 32.5t141 112.5v696h242v-1036h-240v188q-84 -111 -169 -159.5t-191 -48.5q-162 0 -259.5 108.5t-97.5 292.5z" />
<glyph unicode="v" horiz-adv-x="1200" d="M35 1036h264l295 -684l315 684h260l-532 -1063h-105z" />
<glyph unicode="w" horiz-adv-x="1810" d="M45 1036h256l231 -733l363 746h33l338 -746l256 733h247l-391 -1050h-202l-275 604l-291 -604h-202z" />
<glyph unicode="x" horiz-adv-x="1179" d="M45 0l399 530l-374 506h278l246 -340l244 340h272l-375 -501l398 -535h-281l-266 369l-269 -369h-272z" />
<glyph unicode="y" horiz-adv-x="1163" d="M39 1036h264l293 -710l270 710h260l-452 -1110q-66 -162 -166.5 -242.5t-237.5 -80.5q-47 0 -91 9t-87 28l-47 233l6 4q45 -27 87 -39t89 -12q78 0 130.5 40t86.5 124l29 65z" />
<glyph unicode="z" horiz-adv-x="1114" d="M49 31l594 805h-522v200h905l10 -30l-596 -807h604l-65 -199h-920z" />
<glyph unicode="{" horiz-adv-x="1034" d="M61 578v94l164 28q109 18 150 48t41 88q0 25 -9.5 54.5t-41.5 96.5q-43 88 -57.5 137.5t-14.5 92.5q0 137 105.5 218t287.5 81h256l29 -144h-223q-102 0 -155.5 -39t-53.5 -114q0 -27 9 -60t40 -104q37 -84 49 -129t12 -82q0 -78 -47 -129t-158 -90q111 -39 158 -90.5 t47 -128.5q0 -37 -12 -82t-49 -129q-31 -72 -40 -105t-9 -59q0 -74 54 -114t155 -40h223l-29 -143h-256q-182 0 -287.5 81t-105.5 218q0 43 14.5 92t57.5 137q33 68 42 97.5t9 54.5q0 57 -41 86.5t-150 48.5z" />
<glyph unicode="|" horiz-adv-x="790" d="M299 -266v1782h193v-1782h-193z" />
<glyph unicode="}" horiz-adv-x="1034" d="M63 -123h224q102 0 155.5 39t53.5 115q0 27 -9.5 59.5t-42.5 104.5q-37 84 -49 129t-12 82q0 78 48 129t159 90q-111 39 -159 90t-48 129q0 37 12.5 82t48.5 129q33 72 42.5 104.5t9.5 59.5q0 74 -54.5 113.5t-154.5 39.5h-224l29 144h256q180 0 285.5 -80t105.5 -219 q0 -43 -14 -92.5t-57 -137.5q-33 -68 -42.5 -97.5t-9.5 -53.5q0 -57 41 -87t150 -49l164 -28v-94l-164 -29q-109 -18 -150 -48t-41 -87q0 -25 9.5 -54.5t42.5 -97.5q43 -88 57 -137t14 -92q0 -139 -105.5 -219t-285.5 -80h-256z" />
<glyph unicode="~" d="M100 565q92 215 154.5 295t140.5 80q35 0 89.5 -24.5t172.5 -100.5q90 -55 125 -72.5t54 -17.5q35 0 67.5 42t95.5 167l129 -66q-92 -215 -154.5 -294.5t-139.5 -79.5q-35 0 -89.5 24.5t-173.5 99.5q-90 55 -124.5 73t-53.5 18q-35 0 -67.5 -42t-96.5 -167z" />
<glyph unicode="&#xa1;" horiz-adv-x="555" d="M115 1290q0 68 48 115t116 47t114.5 -47t46.5 -115t-47 -116t-114 -48q-68 0 -116 48.5t-48 115.5zM141 0v188l84 760h105l86 -760v-188h-275z" />
<glyph unicode="&#xa2;" horiz-adv-x="1114" d="M88 715q0 207 137 353t355 167l20 209h168l-20 -213q63 -8 120.5 -32.5t120.5 -70.5v-256h-4q-78 70 -138.5 105t-123.5 45l-59 -621q86 6 173 43t167 101l4 -2l-35 -246q-76 -49 -158 -75.5t-170 -31.5l-20 -200h-168l22 217q-180 43 -285.5 179t-105.5 329zM322 717 q0 -102 49 -179t137 -112l57 596q-111 -25 -177 -108.5t-66 -196.5z" />
<glyph unicode="&#xa3;" horiz-adv-x="1200" d="M92 596v162l213 4q-57 94 -80.5 161.5t-23.5 139.5q0 176 130 285.5t345 109.5q98 0 192.5 -25.5t194.5 -78.5l31 -262h-7q-109 74 -208 110.5t-189 36.5q-106 0 -169.5 -52t-63.5 -138q0 -53 22.5 -107.5t95.5 -173.5l406 6v-164l-326 -2q8 -31 11.5 -54.5t3.5 -45.5 q0 -66 -34 -132.5t-120 -158.5l594 2l-51 -219h-942l-11 76q223 217 270.5 285.5t47.5 136.5q0 29 -5 52t-20 52z" />
<glyph unicode="&#xa5;" horiz-adv-x="1314" d="M41 1434h287l336 -586l333 586h277l-420 -691h317v-143h-393v-145h393v-146h-393v-309h-241v309h-394v146h394v145h-394v143h318z" />
<glyph unicode="&#xa7;" horiz-adv-x="1329" d="M74 547q0 109 71.5 189.5t210.5 129.5q-61 49 -89.5 111.5t-28.5 140.5q0 154 120.5 247t317.5 93q117 0 225.5 -24.5t190.5 -69.5v-242h-5q-117 63 -218 94t-193 31q-88 0 -140.5 -38t-52.5 -99q0 -63 53.5 -101t196.5 -81q295 -88 408.5 -179.5t113.5 -234.5 q0 -109 -71.5 -189.5t-210.5 -129.5q59 -49 89 -111.5t30 -140.5q0 -152 -121 -246t-318 -94q-117 0 -220 25.5t-212 82.5l-43 264l4 5q131 -82 250 -124t221 -42q88 0 140.5 37.5t52.5 99.5q0 61 -53.5 100t-194.5 82q-297 90 -410.5 181.5t-113.5 232.5zM311 575 q0 -80 77 -131t306 -118q41 -12 73 -23.5t56 -21.5q100 45 147.5 94t47.5 110q0 80 -78 131.5t-305 118.5q-41 12 -73 23.5t-56 21.5q-100 -45 -147.5 -95.5t-47.5 -109.5z" />
<glyph unicode="&#xa8;" horiz-adv-x="1024" d="M143 1376q0 61 43 104.5t107 43.5q63 0 106 -43t43 -105q0 -63 -43 -106t-106 -43t-106.5 43t-43.5 106zM582 1376q0 61 43 104.5t106 43.5t106.5 -43t43.5 -105q0 -63 -43.5 -106t-106.5 -43t-106 43t-43 106z" />
<glyph unicode="&#xa9;" horiz-adv-x="1822" d="M86 715q0 164 63.5 313.5t180.5 263.5q117 113 268.5 174.5t314.5 61.5q166 0 315.5 -60.5t266.5 -173.5t179.5 -262t62.5 -313t-63.5 -313.5t-180.5 -264.5q-117 -113 -268.5 -174t-315.5 -61q-166 0 -315 60t-266 173t-179.5 262.5t-62.5 313.5zM154 719 q0 -313 222 -530.5t537 -217.5t535.5 216t220.5 528q0 313 -222.5 530t-537.5 217t-535 -216t-220 -527zM430 715q0 209 148.5 346t371.5 137q94 0 177 -29.5t157 -89.5v-186h-4q-80 74 -162 110.5t-164 36.5q-145 0 -244.5 -92t-99.5 -229q0 -141 98.5 -234.5t239.5 -93.5 q90 0 176 33t170 100l4 -2l-28 -180q-80 -57 -159 -81.5t-175 -24.5q-217 0 -361.5 135t-144.5 344z" />
<glyph unicode="&#xaa;" horiz-adv-x="1034" d="M135 389v139h742v-139h-742zM141 893q0 123 129 183.5t394 64.5q-2 78 -43 116.5t-119 38.5q-63 0 -131 -24.5t-142 -73.5l-6 2l35 176q66 37 133.5 54.5t145.5 17.5q152 0 231.5 -79t79.5 -230v-432h-180v118q-78 -66 -152 -97.5t-147 -31.5q-100 0 -164 55.5t-64 141.5 zM319 911q0 -37 26 -57t75 -20t109.5 20t134.5 61v127q-172 -8 -258.5 -41t-86.5 -90z" />
<glyph unicode="&#xab;" horiz-adv-x="1310" d="M82 496v43l498 514l86 -49l-304 -484l304 -487l-86 -49zM621 496v43l497 514l86 -49l-303 -484l303 -487l-86 -49z" />
<glyph unicode="&#xad;" horiz-adv-x="811" d="M123 455v223h565v-223h-565z" />
<glyph unicode="&#xae;" horiz-adv-x="1130" d="M98 1016q0 193 136.5 326t330.5 133q195 0 331 -132t136 -325q0 -190 -137 -323.5t-330 -133.5q-195 0 -331 132t-136 323zM154 1016q0 -174 118.5 -290t294.5 -116q174 0 292 118t118 288q0 176 -119 292.5t-295 116.5q-172 0 -290.5 -118.5t-118.5 -290.5zM381 766v528 h182q94 0 148.5 -45t54.5 -123q0 -55 -29.5 -95t-85.5 -58l183 -207h-134l-165 186h-46v-186h-108zM489 1034h60q49 0 77.5 22.5t28.5 63.5t-27.5 63.5t-74.5 22.5h-64v-172z" />
<glyph unicode="&#xaf;" horiz-adv-x="1024" d="M152 1280v168h720v-168h-720z" />
<glyph unicode="&#xb0;" horiz-adv-x="1079" d="M94 1018q0 188 128 316t319 128q188 0 316 -127t128 -313q0 -188 -128 -315t-318 -127q-188 0 -316.5 126t-128.5 312zM293 1022q0 -115 71.5 -193.5t178.5 -78.5q102 0 172.5 78.5t70.5 191.5q0 115 -71.5 194.5t-175.5 79.5q-102 0 -174 -79.5t-72 -192.5z" />
<glyph unicode="&#xb1;" d="M100 0v193h1028v-193h-1028zM102 821v205h404v408h217v-408h403v-205h-403v-409h-217v409h-404z" />
<glyph unicode="&#xb4;" horiz-adv-x="1024" d="M451 1233l170 360h309v-4l-365 -356h-114z" />
<glyph unicode="&#xb5;" horiz-adv-x="1273" d="M158 -391v1427h241v-620q0 -104 53.5 -163.5t147.5 -59.5q70 0 131.5 32.5t140.5 110.5v700h244v-1036h-182l-37 186q-78 -102 -149.5 -147t-153.5 -45q-74 0 -133.5 29t-104.5 86l29 -416v-84h-227z" />
<glyph unicode="&#xb6;" horiz-adv-x="1411" d="M76 932q0 227 174 364.5t452 137.5h529v-1434h-172v1221h-180v-1221h-150v455h-70q-264 0 -423.5 128t-159.5 349zM315 903q0 -141 99.5 -225t263.5 -84h51v627h-41q-174 0 -273.5 -83t-99.5 -235z" />
<glyph unicode="&#xb7;" horiz-adv-x="479" d="M76 565q0 68 48 117t116 49t117 -49t49 -117t-49 -116t-117 -48t-116 48.5t-48 115.5z" />
<glyph unicode="&#xb8;" horiz-adv-x="1024" d="M260 -287l6 6q51 -16 89 -22t77 -6q53 0 83 16.5t30 44.5q0 27 -25.5 40t-79.5 13q-25 0 -46 -1t-48 -5l-8 8l125 205h139l-74 -108q98 -6 146.5 -42t48.5 -104q0 -78 -71.5 -125t-192.5 -47q-35 0 -69 4t-75 15z" />
<glyph unicode="&#xba;" horiz-adv-x="1032" d="M109 1075q0 160 116.5 270.5t292.5 110.5q178 0 292 -108.5t114 -270.5t-117 -272.5t-293 -110.5q-178 0 -291.5 109.5t-113.5 271.5zM143 389v139h744v-139h-744zM295 1075q0 -96 61.5 -159.5t157.5 -63.5t158.5 64.5t62.5 160.5t-61.5 158.5t-155.5 62.5 q-98 0 -160.5 -63.5t-62.5 -159.5z" />
<glyph unicode="&#xbb;" horiz-adv-x="1310" d="M106 33l304 483l-304 485l87 50l497 -512v-43l-497 -512zM645 33l303 483l-303 485l86 50l498 -512v-43l-498 -512z" />
<glyph unicode="&#xbc;" horiz-adv-x="1689" d="M61 1043v186l394 223l20 -6v-862h-182v594zM248 -4l520 752l451 690h168l-520 -752l-451 -690h-168zM891 219l393 637h219v-545h137v-135h-137v-176h-172v176h-434zM1104 311h229v389z" />
<glyph unicode="&#xbd;" horiz-adv-x="1759" d="M61 1043v186l394 223l20 -6v-862h-182v594zM248 -4l520 752l451 690h168l-520 -752l-451 -690h-168zM1075 74l295 336q63 72 85 111.5t22 76.5q0 45 -31 74.5t-80 29.5q-59 0 -119.5 -37.5t-134.5 -121.5h-4l-18 184q63 70 136 102.5t159 32.5q125 0 199.5 -66.5 t74.5 -174.5q0 -70 -29.5 -130.5t-111.5 -152.5l-166 -184h360l-63 -154h-557z" />
<glyph unicode="&#xbe;" horiz-adv-x="1763" d="M59 815l4 2q72 -49 138.5 -72.5t126.5 -23.5q63 0 102 29t39 76q0 53 -59.5 85.5t-212.5 65.5v68q150 53 203 87t53 83q0 39 -31 60.5t-86 21.5t-116.5 -24.5t-131.5 -76.5h-4v168q66 43 132.5 62.5t141.5 19.5q127 0 203 -57t76 -154q0 -66 -42 -118t-126 -89 q88 -29 136 -84t48 -129q0 -106 -89 -174.5t-220 -68.5q-72 0 -131 15t-131 52zM321 -4l520 752l451 690h168l-520 -752l-451 -690h-168zM963 219l393 637h219v-545h137v-135h-137v-176h-172v176h-434zM1176 311h229v389z" />
<glyph unicode="&#xbf;" horiz-adv-x="999" d="M88 328q0 111 53.5 185.5t202.5 154.5q100 53 134 82.5t34 66.5q0 27 -10 55.5t-35 73.5h141q66 -72 87.5 -115t21.5 -92q0 -59 -41 -104t-176 -115q-104 -53 -140 -92t-36 -96q0 -61 47 -98t127 -37q98 0 193 48t218 161l4 -3v-256q-98 -86 -203.5 -126.5t-226.5 -40.5 q-180 0 -287.5 94t-107.5 254zM391 1288q0 68 47 116t115 48t116 -48t48 -116t-48 -115t-116 -47t-115 47.5t-47 114.5z" />
<glyph unicode="&#xc0;" horiz-adv-x="1638" d="M49 0l651 1440h256l631 -1440h-278l-142 334h-704l-148 -334h-266zM399 1872v4h334l164 -301h-129zM555 553h522l-256 604z" />
<glyph unicode="&#xc1;" horiz-adv-x="1638" d="M49 0l651 1440h256l631 -1440h-278l-142 334h-704l-148 -334h-266zM555 553h522l-256 604zM753 1575l164 301h334v-4l-369 -297h-129z" />
<glyph unicode="&#xc2;" horiz-adv-x="1638" d="M49 0l651 1440h256l631 -1440h-278l-142 334h-704l-148 -334h-266zM448 1575v4l260 297h234l260 -297v-4h-137l-238 143l-238 -143h-141zM555 553h522l-256 604z" />
<glyph unicode="&#xc3;" horiz-adv-x="1638" d="M49 0l651 1440h256l631 -1440h-278l-142 334h-704l-148 -334h-266zM422 1638q92 137 144 183.5t116 46.5q27 0 63.5 -12.5t114.5 -51.5q61 -33 86.5 -42t42.5 -9q29 0 54.5 20.5t94.5 100.5l97 -74q-92 -137 -144.5 -183t-115.5 -46q-27 0 -63 12t-114 51 q-61 33 -87.5 42.5t-43.5 9.5q-29 0 -54.5 -20.5t-94.5 -100.5zM555 553h522l-256 604z" />
<glyph unicode="&#xc4;" horiz-adv-x="1638" d="M49 0l651 1440h256l631 -1440h-278l-142 334h-704l-148 -334h-266zM454 1718q0 63 44.5 107.5t107.5 44.5t107 -44t44 -108q0 -63 -44 -106t-107 -43t-107.5 43t-44.5 106zM555 553h522l-256 604zM893 1718q0 63 44 107.5t107 44.5t107.5 -44t44.5 -108q0 -63 -44 -106 t-108 -43q-63 0 -107 43t-44 106z" />
<glyph unicode="&#xc5;" horiz-adv-x="1638" d="M49 0l604 1335q-43 37 -65.5 88.5t-22.5 106.5q0 106 77 183t185 77q111 0 188 -76t77 -184q0 -57 -24 -107.5t-67 -87.5l586 -1335h-278l-142 334h-704l-148 -334h-266zM555 553h522l-258 606zM670 1530q0 -66 46 -113t111 -47q66 0 112 47t46 113q0 68 -46 115t-112 47 t-111.5 -47.5t-45.5 -114.5z" />
<glyph unicode="&#xc6;" horiz-adv-x="2078" d="M12 0l918 1434h973l61 -228h-655v-370h544v-218h-544v-391h661l-61 -227h-856v334h-561l-216 -334h-264zM633 553h420v659z" />
<glyph unicode="&#xc7;" horiz-adv-x="1458" d="M102 717q0 315 216.5 528t529.5 213q137 0 256 -43t219 -127v-295h-4q-115 113 -231.5 169.5t-235.5 56.5q-201 0 -343 -144.5t-142 -351.5q0 -219 139 -363.5t342 -144.5q129 0 255 55.5t245 163.5l4 -4l-37 -287q-102 -76 -206.5 -116.5t-217.5 -49.5l-57 -83 q98 -6 146 -42t48 -104q0 -78 -71.5 -125t-192.5 -47q-35 0 -68.5 4t-74.5 14l-56 109l6 6q51 -16 89 -22t77 -6q53 0 83 16t30 45q0 27 -25.5 40t-79.5 13q-25 0 -46 -1t-48 -5l-8 8l111 180q-287 27 -469.5 231t-182.5 509z" />
<glyph unicode="&#xc8;" horiz-adv-x="1214" d="M186 0v1434h850l62 -228h-654v-370h545v-218h-545v-391h660l-62 -227h-856zM209 1872v4h334l164 -301h-129z" />
<glyph unicode="&#xc9;" horiz-adv-x="1214" d="M186 0v1434h850l62 -228h-654v-370h545v-218h-545v-391h660l-62 -227h-856zM563 1575l164 301h334v-4l-369 -297h-129z" />
<glyph unicode="&#xca;" horiz-adv-x="1214" d="M186 0v1434h850l62 -228h-654v-370h545v-218h-545v-391h660l-62 -227h-856zM258 1575v4l260 297h234l260 -297v-4h-137l-238 143l-238 -143h-141z" />
<glyph unicode="&#xcb;" horiz-adv-x="1214" d="M186 0v1434h850l62 -228h-654v-370h545v-218h-545v-391h660l-62 -227h-856zM264 1718q0 63 44.5 107.5t107.5 44.5t107 -44t44 -108q0 -63 -44 -106t-107 -43t-107.5 43t-44.5 106zM703 1718q0 63 44 107.5t107 44.5t107.5 -44t44.5 -108q0 -63 -44 -106t-108 -43 q-63 0 -107 43t-44 106z" />
<glyph unicode="&#xcc;" horiz-adv-x="651" d="M-100 1872v4h334l164 -301h-129zM197 0v1434h258v-1434h-258z" />
<glyph unicode="&#xcd;" horiz-adv-x="651" d="M197 0v1434h258v-1434h-258zM254 1575l164 301h334v-4l-369 -297h-129z" />
<glyph unicode="&#xce;" horiz-adv-x="651" d="M-51 1575v4l260 297h234l260 -297v-4h-137l-238 143l-238 -143h-141zM197 0v1434h258v-1434h-258z" />
<glyph unicode="&#xcf;" horiz-adv-x="651" d="M-45 1718q0 63 44.5 107.5t107.5 44.5t107 -44t44 -108q0 -63 -44 -106t-107 -43t-107.5 43t-44.5 106zM197 0v1434h258v-1434h-258zM394 1718q0 63 44 107.5t107 44.5t107.5 -44t44.5 -108q0 -63 -44 -106t-108 -43q-63 0 -107 43t-44 106z" />
<glyph unicode="&#xd0;" horiz-adv-x="1644" d="M47 639v180h184v615h492q379 0 598 -191.5t219 -521.5q0 -324 -226 -522.5t-591 -198.5h-492v639h-184zM485 231h242q244 0 396.5 133.5t152.5 352.5q0 227 -148.5 356t-408.5 129h-234v-385h357v-176h-357v-410z" />
<glyph unicode="&#xd1;" horiz-adv-x="1683" d="M186 0v1434h244l819 -930l-2 930h250v-1442h-127l-936 1063l2 -1055h-250zM439 1638q92 137 144 183.5t116 46.5q27 0 63.5 -12.5t114.5 -51.5q61 -33 86.5 -42t42.5 -9q29 0 54.5 20.5t94.5 100.5l97 -74q-92 -137 -144.5 -183t-115.5 -46q-27 0 -63 12t-114 51 q-61 33 -87.5 42.5t-43.5 9.5q-29 0 -54.5 -20.5t-94.5 -100.5z" />
<glyph unicode="&#xd2;" horiz-adv-x="1712" d="M102 715q0 315 218.5 531t537.5 216q322 0 538 -214t216 -529t-218 -531.5t-540 -216.5t-537 214t-215 530zM367 719q0 -215 141 -362.5t346 -147.5t348.5 147.5t143.5 358.5q0 213 -144.5 361.5t-351.5 148.5q-203 0 -343 -146.5t-140 -359.5zM430 1882v4h334l164 -301 h-129z" />
<glyph unicode="&#xd3;" horiz-adv-x="1712" d="M102 715q0 315 218.5 531t537.5 216q322 0 538 -214t216 -529t-218 -531.5t-540 -216.5t-537 214t-215 530zM367 719q0 -215 141 -362.5t346 -147.5t348.5 147.5t143.5 358.5q0 213 -144.5 361.5t-351.5 148.5q-203 0 -343 -146.5t-140 -359.5zM784 1585l164 301h334v-4 l-369 -297h-129z" />
<glyph unicode="&#xd4;" horiz-adv-x="1712" d="M102 715q0 315 218.5 531t537.5 216q322 0 538 -214t216 -529t-218 -531.5t-540 -216.5t-537 214t-215 530zM367 719q0 -215 141 -362.5t346 -147.5t348.5 147.5t143.5 358.5q0 213 -144.5 361.5t-351.5 148.5q-203 0 -343 -146.5t-140 -359.5zM479 1585v4l260 297h234 l260 -297v-4h-137l-238 143l-238 -143h-141z" />
<glyph unicode="&#xd5;" horiz-adv-x="1712" d="M102 715q0 315 218.5 531t537.5 216q322 0 538 -214t216 -529t-218 -531.5t-540 -216.5t-537 214t-215 530zM367 719q0 -215 141 -362.5t346 -147.5t348.5 147.5t143.5 358.5q0 213 -144.5 361.5t-351.5 148.5q-203 0 -343 -146.5t-140 -359.5zM453 1648 q92 137 144 183.5t116 46.5q27 0 63.5 -12.5t114.5 -51.5q61 -33 86.5 -42t42.5 -9q29 0 54.5 20.5t94.5 100.5l97 -74q-92 -137 -144.5 -183t-115.5 -46q-27 0 -63 12t-114 51q-61 33 -87.5 42.5t-43.5 9.5q-29 0 -54.5 -20.5t-94.5 -100.5z" />
<glyph unicode="&#xd6;" horiz-adv-x="1712" d="M102 715q0 315 218.5 531t537.5 216q322 0 538 -214t216 -529t-218 -531.5t-540 -216.5t-537 214t-215 530zM367 719q0 -215 141 -362.5t346 -147.5t348.5 147.5t143.5 358.5q0 213 -144.5 361.5t-351.5 148.5q-203 0 -343 -146.5t-140 -359.5zM485 1728q0 63 44.5 107.5 t107.5 44.5t107 -44t44 -108q0 -63 -44 -106t-107 -43t-107.5 43t-44.5 106zM924 1728q0 63 44 107.5t107 44.5t107.5 -44t44.5 -108q0 -63 -44 -106t-108 -43q-63 0 -107 43t-44 106z" />
<glyph unicode="&#xd7;" d="M127 379l342 340l-342 338l152 151l335 -344l338 344l150 -151l-342 -338l342 -338l-152 -152l-336 344l-338 -344z" />
<glyph unicode="&#xd8;" horiz-adv-x="1712" d="M57 -88l248 293q-98 102 -150.5 234t-52.5 276q0 315 218.5 531t537.5 216q113 0 217.5 -30.5t194.5 -88.5l151 179h234l-246 -291q98 -104 150.5 -236.5t52.5 -275.5q0 -315 -218 -531.5t-540 -216.5q-113 0 -217.5 31t-194.5 88l-149 -178h-236zM356 707q0 -92 28 -175 t79 -149l655 784q-57 33 -121.5 50.5t-134.5 17.5q-215 0 -360.5 -151.5t-145.5 -376.5zM596 266q57 -33 121.5 -50t132.5 -17q215 0 360.5 151.5t145.5 376.5q0 92 -28 175t-79 149z" />
<glyph unicode="&#xd9;" horiz-adv-x="1615" d="M170 639v795h258v-799q0 -203 100.5 -313.5t282.5 -110.5t282.5 112.5t100.5 317.5v793h252v-795q0 -313 -168 -488.5t-471 -175.5q-301 0 -469 175.5t-168 488.5zM381 1872v4h334l164 -301h-129z" />
<glyph unicode="&#xda;" horiz-adv-x="1615" d="M170 639v795h258v-799q0 -203 100.5 -313.5t282.5 -110.5t282.5 112.5t100.5 317.5v793h252v-795q0 -313 -168 -488.5t-471 -175.5q-301 0 -469 175.5t-168 488.5zM735 1575l164 301h334v-4l-369 -297h-129z" />
<glyph unicode="&#xdb;" horiz-adv-x="1615" d="M170 639v795h258v-799q0 -203 100.5 -313.5t282.5 -110.5t282.5 112.5t100.5 317.5v793h252v-795q0 -313 -168 -488.5t-471 -175.5q-301 0 -469 175.5t-168 488.5zM430 1575v4l260 297h234l260 -297v-4h-137l-238 143l-238 -143h-141z" />
<glyph unicode="&#xdc;" horiz-adv-x="1615" d="M170 639v795h258v-799q0 -203 100.5 -313.5t282.5 -110.5t282.5 112.5t100.5 317.5v793h252v-795q0 -313 -168 -488.5t-471 -175.5q-301 0 -469 175.5t-168 488.5zM436 1718q0 63 44.5 107.5t107.5 44.5t107 -44t44 -108q0 -63 -44 -106t-107 -43t-107.5 43t-44.5 106z M875 1718q0 63 44 107.5t107 44.5t107.5 -44t44.5 -108q0 -63 -44 -106t-108 -43q-63 0 -107 43t-44 106z" />
<glyph unicode="&#xdd;" horiz-adv-x="1398" d="M18 1434h304l385 -584l383 584h292l-553 -813v-621h-258v616zM628 1575l164 301h334v-4l-369 -297h-129z" />
<glyph unicode="&#xde;" horiz-adv-x="1273" d="M186 0v1434h258v-250h220q242 0 383 -120t141 -329q0 -211 -152.5 -339t-398.5 -128h-193v-268h-258zM442 487h191q137 0 216 64.5t79 179.5q0 109 -76 172.5t-205 63.5h-205v-480z" />
<glyph unicode="&#xdf;" horiz-adv-x="1404" d="M74 838v198h176v47q0 217 124 343t341 126q195 0 315.5 -109.5t120.5 -279.5q0 -106 -44 -191t-146 -173q190 -74 272 -175t82 -257q0 -172 -116 -278.5t-302 -106.5q-70 0 -122 9t-116 34l-36 235l6 4q78 -41 136 -59.5t116 -18.5q84 0 137 52.5t53 132.5 q0 113 -99.5 191.5t-307.5 131.5l-21 70q156 113 210 192.5t54 176.5q0 92 -56 149t-144 57q-100 0 -157.5 -66.5t-57.5 -178.5v-1094h-242v838h-176z" />
<glyph unicode="&#xe0;" horiz-adv-x="1171" d="M96 262q0 174 173 260t526 90q-2 115 -58.5 173.5t-163.5 58.5q-86 0 -177 -36t-185 -106l-6 3l45 245q86 53 175 79t191 26q203 0 310.5 -113t107.5 -328v-589l-237 -41v170q-109 -86 -206 -128t-192 -42q-137 0 -220 75.5t-83 202.5zM196 1589v4h309l170 -360h-114z M328 281q0 -51 35.5 -81t101.5 -30q61 0 142 28.5t188 86.5v192q-236 -16 -351.5 -63t-115.5 -133z" />
<glyph unicode="&#xe1;" horiz-adv-x="1171" d="M96 262q0 174 173 260t526 90q-2 115 -58.5 173.5t-163.5 58.5q-86 0 -177 -36t-185 -106l-6 3l45 245q86 53 175 79t191 26q203 0 310.5 -113t107.5 -328v-589l-237 -41v170q-109 -86 -206 -128t-192 -42q-137 0 -220 75.5t-83 202.5zM328 281q0 -51 35.5 -81t101.5 -30 q61 0 142 28.5t188 86.5v192q-236 -16 -351.5 -63t-115.5 -133zM553 1233l170 360h309v-4l-365 -356h-114z" />
<glyph unicode="&#xe2;" horiz-adv-x="1171" d="M96 262q0 174 173 260t526 90q-2 115 -58.5 173.5t-163.5 58.5q-86 0 -177 -36t-185 -106l-6 3l45 245q86 53 175 79t191 26q203 0 310.5 -113t107.5 -328v-589l-237 -41v170q-109 -86 -206 -128t-192 -42q-137 0 -220 75.5t-83 202.5zM241 1233v4l267 356h212l267 -356 v-4h-117l-254 186l-256 -186h-119zM328 281q0 -51 35.5 -81t101.5 -30q61 0 142 28.5t188 86.5v192q-236 -16 -351.5 -63t-115.5 -133z" />
<glyph unicode="&#xe3;" horiz-adv-x="1171" d="M96 262q0 174 173 260t526 90q-2 115 -58.5 173.5t-163.5 58.5q-86 0 -177 -36t-185 -106l-6 3l45 245q86 53 175 79t191 26q203 0 310.5 -113t107.5 -328v-589l-237 -41v170q-109 -86 -206 -128t-192 -42q-137 0 -220 75.5t-83 202.5zM202 1290q100 168 150.5 218.5 t114.5 50.5q27 0 62.5 -15.5t115.5 -62.5q61 -37 85.5 -48.5t41.5 -11.5q23 0 43 18.5t100 123.5l111 -70q-98 -166 -149.5 -216t-115.5 -50q-27 0 -62.5 15t-115.5 61q-61 37 -85.5 48t-41.5 11q-23 0 -45 -20.5t-98 -120.5zM328 281q0 -51 35.5 -81t101.5 -30 q61 0 142 28.5t188 86.5v192q-236 -16 -351.5 -63t-115.5 -133z" />
<glyph unicode="&#xe4;" horiz-adv-x="1171" d="M96 262q0 174 173 260t526 90q-2 115 -58.5 173.5t-163.5 58.5q-86 0 -177 -36t-185 -106l-6 3l45 245q86 53 175 79t191 26q203 0 310.5 -113t107.5 -328v-589l-237 -41v170q-109 -86 -206 -128t-192 -42q-137 0 -220 75.5t-83 202.5zM245 1376q0 61 43 104.5t107 43.5 q63 0 106 -43t43 -105q0 -63 -43 -106t-106 -43t-106.5 43t-43.5 106zM328 281q0 -51 35.5 -81t101.5 -30q61 0 142 28.5t188 86.5v192q-236 -16 -351.5 -63t-115.5 -133zM684 1376q0 61 43 104.5t106 43.5t106.5 -43t43.5 -105q0 -63 -43.5 -106t-106.5 -43t-106 43 t-43 106z" />
<glyph unicode="&#xe5;" horiz-adv-x="1171" d="M96 262q0 174 173 260t526 90q-2 115 -58.5 173.5t-163.5 58.5q-86 0 -177 -36t-185 -106l-6 3l45 245q86 53 175 79t191 26q203 0 310.5 -113t107.5 -328v-589l-237 -41v170q-109 -86 -206 -128t-192 -42q-137 0 -220 75.5t-83 202.5zM328 281q0 -51 35.5 -81t101.5 -30 q61 0 142 28.5t188 86.5v192q-236 -16 -351.5 -63t-115.5 -133zM354 1483q0 106 75.5 182t184.5 76t184.5 -76t75.5 -182q0 -109 -75.5 -184.5t-184.5 -75.5t-184.5 75.5t-75.5 184.5zM460 1483q0 -68 45.5 -115t108.5 -47t108.5 47t45.5 115q0 66 -45.5 112.5t-108.5 46.5 t-108.5 -47t-45.5 -112z" />
<glyph unicode="&#xe6;" horiz-adv-x="1865" d="M96 262q0 174 173 260t526 90q-2 115 -58.5 173.5t-163.5 58.5q-86 0 -177 -36t-185 -106l-6 3l45 245q84 53 174 79t190 26q113 0 197 -37t137 -111q70 76 163 117t198 41q219 0 347 -149.5t128 -389.5q0 -23 -2 -49t-4 -39h-750q23 -121 112 -188.5t228 -67.5 q90 0 188.5 30t192.5 87l6 -4l-76 -232q-90 -47 -169.5 -66.5t-176.5 -19.5q-141 0 -253.5 52.5t-184.5 150.5q-131 -102 -247 -149t-230 -47q-145 0 -233.5 74.5t-88.5 203.5zM328 281q0 -51 36.5 -81t100.5 -30q74 0 162 35t202 108q-14 37 -21 78t-9 86 q-238 -16 -354.5 -63t-116.5 -133zM1028 596h522q-12 129 -80 201.5t-174 72.5q-109 0 -181.5 -75.5t-86.5 -198.5z" />
<glyph unicode="&#xe7;" horiz-adv-x="1093" d="M80 516q0 233 156.5 388t396.5 155q100 0 184 -27.5t160 -87.5v-270h-6q-90 86 -171 126t-161 40q-135 0 -224 -92.5t-89 -229.5q0 -141 85 -231t218 -90q88 0 185 39.5t177 105.5l8 -4l-36 -254q-68 -45 -143 -71.5t-154 -35.5l-58 -83q98 -6 146.5 -42t48.5 -104 q0 -78 -72 -125t-192 -47q-35 0 -69 4t-75 14l-55 109l6 6q51 -16 89 -22t77 -6q53 0 83 16t30 45q0 27 -26 40t-79 13q-25 0 -46 -1t-48 -5l-8 8l112 183q-205 27 -327.5 173t-122.5 363z" />
<glyph unicode="&#xe8;" horiz-adv-x="1153" d="M80 518q0 227 146.5 387t365.5 160q221 0 351 -149.5t130 -389.5q0 -23 -2 -49t-4 -39h-748q23 -123 112 -189.5t226 -66.5q92 0 189.5 31t189.5 86l6 -4l-73 -232q-90 -47 -170 -66.5t-176 -19.5q-250 0 -396.5 146.5t-146.5 394.5zM180 1599v4h309l170 -360h-114z M317 596h521q-10 129 -76.5 201.5t-175.5 72.5t-181.5 -75.5t-87.5 -198.5z" />
<glyph unicode="&#xe9;" horiz-adv-x="1153" d="M80 518q0 227 146.5 387t365.5 160q221 0 351 -149.5t130 -389.5q0 -23 -2 -49t-4 -39h-748q23 -123 112 -189.5t226 -66.5q92 0 189.5 31t189.5 86l6 -4l-73 -232q-90 -47 -170 -66.5t-176 -19.5q-250 0 -396.5 146.5t-146.5 394.5zM317 596h521q-10 129 -76.5 201.5 t-175.5 72.5t-181.5 -75.5t-87.5 -198.5zM537 1243l170 360h309v-4l-365 -356h-114z" />
<glyph unicode="&#xea;" horiz-adv-x="1153" d="M80 518q0 227 146.5 387t365.5 160q221 0 351 -149.5t130 -389.5q0 -23 -2 -49t-4 -39h-748q23 -123 112 -189.5t226 -66.5q92 0 189.5 31t189.5 86l6 -4l-73 -232q-90 -47 -170 -66.5t-176 -19.5q-250 0 -396.5 146.5t-146.5 394.5zM225 1243v4l267 356h212l267 -356v-4 h-117l-254 186l-256 -186h-119zM317 596h521q-10 129 -76.5 201.5t-175.5 72.5t-181.5 -75.5t-87.5 -198.5z" />
<glyph unicode="&#xeb;" horiz-adv-x="1153" d="M80 518q0 227 146.5 387t365.5 160q221 0 351 -149.5t130 -389.5q0 -23 -2 -49t-4 -39h-748q23 -123 112 -189.5t226 -66.5q92 0 189.5 31t189.5 86l6 -4l-73 -232q-90 -47 -170 -66.5t-176 -19.5q-250 0 -396.5 146.5t-146.5 394.5zM229 1386q0 61 43 104.5t107 43.5 q63 0 106 -43t43 -105q0 -63 -43 -106t-106 -43t-106.5 43t-43.5 106zM317 596h521q-10 129 -76.5 201.5t-175.5 72.5t-181.5 -75.5t-87.5 -198.5zM668 1386q0 61 43 104.5t106 43.5t106.5 -43t43.5 -105q0 -63 -43.5 -106t-106.5 -43t-106 43t-43 106z" />
<glyph unicode="&#xec;" horiz-adv-x="577" d="M-129 1589v4h309l170 -360h-114zM168 0v1036h242v-1036h-242z" />
<glyph unicode="&#xed;" horiz-adv-x="577" d="M168 0v1036h242v-1036h-242zM228 1233l170 360h309v-4l-365 -356h-114z" />
<glyph unicode="&#xee;" horiz-adv-x="577" d="M-84 1233v4l267 356h212l267 -356v-4h-117l-254 186l-256 -186h-119zM168 0v1036h242v-1036h-242z" />
<glyph unicode="&#xef;" horiz-adv-x="577" d="M-80 1376q0 61 43 104.5t107 43.5q63 0 106 -43t43 -105q0 -63 -43 -106t-106 -43t-106.5 43t-43.5 106zM168 0v1036h242v-1036h-242zM359 1376q0 61 43 104.5t106 43.5t106.5 -43t43.5 -105q0 -63 -43.5 -106t-106.5 -43t-106 43t-43 106z" />
<glyph unicode="&#xf0;" horiz-adv-x="1239" d="M82 467q0 205 138 347t343 142q98 0 180 -31.5t152 -95.5q-39 92 -111.5 180.5t-199.5 190.5l-154 -133l-96 96l145 121q-33 27 -95 71t-75 54l140 145q66 -45 108.5 -76.5t77.5 -58.5l158 135l96 -94l-150 -127q209 -184 306.5 -370.5t97.5 -403.5q0 -143 -39 -250.5 t-125 -193.5q-72 -70 -168 -107t-209 -37q-227 0 -373.5 144.5t-146.5 351.5zM324 469q0 -123 79.5 -205t202.5 -82q127 0 212 85t85 208q0 127 -80 206t-209 79t-209.5 -81t-80.5 -210z" />
<glyph unicode="&#xf1;" horiz-adv-x="1253" d="M158 0v1010l239 41v-203q84 111 169 160t192 49q164 0 261 -108.5t97 -293.5v-655h-244v618q0 106 -52 165t-148 59q-70 0 -130.5 -33t-142.5 -115v-694h-241zM225 1290q100 168 150.5 218.5t114.5 50.5q27 0 62.5 -15.5t115.5 -62.5q61 -37 85.5 -48.5t41.5 -11.5 q23 0 43 18.5t100 123.5l111 -70q-98 -166 -149.5 -216t-115.5 -50q-27 0 -62.5 15t-115.5 61q-61 37 -85.5 48t-41.5 11q-23 0 -45 -20.5t-98 -120.5z" />
<glyph unicode="&#xf2;" horiz-adv-x="1261" d="M80 516q0 227 157.5 388t395.5 161q242 0 395.5 -156.5t153.5 -386.5q0 -229 -157.5 -390t-395.5 -161q-240 0 -394.5 158t-154.5 387zM213 1599v4h309l170 -360h-114zM322 516q0 -143 87 -238.5t220 -95.5q135 0 223 97.5t88 242.5q0 141 -87 235.5t-220 94.5 q-135 0 -223 -96.5t-88 -239.5z" />
<glyph unicode="&#xf3;" horiz-adv-x="1261" d="M80 516q0 227 157.5 388t395.5 161q242 0 395.5 -156.5t153.5 -386.5q0 -229 -157.5 -390t-395.5 -161q-240 0 -394.5 158t-154.5 387zM322 516q0 -143 87 -238.5t220 -95.5q135 0 223 97.5t88 242.5q0 141 -87 235.5t-220 94.5q-135 0 -223 -96.5t-88 -239.5zM570 1243 l170 360h309v-4l-365 -356h-114z" />
<glyph unicode="&#xf4;" horiz-adv-x="1261" d="M80 516q0 227 157.5 388t395.5 161q242 0 395.5 -156.5t153.5 -386.5q0 -229 -157.5 -390t-395.5 -161q-240 0 -394.5 158t-154.5 387zM258 1243v4l267 356h212l267 -356v-4h-117l-254 186l-256 -186h-119zM322 516q0 -143 87 -238.5t220 -95.5q135 0 223 97.5t88 242.5 q0 141 -87 235.5t-220 94.5q-135 0 -223 -96.5t-88 -239.5z" />
<glyph unicode="&#xf5;" horiz-adv-x="1261" d="M80 516q0 227 157.5 388t395.5 161q242 0 395.5 -156.5t153.5 -386.5q0 -229 -157.5 -390t-395.5 -161q-240 0 -394.5 158t-154.5 387zM219 1300q100 168 150.5 218.5t114.5 50.5q27 0 62.5 -15.5t115.5 -62.5q61 -37 85.5 -48.5t41.5 -11.5q23 0 43 18.5t100 123.5 l111 -70q-98 -166 -149.5 -216t-115.5 -50q-27 0 -62.5 15t-115.5 61q-61 37 -85.5 48t-41.5 11q-23 0 -45 -20.5t-98 -120.5zM322 516q0 -143 87 -238.5t220 -95.5q135 0 223 97.5t88 242.5q0 141 -87 235.5t-220 94.5q-135 0 -223 -96.5t-88 -239.5z" />
<glyph unicode="&#xf6;" horiz-adv-x="1261" d="M80 516q0 227 157.5 388t395.5 161q242 0 395.5 -156.5t153.5 -386.5q0 -229 -157.5 -390t-395.5 -161q-240 0 -394.5 158t-154.5 387zM262 1386q0 61 43 104.5t107 43.5q63 0 106 -43t43 -105q0 -63 -43 -106t-106 -43t-106.5 43t-43.5 106zM322 516q0 -143 87 -238.5 t220 -95.5q135 0 223 97.5t88 242.5q0 141 -87 235.5t-220 94.5q-135 0 -223 -96.5t-88 -239.5zM701 1386q0 61 43 104.5t106 43.5t106.5 -43t43.5 -105q0 -63 -43.5 -106t-106.5 -43t-106 43t-43 106z" />
<glyph unicode="&#xf7;" d="M96 616v201l518 -2l519 2v-201l-519 2zM455 293q0 66 47 112t112 46q66 0 113 -46.5t47 -111.5q0 -66 -47 -113t-113 -47t-112.5 47t-46.5 113zM455 1139q0 66 47 112.5t112 46.5q66 0 113 -47t47 -112q0 -66 -47 -112t-113 -46t-112.5 46t-46.5 112z" />
<glyph unicode="&#xf8;" horiz-adv-x="1261" d="M41 -84l184 227q-70 74 -107.5 171.5t-37.5 201.5q0 227 157.5 388t395.5 161q76 0 146.5 -18.5t131.5 -53.5l101 127h209l-183 -225q70 -76 107 -173.5t37 -199.5q0 -229 -158 -390t-395 -161q-76 0 -146.5 18.5t-132.5 53.5l-100 -127h-209zM311 506q0 -55 14.5 -105.5 t43.5 -91.5l411 520q-33 16 -67.5 24.5t-71.5 8.5q-147 0 -238.5 -100t-91.5 -256zM481 207q33 -16 68 -24.5t72 -8.5q145 0 237 100.5t92 255.5q0 55 -14 105.5t-43 91.5z" />
<glyph unicode="&#xf9;" horiz-adv-x="1253" d="M139 381v655h242v-620q0 -104 53 -162.5t148 -58.5q70 0 131 32.5t141 112.5v696h242v-1036h-240v188q-84 -111 -169 -159.5t-191 -48.5q-162 0 -259.5 108.5t-97.5 292.5zM200 1589v4h309l170 -360h-114z" />
<glyph unicode="&#xfa;" horiz-adv-x="1253" d="M139 381v655h242v-620q0 -104 53 -162.5t148 -58.5q70 0 131 32.5t141 112.5v696h242v-1036h-240v188q-84 -111 -169 -159.5t-191 -48.5q-162 0 -259.5 108.5t-97.5 292.5zM557 1233l170 360h309v-4l-365 -356h-114z" />
<glyph unicode="&#xfb;" horiz-adv-x="1253" d="M139 381v655h242v-620q0 -104 53 -162.5t148 -58.5q70 0 131 32.5t141 112.5v696h242v-1036h-240v188q-84 -111 -169 -159.5t-191 -48.5q-162 0 -259.5 108.5t-97.5 292.5zM245 1233v4l267 356h212l267 -356v-4h-117l-254 186l-256 -186h-119z" />
<glyph unicode="&#xfc;" horiz-adv-x="1253" d="M139 381v655h242v-620q0 -104 53 -162.5t148 -58.5q70 0 131 32.5t141 112.5v696h242v-1036h-240v188q-84 -111 -169 -159.5t-191 -48.5q-162 0 -259.5 108.5t-97.5 292.5zM249 1376q0 61 43 104.5t107 43.5q63 0 106 -43t43 -105q0 -63 -43 -106t-106 -43t-106.5 43 t-43.5 106zM688 1376q0 61 43 104.5t106 43.5t106.5 -43t43.5 -105q0 -63 -43.5 -106t-106.5 -43t-106 43t-43 106z" />
<glyph unicode="&#xfd;" horiz-adv-x="1163" d="M39 1036h264l293 -710l270 710h260l-452 -1110q-66 -162 -166.5 -242.5t-237.5 -80.5q-47 0 -91 9t-87 28l-47 233l6 4q45 -27 87 -39t89 -12q78 0 130.5 40t86.5 124l29 65zM523 1233l170 360h309v-4l-365 -356h-114z" />
<glyph unicode="&#xfe;" horiz-adv-x="1282" d="M158 -391v1870l241 75v-663q82 88 164 127t180 39q195 0 327 -148.5t132 -369.5q0 -240 -150.5 -397.5t-363.5 -157.5q-76 0 -147.5 25.5t-141.5 78.5v-481zM399 262q63 -37 122 -54.5t120 -17.5q139 0 229.5 93.5t90.5 240.5q0 143 -83 232.5t-210 89.5 q-70 0 -133.5 -24.5t-135.5 -80.5v-479z" />
<glyph unicode="&#xff;" horiz-adv-x="1163" d="M39 1036h264l293 -710l270 710h260l-452 -1110q-66 -162 -166.5 -242.5t-237.5 -80.5q-47 0 -91 9t-87 28l-47 233l6 4q45 -27 87 -39t89 -12q78 0 130.5 40t86.5 124l29 65zM215 1376q0 61 43 104.5t107 43.5q63 0 106 -43t43 -105q0 -63 -43 -106t-106 -43t-106.5 43 t-43.5 106zM654 1376q0 61 43 104.5t106 43.5t106.5 -43t43.5 -105q0 -63 -43.5 -106t-106.5 -43t-106 43t-43 106z" />
<glyph unicode="&#x152;" horiz-adv-x="2093" d="M102 713q0 324 226.5 522.5t591.5 198.5h997l61 -228h-655v-370h545v-218h-545v-391h662l-62 -227h-1003q-379 0 -598.5 191.5t-219.5 521.5zM369 717q0 -227 149.5 -357.5t409.5 -130.5h139v975h-145q-248 0 -400.5 -133t-152.5 -354z" />
<glyph unicode="&#x153;" horiz-adv-x="2009" d="M80 516q0 227 154.5 387t386.5 160q137 0 249.5 -55.5t186.5 -157.5q70 104 174 159.5t229 55.5q215 0 341 -149.5t126 -389.5q0 -23 -2 -49t-4 -39h-745q23 -123 110.5 -189.5t224.5 -66.5q90 0 188.5 30t192.5 87l6 -4l-73 -232q-90 -47 -167 -66.5t-171 -19.5 q-145 0 -257 53.5t-179 155.5q-76 -102 -188.5 -158.5t-248.5 -56.5q-233 0 -383.5 158t-150.5 387zM322 516q0 -143 87 -238.5t220 -95.5q135 0 223 97.5t88 242.5q0 141 -87 235.5t-220 94.5q-135 0 -223 -96.5t-88 -239.5zM1171 596h523q-12 129 -79 201.5t-173 72.5 q-109 0 -182.5 -74.5t-88.5 -199.5z" />
<glyph unicode="&#x178;" horiz-adv-x="1398" d="M18 1434h304l385 -584l383 584h292l-553 -813v-621h-258v616zM329 1718q0 63 44.5 107.5t107.5 44.5t107 -44t44 -108q0 -63 -44 -106t-107 -43t-107.5 43t-44.5 106zM768 1718q0 63 44 107.5t107 44.5t107.5 -44t44.5 -108q0 -63 -44 -106t-108 -43q-63 0 -107 43 t-44 106z" />
<glyph unicode="&#x2c6;" horiz-adv-x="1024" d="M139 1233v4l267 356h212l267 -356v-4h-117l-254 186l-256 -186h-119z" />
<glyph unicode="&#x2dc;" horiz-adv-x="1024" d="M100 1290q100 168 150.5 218.5t114.5 50.5q27 0 62.5 -15.5t115.5 -62.5q61 -37 85.5 -48.5t41.5 -11.5q23 0 43 18.5t100 123.5l111 -70q-98 -166 -149.5 -216t-115.5 -50q-27 0 -62.5 15t-115.5 61q-61 37 -85.5 48t-41.5 11q-23 0 -45 -20.5t-98 -120.5z" />
<glyph unicode="&#x2000;" horiz-adv-x="943" />
<glyph unicode="&#x2001;" horiz-adv-x="1886" />
<glyph unicode="&#x2002;" horiz-adv-x="943" />
<glyph unicode="&#x2003;" horiz-adv-x="1886" />
<glyph unicode="&#x2004;" horiz-adv-x="628" />
<glyph unicode="&#x2005;" horiz-adv-x="471" />
<glyph unicode="&#x2006;" horiz-adv-x="314" />
<glyph unicode="&#x2007;" horiz-adv-x="314" />
<glyph unicode="&#x2008;" horiz-adv-x="235" />
<glyph unicode="&#x2009;" horiz-adv-x="377" />
<glyph unicode="&#x200a;" horiz-adv-x="104" />
<glyph unicode="&#x2010;" horiz-adv-x="811" d="M123 455v223h565v-223h-565z" />
<glyph unicode="&#x2011;" horiz-adv-x="811" d="M123 455v223h565v-223h-565z" />
<glyph unicode="&#x2012;" horiz-adv-x="811" d="M123 455v223h565v-223h-565z" />
<glyph unicode="&#x2013;" horiz-adv-x="1138" d="M123 459v215h893v-215h-893z" />
<glyph unicode="&#x2014;" horiz-adv-x="1916" d="M123 459v215h1671v-215h-1671z" />
<glyph unicode="&#x2018;" horiz-adv-x="483" d="M70 1059q0 76 54 157.5t228 235.5l76 -55q-78 -109 -107.5 -174.5t-29.5 -122.5q0 -53 21.5 -103.5t97.5 -167.5h-256q-45 63 -64.5 117.5t-19.5 112.5z" />
<glyph unicode="&#x2019;" horiz-adv-x="483" d="M55 868q80 109 110 174.5t30 120.5q0 51 -20.5 99.5t-98.5 171.5h254q47 -68 66.5 -120t19.5 -110q0 -74 -54.5 -155.5t-230.5 -237.5z" />
<glyph unicode="&#x201a;" horiz-adv-x="442" d="M18 -328q80 109 110 174.5t30 120.5q0 51 -20.5 99.5t-98.5 171.5h254q47 -68 66.5 -120t19.5 -110q0 -74 -54.5 -155.5t-230.5 -237.5z" />
<glyph unicode="&#x201c;" horiz-adv-x="907" d="M70 1059q0 76 54 157.5t228 235.5l74 -53q-78 -106 -108.5 -173t-30.5 -124q0 -51 20.5 -100.5t98.5 -172.5h-252q-45 63 -64.5 117.5t-19.5 112.5zM496 1059q0 76 54 157.5t228 235.5l74 -53q-78 -109 -107.5 -174.5t-29.5 -122.5q0 -55 21.5 -105.5t97.5 -167.5h-252 q-45 66 -65.5 120.5t-20.5 109.5z" />
<glyph unicode="&#x201d;" horiz-adv-x="907" d="M55 868q80 109 110 174.5t30 120.5q0 51 -20.5 99.5t-98.5 171.5h250q47 -68 66.5 -120t19.5 -110q0 -76 -55.5 -158.5t-227.5 -234.5zM483 868q78 104 108 171t30 124q0 53 -21.5 103.5t-97.5 167.5h252q47 -68 66.5 -120t19.5 -110q0 -76 -55.5 -158.5t-227.5 -234.5z " />
<glyph unicode="&#x201e;" horiz-adv-x="866" d="M18 -328q80 109 110 174.5t30 120.5q0 51 -20.5 99.5t-98.5 171.5h250q47 -68 66.5 -120t19.5 -110q0 -76 -55.5 -158.5t-227.5 -234.5zM446 -328q78 104 108 171t30 124q0 53 -21.5 103.5t-97.5 167.5h252q47 -68 66.5 -120t19.5 -110q0 -76 -55.5 -158.5t-227.5 -234.5 z" />
<glyph unicode="&#x2022;" horiz-adv-x="1073" d="M205 717q0 135 97 233.5t235 98.5q135 0 232 -98.5t97 -233.5t-97 -233.5t-232 -98.5q-137 0 -234.5 98.5t-97.5 233.5z" />
<glyph unicode="&#x2026;" horiz-adv-x="1331" d="M66 139q0 66 46 112t111 46q66 0 112 -46t46 -112t-46 -111.5t-112 -45.5t-111.5 46t-45.5 111zM508 139q0 66 46 112t112 46t111.5 -46t45.5 -112t-45.5 -111.5t-111.5 -45.5t-112 46t-46 111zM952 139q0 66 46 112t112 46t112 -46t46 -112t-46 -111.5t-112 -45.5 t-112 46t-46 111z" />
<glyph unicode="&#x202f;" horiz-adv-x="377" />
<glyph unicode="&#x2039;" horiz-adv-x="792" d="M82 496v43l520 514l86 -49l-326 -484l326 -487l-86 -49z" />
<glyph unicode="&#x203a;" horiz-adv-x="792" d="M106 33l324 483l-324 488l87 49l518 -514v-43l-518 -512z" />
<glyph unicode="&#x205f;" horiz-adv-x="471" />
<glyph unicode="&#x20ac;" horiz-adv-x="1396" d="M59 498v143h207q-2 12 -2 27.5v46.5v17t2 26v26.5v14.5h-207v143h230q53 242 211.5 379t388.5 137q109 0 200 -22.5t185 -75.5v-256h-4q-113 74 -194 102.5t-167 28.5q-139 0 -235 -78t-135 -221h538v-137h-559q-2 -10 -2 -21.5v-36.5v-45v-34t2 -21h559v-137h-538 q37 -147 131 -226t233 -79q102 0 183 24.5t196 93.5h4l-33 -251q-92 -51 -171.5 -71t-196.5 -20q-238 0 -394.5 136.5t-205.5 386.5h-226z" />
<glyph unicode="&#x2122;" horiz-adv-x="2076" d="M57 1284v150h731v-150h-282v-657h-166v657h-283zM932 627v807h244l251 -514l250 514h244v-807h-164v618l-321 -633h-23l-321 633v-618h-160z" />
<glyph unicode="&#x25fc;" horiz-adv-x="1034" d="M0 0v1034h1034v-1034h-1034z" />
<glyph unicode="&#xfb03;" horiz-adv-x="2283" d="M74 838v198h176v133q0 178 98 280.5t270 102.5q55 0 99.5 -8t93.5 -28l35 -222l-4 -4q-57 29 -100.5 41t-88.5 12q-76 0 -120 -46t-44 -126v-135h332v-198h-329v-838h-242v838h-176zM928 838v198h176v133q0 178 98 280.5t270 102.5q55 0 99.5 -8t93.5 -28l35 -222l-4 -4 q-57 29 -100.5 41t-88.5 12q-76 0 -120 -46t-44 -126v-135h332v-198h-329v-838h-242v838h-176zM1839 1395q0 63 45 107t111 44t110.5 -44t44.5 -107t-45 -107.5t-110 -44.5q-66 0 -111 44t-45 108zM1874 0v1036h242v-1036h-242z" />
<glyph unicode="&#xfb04;" horiz-adv-x="2283" d="M74 838v198h176v133q0 178 98 280.5t270 102.5q55 0 99.5 -8t93.5 -28l35 -222l-4 -4q-57 29 -100.5 41t-88.5 12q-76 0 -120 -46t-44 -126v-135h332v-198h-329v-838h-242v838h-176zM928 838v198h176v133q0 178 98 280.5t270 102.5q55 0 99.5 -8t93.5 -28l35 -222l-4 -4 q-57 29 -100.5 41t-88.5 12q-76 0 -120 -46t-44 -126v-135h332v-198h-329v-838h-242v838h-176zM1874 0v1479l242 75v-1554h-242z" />
</font>
</defs>
</svg>
