<?xml version="1.0" standalone="no"?>
<!DOCTYPE svg PUBLIC "-//W3C//DTD SVG 1.1//EN" "http://www.w3.org/Graphics/SVG/1.1/DTD/svg11.dtd" >
<svg xmlns="http://www.w3.org/2000/svg">
<metadata></metadata>
<defs>
<font id="mallory_mediumitalic" horiz-adv-x="1228" >
<font-face units-per-em="2048" ascent="1638" descent="-410" />
<missing-glyph horiz-adv-x="444" />
<glyph unicode="&#xfb01;" horiz-adv-x="1421" d="M121 0l209 838h-178l51 198h176l37 150q43 178 157.5 272t284.5 94q47 0 88 -7t76 -21l39 -221l-6 -3q-47 23 -90 33t-93 10q-88 0 -147 -53t-84 -153l-25 -101h332l-49 -198h-330l-207 -838h-241zM887 0l258 1036h244l-259 -1036h-243zM1196 1393q0 66 45 109.5 t113 43.5q66 0 109.5 -43t43.5 -106t-46 -108.5t-111 -45.5q-66 0 -110 43t-44 107z" />
<glyph unicode="&#xfb02;" horiz-adv-x="1421" d="M121 0l209 838h-178l51 198h176l37 150q43 178 157.5 272t284.5 94q47 0 88 -7t76 -21l39 -221l-6 -3q-47 23 -90 33t-93 10q-88 0 -147 -53t-84 -153l-25 -101h332l-49 -198h-330l-207 -838h-241zM887 0l368 1477l263 77l-388 -1554h-243z" />
<glyph horiz-adv-x="0" />
<glyph horiz-adv-x="0" />
<glyph horiz-adv-x="682" />
<glyph unicode="&#xd;" horiz-adv-x="681" />
<glyph unicode=" "  horiz-adv-x="444" />
<glyph unicode="&#x09;" horiz-adv-x="444" />
<glyph unicode="&#xa0;" horiz-adv-x="444" />
<glyph unicode="!" horiz-adv-x="555" d="M59 106q-14 51 11.5 97.5t79.5 62.5q51 16 100 -8.5t65 -75.5q14 -51 -11.5 -97t-78.5 -62q-51 -16 -100 8t-66 75zM215 485l107 760l47 189h274l-47 -191l-274 -758h-107z" />
<glyph unicode="&#x22;" horiz-adv-x="978" d="M166 862l293 572h293l-492 -609zM594 862l291 572h295l-492 -609z" />
<glyph unicode="#" horiz-adv-x="1390" d="M63 332l58 219h231l88 332h-239l57 219h238l88 336h161l-88 -336h392l88 336h159l-86 -336h215l-55 -219h-217l-86 -332h221l-55 -219h-223l-86 -336h-162l88 336h-391l-88 -336h-162l88 336h-234zM514 551h391l88 332h-391z" />
<glyph unicode="$" horiz-adv-x="1208" d="M47 432l4 2q96 -88 202.5 -142t219.5 -73l102 416q-168 70 -247.5 164t-79.5 225q0 184 142 299t372 115h10l59 241h166l-63 -260q78 -14 154.5 -45t144.5 -74l-12 -237l-4 -2q-84 59 -168 97t-172 54l-101 -405q162 -70 239 -163t77 -222q0 -193 -140.5 -309.5 t-371.5 -116.5l-78 -311h-166l80 325q-90 18 -178 54t-156 86zM489 1044q0 -59 34 -100t110 -78l88 355q-104 -6 -168 -54.5t-64 -122.5zM631 213q102 10 160.5 60t58.5 128q0 57 -31 98.5t-100 75.5z" />
<glyph unicode="%" horiz-adv-x="1959" d="M213 975q0 207 120 347t294 140q139 0 225 -93t86 -249q0 -207 -120 -347t-294 -140q-141 0 -226 93t-85 249zM305 -4l668 762l579 680h205l-667 -762l-580 -680h-205zM403 981q0 -86 35 -133t99 -47q84 0 147.5 92t63.5 221q0 88 -35 135t-99 47q-84 0 -147.5 -92 t-63.5 -223zM1126 313q0 209 119 348.5t293 139.5q141 0 226 -93t85 -249q0 -209 -118.5 -348.5t-292.5 -139.5q-141 0 -226.5 93.5t-85.5 248.5zM1315 322q0 -88 34.5 -135.5t98.5 -47.5q84 0 147.5 92.5t63.5 221.5q0 88 -35 135t-96 47q-86 0 -149.5 -92t-63.5 -221z" />
<glyph unicode="&#x26;" horiz-adv-x="1468" d="M51 340q0 152 106.5 265.5t319.5 185.5q-25 68 -38 128t-13 113q0 195 119 312.5t311 117.5q156 0 255 -89t99 -228q0 -141 -109.5 -251t-332.5 -192q35 -59 77 -123.5t93 -134.5q66 66 133.5 143t138.5 165h250v-7q-115 -143 -215 -254.5t-190 -195.5q66 -80 125 -150.5 t118 -138.5l-2 -6h-276q-37 39 -69.5 77t-63.5 75q-117 -86 -227.5 -127t-227.5 -41q-170 0 -275.5 98t-105.5 258zM289 358q0 -78 49 -125t131 -47q70 0 143.5 29t155.5 86q-63 82 -116.5 163t-96.5 159q-137 -51 -201.5 -115t-64.5 -150zM653 1044q0 -47 10.5 -94 t30.5 -98q156 61 227.5 126.5t71.5 149.5q0 68 -37.5 108t-103.5 40q-86 0 -142.5 -65.5t-56.5 -166.5z" />
<glyph unicode="'" horiz-adv-x="552" d="M166 862l293 572h297l-494 -609z" />
<glyph unicode="(" horiz-adv-x="868" d="M164 465q0 336 208 600t634 475l55 -78q-344 -238 -503 -480.5t-159 -530.5q0 -174 56.5 -335t183.5 -347l-74 -60q-203 184 -302 370.5t-99 385.5z" />
<glyph unicode=")" horiz-adv-x="868" d="M-139 -213q344 238 502.5 480.5t158.5 531.5q0 172 -56 332.5t-183 349.5l71 59q205 -184 304.5 -370.5t99.5 -385.5q0 -334 -208 -599t-636 -476z" />
<glyph unicode="*" horiz-adv-x="1097" d="M233 1128l140 224l235 -279l-22 -35zM254 829l338 142l24 -33l-192 -307zM649 1462l254 -63l-192 -309l-39 8zM684 922l37 18l233 -285l-243 -96zM756 1036l340 135l18 -264l-354 86z" />
<glyph unicode="+" d="M119 612l51 209h412l104 416h217l-104 -416h409l-51 -209h-412l-104 -419h-217l104 419h-409z" />
<glyph unicode="," horiz-adv-x="458" d="M-231 -287q119 102 178 204.5t102 275.5l19 79h241q-31 -123 -71 -213.5t-95 -160.5q-49 -61 -117.5 -115.5t-203.5 -134.5z" />
<glyph unicode="-" horiz-adv-x="811" d="M109 455l55 223h563l-55 -223h-563z" />
<glyph unicode="." horiz-adv-x="458" d="M-29 143q0 70 49.5 119t118.5 49q68 0 115 -47t47 -114q0 -70 -49 -119t-119 -49q-68 0 -115 47t-47 114z" />
<glyph unicode="/" horiz-adv-x="958" d="M-215 -266l1159 1782h213l-1161 -1782h-211z" />
<glyph unicode="0" horiz-adv-x="1400" d="M154 541q0 172 45 327.5t129 282.5q102 147 240.5 229t291.5 82q223 0 354.5 -153.5t131.5 -415.5q0 -172 -45.5 -327.5t-129.5 -280.5q-100 -150 -238 -232t-292 -82q-225 0 -356 152.5t-131 417.5zM406 539q0 -166 65.5 -254t185.5 -88q94 0 183.5 69.5t152.5 194.5 q49 94 75 204.5t26 229.5q0 166 -65.5 254t-186.5 88q-94 0 -183.5 -69.5t-152.5 -194.5q-49 -94 -74.5 -204.5t-25.5 -229.5z" />
<glyph unicode="1" horiz-adv-x="909" d="M168 842l70 276l655 344l37 -10l-361 -1452h-250l263 1057l-410 -217z" />
<glyph unicode="2" horiz-adv-x="1191" d="M-6 0v82l649 620q143 141 193.5 219t50.5 154q0 72 -45 111t-127 39q-106 0 -221 -64.5t-252 -202.5l-4 3l43 305q111 94 226.5 141t237.5 47q176 0 284 -95t108 -253q0 -123 -75 -245t-261 -296l-365 -346l615 2l-158 -221h-899z" />
<glyph unicode="3" horiz-adv-x="1132" d="M53 350l4 2q92 -76 195.5 -115.5t204.5 -39.5q129 0 210 60t81 161q0 98 -91.5 157.5t-298.5 102.5l15 90q264 74 388 152.5t124 175.5q0 66 -51.5 103.5t-141.5 37.5q-102 0 -209.5 -39t-222.5 -117l-6 2l65 260q102 57 200.5 84t203.5 27q188 0 301 -87t113 -239 q0 -133 -94.5 -234t-278.5 -167q115 -43 176 -125.5t61 -195.5q0 -188 -148 -308.5t-380 -120.5q-121 0 -219 26t-191 83z" />
<glyph unicode="4" horiz-adv-x="1296" d="M2 373l967 1071h264l-232 -934h228l-51 -197h-226l-78 -313h-235l78 313h-707zM375 510h393l152 614z" />
<glyph unicode="5" horiz-adv-x="1191" d="M66 328l4 2q102 -72 199.5 -106t199.5 -34q143 0 242.5 84t99.5 207q0 100 -70.5 155.5t-195.5 55.5q-76 0 -147.5 -10t-168.5 -35l-24 17l244 770h808l-57 -222h-606l-102 -327q31 6 65.5 10t71.5 4q197 2 316.5 -109.5t119.5 -295.5q0 -227 -168 -373t-430 -146 q-109 0 -208 27t-183 78z" />
<glyph unicode="6" horiz-adv-x="1251" d="M104 434q0 156 89.5 313.5t314.5 395.5l276 291h328l-399 -400q-10 -10 -20.5 -21.5t-30.5 -31.5q-23 -23 -33.5 -34t-18.5 -19q25 2 42.5 3t33.5 1q201 0 330 -121.5t129 -314.5q0 -213 -159 -369t-386 -156q-225 0 -360.5 126t-135.5 337zM352 440q0 -117 72 -186.5 t188 -69.5q117 0 201 89t84 208q0 125 -82 191.5t-237 66.5q-29 0 -60 -2t-59 -4q-57 -82 -82 -150.5t-25 -142.5z" />
<glyph unicode="7" horiz-adv-x="1204" d="M145 0l838 1212h-733l123 222h993l10 -35l-950 -1399h-281z" />
<glyph unicode="8" horiz-adv-x="1273" d="M88 362q0 137 88 242t244 154q-66 49 -101.5 118.5t-35.5 151.5q0 186 146 308t370 122q197 0 319.5 -106.5t122.5 -272.5q0 -123 -73.5 -221t-204.5 -151q80 -51 125 -130.5t45 -173.5q0 -190 -153 -309t-400 -119q-225 2 -358.5 107.5t-133.5 279.5zM334 389 q0 -94 71.5 -152.5t190.5 -58.5q127 0 208 68.5t81 175.5q0 96 -67.5 152.5t-186.5 56.5q-125 0 -211 -69.5t-86 -172.5zM526 1026q0 -90 60.5 -146.5t156.5 -56.5q109 0 182.5 67.5t73.5 168.5q0 90 -60.5 144t-158.5 54q-109 0 -181.5 -66.5t-72.5 -164.5z" />
<glyph unicode="9" horiz-adv-x="1251" d="M205 930q0 219 158.5 374.5t386.5 155.5q227 0 361 -127t134 -338q0 -154 -88 -309t-317 -395l-277 -291h-327l401 399q8 8 17.5 18.5t27.5 28.5q16 18 24.5 26.5l14.5 14.5q-10 -2 -22.5 -2h-36.5q-201 0 -329 124t-128 321zM451 944q0 -129 82.5 -197.5t238.5 -68.5 q27 0 53.5 2t53.5 4q63 86 90.5 156.5t27.5 150.5q0 117 -70.5 186.5t-187.5 69.5t-202.5 -89t-85.5 -214z" />
<glyph unicode=":" horiz-adv-x="512" d="M2 143q0 70 49 119t119 49q68 0 115 -47t47 -114q0 -70 -49 -119t-119 -49q-68 0 -115 47t-47 114zM182 887q0 70 48.5 119t117.5 49q68 0 115 -47t47 -115q0 -70 -48 -119t-118 -49q-68 0 -115 47t-47 115z" />
<glyph unicode=";" horiz-adv-x="512" d="M-215 -287q119 102 178.5 204.5t102.5 275.5l20 79h242q-31 -123 -71 -213.5t-95 -160.5q-49 -61 -119 -116.5t-205 -133.5zM188 887q0 70 48.5 119t117.5 49q68 0 115 -47t47 -115q0 -70 -48 -119t-118 -49q-68 0 -115 47t-47 115z" />
<glyph unicode="&#x3c;" d="M141 668l23 98l1126 481l-61 -239l-746 -308l594 -303l-53 -211z" />
<glyph unicode="=" d="M88 412l47 196h1002l-50 -196h-999zM190 825l50 197h1001l-49 -197h-1002z" />
<glyph unicode="&#x3e;" d="M39 186l59 240l746 307l-594 305l53 209l883 -481l-23 -96z" />
<glyph unicode="?" horiz-adv-x="999" d="M219 106q-14 51 11.5 97.5t78.5 62.5q51 16 100.5 -8.5t65.5 -75.5q14 -51 -11.5 -97t-78.5 -62q-51 -16 -100 8t-66 75zM219 1044l68 275q84 66 189.5 100.5t217.5 34.5q162 0 262.5 -83t100.5 -218q0 -125 -75 -212t-251 -165q-131 -59 -182 -101t-51 -93q0 -16 4 -34 t22 -63h-125q-39 47 -58 91.5t-19 82.5q0 82 67.5 148.5t224.5 136.5q117 53 163 94t46 92q0 49 -42 79t-109 30q-104 0 -214 -48t-235 -149z" />
<glyph unicode="@" horiz-adv-x="2076" d="M100 414q0 213 86 416.5t242 363.5q158 160 358.5 246t419.5 86q365 0 588 -210t223 -548q0 -287 -146.5 -471t-377.5 -184q-109 0 -183.5 46t-92.5 122q-102 -88 -189.5 -128t-177.5 -40q-129 0 -207 86t-78 231q0 117 49.5 231.5t139.5 202.5q88 86 200.5 133t237.5 47 q59 0 117.5 -15t115.5 -46l86 43h68l-152 -620q-6 -33 -8 -48.5t-2 -29.5q0 -57 39 -90t107 -33q160 0 271.5 163.5t111.5 395.5q0 317 -202 506.5t-542 189.5q-203 0 -389 -82t-334 -231q-145 -150 -225 -340.5t-80 -388.5q0 -346 211 -538.5t592 -192.5q166 0 311.5 26.5 t286.5 81.5v-71q-150 -53 -294 -78t-308 -25q-406 0 -639.5 211t-233.5 582zM774 463q0 -80 43 -122t125 -42q59 0 126 27.5t153 87.5l106 420q-37 14 -70.5 20t-70.5 6q-170 0 -291 -119.5t-121 -277.5z" />
<glyph unicode="A" horiz-adv-x="1628" d="M-78 0l989 1440h265l272 -1440h-260l-58 334h-696l-223 -334h-289zM578 553h518l-107 608z" />
<glyph unicode="B" horiz-adv-x="1284" d="M57 0l357 1434h424q199 0 316.5 -93.5t117.5 -248.5q0 -121 -78 -219.5t-215 -151.5q86 -45 132 -119t46 -168q0 -195 -167 -314.5t-441 -119.5h-492zM356 211h213q150 0 241 66t91 172q0 86 -60.5 133t-168.5 47h-213zM510 829h192q141 0 229.5 63t88.5 163 q0 78 -58.5 123t-158.5 45h-197z" />
<glyph unicode="C" horiz-adv-x="1447" d="M150 604q0 174 62 328.5t177 275.5q119 119 273.5 184.5t324.5 65.5q152 0 277 -53t227 -162l-57 -282l-4 -3q-96 129 -210 195t-241 66q-225 0 -395 -177.5t-170 -416.5q0 -180 115.5 -295t295.5 -115q127 0 253 55.5t261 169.5l9 -4l-136 -340q-90 -59 -199.5 -90 t-232.5 -31q-283 0 -456.5 173.5t-173.5 455.5z" />
<glyph unicode="D" horiz-adv-x="1593" d="M57 0l357 1434h401q346 0 538.5 -159t192.5 -446q0 -365 -274.5 -597t-702.5 -232h-512zM373 231h202q303 0 505 163t202 411q0 190 -130 293.5t-372 103.5h-166z" />
<glyph unicode="E" horiz-adv-x="1202" d="M57 0l357 1434h884l-57 -228h-629l-92 -370h522l-55 -218h-520l-96 -391h671l-120 -227h-865z" />
<glyph unicode="F" horiz-adv-x="1130" d="M57 0l357 1434h803l36 -230h-639l-100 -401h490l-58 -223h-487l-144 -580h-258z" />
<glyph unicode="G" horiz-adv-x="1609" d="M147 598q0 184 69 344t200 279q125 113 290.5 173t350.5 60q150 0 287 -36t251 -105l-65 -244q-113 72 -236 108.5t-250 36.5q-266 0 -449 -172t-183 -426q0 -186 114.5 -294.5t311.5 -108.5q80 0 149.5 13.5t136.5 41.5l74 285h-381l53 211h629l-168 -651 q-121 -66 -255 -99.5t-275 -33.5q-297 0 -475.5 168.5t-178.5 449.5z" />
<glyph unicode="H" horiz-adv-x="1646" d="M57 0l357 1434h258l-146 -586h758l146 586h258l-357 -1434h-258l152 610h-758l-152 -610h-258z" />
<glyph unicode="I" horiz-adv-x="649" d="M68 0l356 1434h258l-356 -1434h-258z" />
<glyph unicode="J" horiz-adv-x="964" d="M14 346l6 2q61 -68 125 -99.5t136 -31.5q86 0 143 49t82 146l252 1022h260l-273 -1088q-47 -186 -155.5 -276t-288.5 -90q-78 0 -143.5 21.5t-116.5 61.5z" />
<glyph unicode="K" horiz-adv-x="1443" d="M57 0l357 1434h258l-148 -596h43l719 596h342v-7l-883 -716l541 -705v-6h-313l-459 625h-43l-156 -625h-258z" />
<glyph unicode="L" horiz-adv-x="1110" d="M57 0l357 1434h258l-299 -1203h592l-60 -231h-848z" />
<glyph unicode="M" horiz-adv-x="2109" d="M4 0l465 1434h346l213 -969l701 969h368l-248 -1434h-252l201 1139l-864 -1162h-31l-278 1170l-369 -1147h-252z" />
<glyph unicode="N" horiz-adv-x="1671" d="M57 0l357 1434h243l572 -953l235 953h248l-356 -1442h-127l-656 1093l-266 -1085h-250z" />
<glyph unicode="O" horiz-adv-x="1699" d="M150 608q0 174 63 330t182 274q119 121 275.5 185.5t326.5 64.5q287 0 469.5 -177t182.5 -460q0 -174 -63.5 -329.5t-180.5 -274.5q-121 -121 -276.5 -185.5t-325.5 -64.5q-289 0 -471 177.5t-182 459.5zM416 625q0 -188 113.5 -302t295.5 -114q225 0 392 176t167 424 q0 188 -114.5 302t-296.5 114q-225 0 -391 -176t-166 -424z" />
<glyph unicode="P" horiz-adv-x="1243" d="M57 0l357 1434h395q217 0 346 -110t129 -296q0 -244 -177 -393.5t-466 -149.5h-205l-121 -485h-258zM487 705h197q145 0 243.5 87t98.5 212q0 100 -66.5 154t-191.5 54h-154z" />
<glyph unicode="Q" horiz-adv-x="1699" d="M150 608q0 174 63 330t182 274q119 121 275.5 185.5t326.5 64.5q287 0 469.5 -177t182.5 -458q0 -285 -164 -506t-430 -303q55 -61 98 -83.5t107 -22.5q49 0 95 8t91 27l4 -4l-115 -224q-37 -10 -76.5 -16t-82.5 -6q-152 0 -243 59.5t-206 223.5q-260 23 -418.5 195.5 t-158.5 432.5zM416 625q0 -188 113.5 -302t295.5 -114q225 0 392 176t167 424q0 188 -114.5 302t-296.5 114q-225 0 -391 -176t-166 -424z" />
<glyph unicode="R" horiz-adv-x="1327" d="M57 0l357 1434h401q213 0 335 -102.5t122 -280.5q0 -176 -118 -304.5t-314 -173.5l389 -573h-293l-367 549h-118l-136 -549h-258zM500 758h192q137 0 228.5 75.5t91.5 192.5q0 90 -59.5 139t-168.5 49h-172z" />
<glyph unicode="S" horiz-adv-x="1140" d="M43 451l4 2q117 -119 240 -183.5t237 -64.5q111 0 178.5 50t67.5 130q0 63 -43 113.5t-168 126.5q-168 102 -234.5 193t-66.5 214q0 186 138.5 306t357.5 120q106 0 206.5 -27.5t186.5 -78.5l-12 -267l-5 -2q-92 72 -190 109t-195 37q-104 0 -169.5 -47t-65.5 -121 q0 -59 43 -109.5t168 -126.5q168 -100 234.5 -192t66.5 -219q0 -197 -137 -318t-363 -121q-121 0 -238.5 42t-199.5 116z" />
<glyph unicode="T" horiz-adv-x="1449" d="M240 1202l57 232h1313l-60 -232h-522l-299 -1202h-258l299 1202h-530z" />
<glyph unicode="U" horiz-adv-x="1601" d="M186 489q0 49 7.5 102.5t21.5 108.5l182 734h258l-188 -760q-10 -45 -16.5 -84t-6.5 -72q0 -145 84 -227t232 -82q160 0 277.5 104.5t164.5 288.5l207 832h252l-217 -871q-72 -291 -252 -439.5t-461 -148.5q-250 0 -397.5 139t-147.5 375z" />
<glyph unicode="V" horiz-adv-x="1585" d="M279 1434h272l192 -1031l723 1031h297l-1052 -1463h-121z" />
<glyph unicode="W" horiz-adv-x="2375" d="M295 1434h268l70 -1096l737 1114h35l227 -1114l619 1096h291l-844 -1442h-240l-182 917l-606 -917h-252z" />
<glyph unicode="X" horiz-adv-x="1519" d="M-70 0v4l725 739l-352 691h287l260 -523l502 523h323v-4l-708 -717l364 -713h-284l-273 545l-520 -545h-324z" />
<glyph unicode="Y" horiz-adv-x="1382" d="M244 1434h272l240 -592l524 592h311v-4l-753 -828l-152 -602h-258l156 629z" />
<glyph unicode="Z" horiz-adv-x="1427" d="M-41 33l1096 1171h-776l59 230h1198l14 -33l-1095 -1172h843l-145 -229h-1180z" />
<glyph unicode="[" horiz-adv-x="851" d="M6 -266l443 1782h555v-150h-371l-367 -1483h371l-68 -149h-563z" />
<glyph unicode="\" horiz-adv-x="958" d="M311 1516h183l278 -1782h-182z" />
<glyph unicode="]" horiz-adv-x="851" d="M-98 -117h370l367 1483h-371l68 150h565l-442 -1782h-555z" />
<glyph unicode="^" d="M119 686l684 795h88l289 -795h-215l-174 498l-420 -498h-252z" />
<glyph unicode="_" horiz-adv-x="1253" d="M-211 -309l39 155h1264l-39 -155h-1264z" />
<glyph unicode="`" horiz-adv-x="1024" d="M369 1593h288l84 -360h-106z" />
<glyph unicode="a" horiz-adv-x="1142" d="M25 248q0 170 150.5 263t426.5 93q51 0 102.5 -3t94.5 -9q2 25 3 40t1 27q0 86 -55.5 135.5t-155.5 49.5q-86 0 -177 -28t-198 -87l-4 4l104 252q82 37 161 53.5t167 16.5q184 0 291.5 -99.5t107.5 -267.5q0 -45 -6 -90t-22 -102l-127 -476l-248 -40l45 165 q-102 -82 -198.5 -121.5t-184.5 -39.5q-125 0 -201.5 71.5t-76.5 192.5zM258 283q0 -53 35 -83t96 -30q74 0 154 28.5t178 90.5l45 172q-51 4 -83 6t-56 2q-174 0 -271.5 -50t-97.5 -136z" />
<glyph unicode="b" horiz-adv-x="1257" d="M25 0l366 1477l262 77l-164 -657q86 82 168 120t174 38q156 0 254.5 -112t98.5 -292q0 -139 -48.5 -262t-140.5 -215q-94 -92 -216 -141t-257 -49q-70 0 -140.5 13t-141.5 42l-195 -43zM324 229q47 -20 97 -29.5t109 -9.5q168 0 290 126t122 307q0 104 -54 163.5 t-151 59.5q-68 0 -137.5 -27.5t-150.5 -87.5z" />
<glyph unicode="c" horiz-adv-x="1075" d="M78 418q0 274 181 457.5t446 183.5q94 0 183 -31t163 -88l-50 -248l-6 -2q-63 74 -139 112t-164 38q-150 0 -260 -118t-110 -280q0 -117 68.5 -181t193.5 -64q92 0 187 37.5t177 107.5l6 -4l-114 -287q-66 -37 -145 -56.5t-163 -19.5q-205 0 -329.5 121t-124.5 322z" />
<glyph unicode="d" horiz-adv-x="1267" d="M74 385q0 139 50 265t144 220q90 88 201 134.5t231 46.5q78 0 151 -18.5t134 -55.5l125 500l262 77l-387 -1554h-240l37 145q-90 -86 -174 -125.5t-176 -39.5q-158 0 -258 112.5t-100 292.5zM315 414q0 -104 55.5 -164t153.5 -60q72 0 143.5 29t149.5 88l119 469 q-49 35 -105.5 51.5t-117.5 16.5q-162 0 -280 -126t-118 -304z" />
<glyph unicode="e" horiz-adv-x="1146" d="M78 424q0 266 181 453.5t433 187.5q178 0 283.5 -110.5t105.5 -299.5q0 -57 -7 -112.5t-21 -104.5h-744q4 -125 74 -190.5t199 -65.5q94 0 189 25.5t185 77.5l5 -2l-52 -217q-88 -45 -183 -67t-202 -22q-203 0 -324.5 122t-121.5 325zM338 596h514q2 8 2 16.5v24.5 q0 113 -50 173t-142 60q-96 0 -189.5 -78.5t-134.5 -195.5z" />
<glyph unicode="f" horiz-adv-x="854" d="M121 0l209 838h-178l51 198h176l37 150q43 178 157.5 272t284.5 94q47 0 88 -7t76 -21l39 -221l-6 -3q-47 23 -90 33t-93 10q-88 0 -147 -53t-84 -153l-25 -101h332l-49 -198h-330l-207 -838h-241z" />
<glyph unicode="g" horiz-adv-x="1267" d="M-25 -49l7 4q100 -72 206.5 -108.5t214.5 -36.5q143 0 233.5 66.5t129.5 201.5l35 119q-92 -86 -179 -125t-184 -39q-160 0 -259 105.5t-99 279.5q0 270 189.5 451.5t471.5 181.5q80 0 151 -12.5t142 -41.5l189 43l20 -6l-248 -993q-55 -223 -200 -332.5t-385 -109.5 q-109 0 -211.5 25.5t-186.5 74.5zM322 438q0 -100 54 -154.5t150 -54.5q72 0 147 32t161 97l110 451q-49 20 -98 30.5t-103 10.5q-170 0 -295.5 -122t-125.5 -290z" />
<glyph unicode="h" horiz-adv-x="1239" d="M25 0l366 1477l262 77l-168 -677q90 92 173 136t171 44q137 0 224.5 -85t87.5 -222q0 -35 -6.5 -77t-26.5 -132l-135 -541h-244l145 580q8 29 12.5 56t4.5 52q0 74 -40 114t-114 40q-68 0 -140.5 -34t-154.5 -103l-176 -705h-241z" />
<glyph unicode="i" horiz-adv-x="567" d="M33 0l258 1036h244l-259 -1036h-243zM342 1393q0 66 45 109.5t113 43.5q66 0 109.5 -43t43.5 -106t-46 -108.5t-111 -45.5q-66 0 -110 43t-44 107z" />
<glyph unicode="j" horiz-adv-x="567" d="M-268 -193l4 7q20 -8 42.5 -13.5t47.5 -5.5q84 0 130 38t67 124l270 1079h242l-277 -1110q-41 -166 -133 -244.5t-246 -78.5q-29 0 -58.5 4t-56.5 12zM342 1393q0 63 46 108t112 45t109.5 -43t43.5 -106t-46 -108.5t-111 -45.5q-63 0 -108.5 44t-45.5 106z" />
<glyph unicode="k" horiz-adv-x="1153" d="M25 0l366 1477l262 77l-235 -944h51l461 426h307v-6l-584 -524l353 -502v-4h-279l-299 442h-51l-111 -442h-241z" />
<glyph unicode="l" horiz-adv-x="567" d="M33 0l368 1477l263 77l-388 -1554h-243z" />
<glyph unicode="m" horiz-adv-x="1871" d="M25 0l251 1010l248 41l-41 -170q84 90 162 133t160 43q98 0 173 -51.5t107 -141.5q102 100 194.5 146.5t190.5 46.5q131 0 216.5 -86t85.5 -221q0 -41 -7.5 -90.5t-25.5 -118.5l-133 -541h-244l145 580q10 45 13.5 67.5t3.5 40.5q0 72 -39 113t-107 41q-66 0 -132 -29 t-142 -90q-2 -33 -10.5 -75t-22.5 -107l-135 -541h-244l146 580q8 29 12 56t4 52q0 72 -39 113t-106 41q-59 0 -125 -33t-142 -100l-176 -709h-241z" />
<glyph unicode="n" horiz-adv-x="1239" d="M25 0l251 1010l250 41l-43 -177q90 94 174 138.5t172 44.5q137 0 224.5 -85t87.5 -222q0 -35 -6.5 -77t-26.5 -132l-135 -541h-244l145 580q8 29 12.5 56t4.5 52q0 74 -40 114t-114 40q-68 0 -140.5 -34t-154.5 -103l-176 -705h-241z" />
<glyph unicode="o" horiz-adv-x="1247" d="M78 434q0 268 178 449.5t436 181.5q211 0 344 -129t133 -334q0 -266 -179 -448.5t-435 -182.5q-211 0 -344 129t-133 334zM319 444q0 -119 69 -190.5t181 -71.5q145 0 252 120t107 290q0 119 -68.5 189.5t-181.5 70.5q-145 0 -252 -120t-107 -288z" />
<glyph unicode="p" horiz-adv-x="1267" d="M-72 -391l348 1401l250 41l-39 -158q86 84 171 123t178 39q158 0 258 -112t100 -292q0 -141 -51.5 -267t-145.5 -218q-88 -88 -198.5 -135t-231.5 -47q-78 0 -150.5 18t-131.5 55l-113 -448h-244zM334 258q51 -35 105.5 -51.5t115.5 -16.5q162 0 279.5 127t117.5 306 q0 104 -56 163.5t-155 59.5q-70 0 -139.5 -29t-150.5 -88z" />
<glyph unicode="q" horiz-adv-x="1257" d="M74 385q0 141 48 263t140 212q92 92 214 141.5t259 49.5q72 0 143.5 -13.5t139.5 -40.5l194 43l21 -6l-354 -1425h-242l131 530q-86 -84 -168 -121.5t-174 -37.5q-156 0 -254 112.5t-98 292.5zM315 414q0 -104 54.5 -164t150.5 -60q68 0 138.5 28t150.5 85l123 504 q-45 18 -94.5 27.5t-110.5 9.5q-168 0 -290 -125t-122 -305z" />
<glyph unicode="r" horiz-adv-x="860" d="M25 0l251 1010l250 41l-63 -250q131 147 210 199.5t165 52.5q16 0 34.5 -3t47.5 -10l-43 -254q-18 6 -36.5 8.5t-41.5 2.5q-82 0 -168 -38t-207 -128l-158 -631h-241z" />
<glyph unicode="s" horiz-adv-x="1024" d="M31 334l6 4q88 -76 197.5 -120t216.5 -44q86 0 139 29.5t53 75.5q0 41 -41 73.5t-141 73.5q-158 59 -225.5 131t-67.5 182q0 139 116.5 229.5t303.5 90.5q98 0 191 -25.5t171 -75.5l-8 -231l-6 -2q-92 70 -181 103.5t-177 33.5q-80 0 -129.5 -28.5t-49.5 -75.5 q0 -45 39 -76t146 -70q154 -59 222 -132.5t68 -180.5q0 -145 -118.5 -233.5t-315.5 -88.5q-106 0 -206.5 29t-174.5 80z" />
<glyph unicode="t" horiz-adv-x="933" d="M143 838l52 198h172l61 221l260 76l-82 -297h373l-51 -198h-377l-117 -426q-6 -23 -9 -44.5t-3 -37.5q0 -66 41 -103t110 -37q61 0 120 24t114 71l6 -4l-78 -248q-51 -27 -107.5 -41.5t-119.5 -14.5q-152 0 -240 85t-88 231q0 33 5 67.5t16 77.5l110 400h-168z" />
<glyph unicode="u" horiz-adv-x="1239" d="M100 287q0 39 7.5 86t23.5 121l135 542h244l-145 -579q-10 -43 -13.5 -66.5t-3.5 -42.5q0 -74 40 -113.5t114 -39.5q68 0 139.5 33.5t155.5 103.5l176 704h241l-258 -1036h-239l41 162q-90 -94 -175 -138t-173 -44q-137 0 -223.5 85t-86.5 222z" />
<glyph unicode="v" horiz-adv-x="1191" d="M162 1036h248l137 -667l461 667h278l-772 -1063h-104z" />
<glyph unicode="w" horiz-adv-x="1804" d="M166 1036h242l65 -735l531 748h34l166 -748l428 735h262l-643 -1050h-202l-129 608l-426 -608h-203z" />
<glyph unicode="x" horiz-adv-x="1173" d="M-82 0v4l528 543l-251 489h264l166 -342l317 342h293v-4l-500 -512l266 -520h-262l-182 371l-346 -371h-293z" />
<glyph unicode="y" horiz-adv-x="1159" d="M-117 -131l6 4q35 -25 75 -36t91 -11q84 0 144.5 36t113.5 118l52 79l-201 977h250l127 -721l438 721h270l-727 -1140q-96 -152 -201.5 -222.5t-240.5 -70.5q-41 0 -77 7t-64 21z" />
<glyph unicode="z" horiz-adv-x="1097" d="M-70 31l764 805h-518l49 200h908l8 -30l-766 -807h598l-135 -199h-899z" />
<glyph unicode="{" horiz-adv-x="1013" d="M72 578l22 94l178 28q121 18 173.5 59.5t52.5 117.5q0 18 -4.5 46.5t-14.5 92.5q-14 72 -18 104.5t-4 57.5q0 158 122.5 248t342.5 90h243v-150h-231q-113 0 -174.5 -53t-61.5 -150q0 -20 3.5 -48t13.5 -87q10 -63 13 -95t3 -56q0 -100 -62.5 -167t-189.5 -102 q72 -31 110 -78t38 -106q0 -37 -21.5 -83t-89.5 -140q-59 -84 -77.5 -122t-18.5 -65q0 -68 46 -99.5t142 -31.5h191l-66 -149h-209q-176 0 -271 68.5t-95 191.5q0 51 24.5 107.5t102.5 156.5q57 74 73.5 106.5t16.5 59.5q0 49 -40 82t-112 45z" />
<glyph unicode="|" horiz-adv-x="788" d="M104 -266l443 1782h192l-442 -1782h-193z" />
<glyph unicode="}" horiz-adv-x="1013" d="M-98 -117h231q113 0 174.5 53.5t61.5 149.5q0 20 -3.5 48t-13.5 87q-10 63 -13 95t-3 57q0 100 62.5 166.5t189.5 101.5q-72 31 -110 78t-38 106q0 37 21.5 83t91.5 141q59 84 77.5 121.5t18.5 64.5q0 68 -46 99.5t-142 31.5h-193l66 150h209q176 0 271 -69t95 -192 q0 -51 -24.5 -107t-102.5 -157q-55 -74 -71.5 -106.5t-16.5 -59.5q0 -49 40 -81.5t112 -45.5l149 -26l-22 -94l-176 -29q-123 -18 -174.5 -58t-51.5 -118q0 -18 3.5 -47t15.5 -93q12 -72 16 -104t4 -57q0 -158 -122.5 -248t-342.5 -90h-241z" />
<glyph unicode="~" d="M113 575q129 213 201.5 289t146.5 76q35 0 86 -24.5t162 -98.5q86 -57 119.5 -74.5t52.5 -17.5q39 0 83 42t138 167l112 -76q-129 -213 -201.5 -288.5t-146.5 -75.5q-35 0 -86 24.5t-162 97.5q-86 57 -119.5 75t-52.5 18q-37 0 -80.5 -42t-140.5 -167z" />
<glyph unicode="&#xa1;" horiz-adv-x="555" d="M10 0l47 190l277 758h104l-106 -760l-47 -188h-275zM340 1251q-16 51 10.5 98.5t77.5 61.5q51 16 100.5 -8.5t65.5 -75.5q14 -51 -11.5 -97t-78.5 -63q-51 -16 -99.5 8.5t-64.5 75.5z" />
<glyph unicode="&#xa2;" horiz-adv-x="1114" d="M137 631q0 246 164 418t412 188l53 207h168l-55 -219q70 -14 131 -46t114 -79l-45 -228h-6q-61 61 -123.5 99.5t-128.5 52.5l-159 -621q92 6 183 45t169 105l6 -4l-111 -279q-66 -33 -143.5 -54t-153.5 -26l-51 -200h-168l58 217q-143 39 -228.5 153.5t-85.5 270.5z M371 651q0 -80 35.5 -138t101.5 -89l154 596q-127 -31 -209 -134.5t-82 -234.5z" />
<glyph unicode="&#xa3;" horiz-adv-x="1200" d="M-2 0v76q264 203 345 293t81 176q0 8 -1 18t-3 39l-305 -6l39 162l231 2q-29 102 -38 151.5t-9 89.5q0 205 144.5 331t381.5 126q104 0 202.5 -33.5t178.5 -99.5v-256l-6 -2q-86 84 -181 128t-188 44q-125 0 -201.5 -68.5t-76.5 -179.5q0 -37 8 -81t37 -144l440 6 l-39 -164l-368 -2q2 -23 3 -34t1 -19q0 -94 -52.5 -171t-175.5 -167l588 4l-104 -219h-932z" />
<glyph unicode="&#xa5;" horiz-adv-x="1314" d="M90 309l35 146h393l35 145h-389l35 143h319l-248 691h265l186 -592l487 592h297l-596 -691h320l-37 -143h-395l-35 -145h393l-35 -146h-395l-76 -309h-243l75 309h-391z" />
<glyph unicode="&#xa7;" horiz-adv-x="1329" d="M6 0l4 2q121 -96 234.5 -142t232.5 -46q102 0 162.5 36.5t60.5 98.5q0 57 -53 102t-188 105q-203 88 -286 174t-83 207q0 131 97.5 215t293.5 125q-45 47 -67.5 100t-22.5 117q0 162 132 263t347 101q102 0 200.5 -24.5t195.5 -75.5l-13 -238l-4 -2q-96 66 -192 97.5 t-197 31.5q-102 0 -162.5 -36.5t-60.5 -98.5q0 -57 53 -102t189 -105q203 -90 285.5 -174t82.5 -207q0 -131 -97 -215t-294 -125q45 -47 67.5 -100.5t22.5 -116.5q0 -162 -132 -263t-347 -101q-113 0 -221.5 30.5t-200.5 87.5zM328 565q0 -61 62.5 -111.5t221.5 -119.5 q25 -10 49.5 -22.5t53.5 -26.5q150 41 222.5 93t72.5 118q0 61 -62.5 111t-222.5 120q-25 10 -49.5 22.5t-52.5 26.5q-150 -41 -222.5 -93t-72.5 -118z" />
<glyph unicode="&#xa8;" horiz-adv-x="1024" d="M352 1374q0 61 44 105.5t108 44.5q61 0 104 -42t43 -104q0 -63 -44 -107t-107 -44q-61 0 -104.5 43t-43.5 104zM786 1374q0 61 44 105.5t108 44.5q61 0 104 -42t43 -104q0 -63 -44 -107t-107 -44q-61 0 -104.5 43t-43.5 104z" />
<glyph unicode="&#xa9;" horiz-adv-x="1869" d="M160 715q0 164 63.5 313.5t179.5 263.5q117 113 268.5 174.5t315.5 61.5q166 0 315.5 -60.5t266.5 -173.5t179 -262t62 -313t-63.5 -313.5t-179.5 -264.5q-117 -113 -268.5 -174t-315.5 -61q-166 0 -315.5 60t-266.5 173t-179 262.5t-62 313.5zM227 719 q0 -313 222.5 -530.5t537.5 -217.5t535.5 216t220.5 528q0 313 -222.5 530t-537.5 217t-535.5 -216t-220.5 -527zM502 715q0 207 149.5 345t372.5 138q92 0 175 -29.5t159 -89.5v-186h-4q-82 74 -164 110.5t-164 36.5q-145 0 -243.5 -92t-98.5 -229q0 -141 97.5 -234.5 t238.5 -93.5q90 0 177 33t169 100l4 -2l-27 -180q-78 -55 -158.5 -80.5t-176.5 -25.5q-217 0 -361.5 135t-144.5 344z" />
<glyph unicode="&#xaa;" horiz-adv-x="1034" d="M104 389l35 139h742l-35 -139h-742zM240 881q0 123 122.5 189.5t352.5 66.5q18 0 39.5 -1l64.5 -3l3 21t1 13q0 59 -40 94t-109 35q-66 0 -136.5 -21.5t-154.5 -68.5l-4 2l76 183q57 27 124.5 42t133.5 15q131 0 213 -72.5t82 -189.5q0 -31 -5.5 -63.5t-15.5 -67.5 l-94 -346l-180 -2l30 114q-80 -63 -154.5 -94t-148.5 -31q-90 0 -145 51.5t-55 133.5zM418 909q0 -35 24.5 -55t69.5 -20q53 0 114.5 22.5t141.5 71.5l29 108q-12 2 -29.5 2h-52.5q-141 0 -219 -35t-78 -94z" />
<glyph unicode="&#xab;" horiz-adv-x="1310" d="M78 496l8 43l623 514l71 -62l-422 -493l185 -463l-82 -51zM616 496l11 43l620 514l72 -62l-422 -493l184 -463l-82 -51z" />
<glyph unicode="&#xad;" horiz-adv-x="811" d="M109 455l55 223h563l-55 -223h-563z" />
<glyph unicode="&#xae;" horiz-adv-x="1157" d="M236 1016q0 193 136 326t330 133q197 0 332 -132t135 -325q0 -190 -136 -323.5t-331 -133.5t-330.5 132t-135.5 323zM291 1016q0 -174 118.5 -290t295.5 -116q174 0 292.5 118t118.5 288q0 174 -119.5 291.5t-296.5 117.5q-172 0 -290.5 -118.5t-118.5 -290.5zM518 766 v528h184q94 0 148.5 -45t54.5 -123q0 -53 -30.5 -94t-86.5 -61l185 -205h-135l-166 186h-43v-186h-111zM629 1034h59q49 0 77 22.5t28 63.5q0 39 -27 62.5t-74 23.5h-63v-172z" />
<glyph unicode="&#xaf;" horiz-adv-x="1024" d="M336 1280l41 168h721l-41 -168h-721z" />
<glyph unicode="&#xb0;" horiz-adv-x="1079" d="M221 969q0 209 142.5 351t347.5 142q176 0 286.5 -108.5t110.5 -280.5q0 -209 -142.5 -351t-347.5 -142q-176 0 -286.5 108.5t-110.5 280.5zM420 977q0 -104 57.5 -165.5t151.5 -61.5q115 0 198.5 93t83.5 224q0 102 -58 164.5t-153 62.5q-115 0 -197.5 -93t-82.5 -224z " />
<glyph unicode="&#xb1;" d="M-31 0l49 193h1031l-50 -193h-1030zM176 821l49 205h408l102 408h215l-100 -408h405l-51 -205h-405l-103 -409h-217l103 409h-406z" />
<glyph unicode="&#xb4;" horiz-adv-x="1024" d="M606 1233l258 360h320v-4l-453 -356h-125z" />
<glyph unicode="&#xb5;" horiz-adv-x="1255" d="M-74 -391l357 1427h241l-143 -581q-10 -33 -14.5 -60.5t-4.5 -48.5q0 -74 41 -113.5t115 -39.5q68 0 139.5 33.5t153.5 103.5l176 706h244l-258 -1036h-182l8 166q-84 -88 -165 -130t-165 -42q-74 0 -130 35t-83 96l-78 -426l-22 -90h-230z" />
<glyph unicode="&#xb6;" horiz-adv-x="1411" d="M180 877q0 242 210 399.5t534 157.5h534l-356 -1434h-170l303 1221h-182l-303 -1221h-150l113 455h-45q-221 0 -354.5 116.5t-133.5 305.5zM420 860q0 -123 79 -194.5t214 -71.5h35l155 627h-31q-197 0 -324.5 -102.5t-127.5 -258.5z" />
<glyph unicode="&#xb7;" horiz-adv-x="477" d="M86 563q0 70 48 119t118 49q68 0 115 -47t47 -115q0 -70 -48 -119t-118 -49q-68 0 -115 47.5t-47 114.5z" />
<glyph unicode="&#xb8;" horiz-adv-x="1024" d="M104 -287l7 8q43 -16 82.5 -23t80.5 -7q59 0 94 17.5t35 45.5q0 25 -25.5 38t-72.5 13q-18 0 -39.5 -2t-52.5 -6l-4 8l135 207h141l-71 -108q74 -4 121 -44.5t47 -99.5q0 -78 -77 -126t-208 -48q-33 0 -68.5 5.5t-76.5 13.5z" />
<glyph unicode="&#xba;" horiz-adv-x="1032" d="M113 389l34 139h744l-35 -139h-743zM252 1034q0 182 127 302t317 120q160 0 261.5 -95t101.5 -245q0 -182 -127 -302t-318 -120q-160 0 -261 95.5t-101 244.5zM438 1040q0 -86 51.5 -137t135.5 -51q102 0 174.5 74.5t72.5 183.5q0 86 -51 137t-135 51q-102 0 -175 -74.5 t-73 -183.5z" />
<glyph unicode="&#xbb;" horiz-adv-x="1310" d="M-8 45l422 492l-185 464l82 50l383 -512l-10 -43l-621 -512zM530 45l422 492l-184 464l82 50l383 -512l-10 -43l-621 -512z" />
<glyph unicode="&#xbc;" horiz-adv-x="1728" d="M136 -4l684 756l604 686h170l-686 -756l-602 -686h-170zM192 1049l47 186l447 217l20 -6l-215 -862h-180l145 590l-260 -127zM854 219l539 637h239l-135 -545h135l-35 -135h-135l-43 -176h-172l43 176h-432zM1104 311h221l100 398z" />
<glyph unicode="&#xbd;" horiz-adv-x="1763" d="M136 -4l684 756l604 686h170l-686 -756l-602 -686h-170zM192 1049l47 186l447 217l20 -6l-215 -862h-180l145 590l-260 -127zM977 0v74l373 342q96 90 124.5 130t28.5 77q0 39 -24.5 59t-71.5 20q-70 0 -144.5 -39.5t-148.5 -117.5l-4 2l37 207q55 51 132 79.5t157 28.5 q115 0 183.5 -57t68.5 -152q0 -76 -44 -143.5t-173 -181.5l-193 -174h358l-104 -154h-555z" />
<glyph unicode="&#xbe;" horiz-adv-x="1832" d="M133 811l4 2q59 -47 121.5 -69.5t126.5 -22.5q72 0 115.5 30t43.5 77q0 51 -54 83.5t-177 61.5l12 57q162 49 234.5 94.5t72.5 102.5q0 33 -26.5 52.5t-71.5 19.5q-59 0 -127.5 -23.5t-148.5 -73.5l-4 3l43 170q63 35 134.5 53t143.5 18q109 0 175.5 -53t66.5 -139 q0 -84 -58.5 -148.5t-171.5 -103.5q72 -27 107 -73t35 -112q0 -106 -94.5 -175.5t-243.5 -69.5q-72 0 -137.5 17.5t-114.5 49.5zM240 -4l684 756l604 686h170l-686 -756l-602 -686h-170zM959 219l539 637h239l-135 -545h135l-35 -135h-135l-43 -176h-172l43 176h-432z M1209 311h221l100 398z" />
<glyph unicode="&#xbf;" horiz-adv-x="999" d="M41 281q0 123 76 211t252 165q131 59 182 101.5t51 93.5q0 20 -5 39.5t-24 54.5h127q37 -43 56.5 -88t19.5 -86q0 -82 -67.5 -147.5t-225.5 -135.5q-115 -53 -161 -94t-46 -94q0 -47 42 -76.5t110 -29.5q102 0 214 48t235 146l4 -2l-68 -272q-84 -66 -189.5 -100.5 t-217.5 -34.5q-162 0 -263.5 83.5t-101.5 217.5zM625 1251q-14 51 11.5 97.5t78.5 62.5q51 16 99 -8.5t65 -75.5q16 -51 -10.5 -98t-77.5 -62q-51 -16 -100.5 8.5t-65.5 75.5z" />
<glyph unicode="&#xc0;" horiz-adv-x="1628" d="M-78 0l989 1440h265l272 -1440h-260l-58 334h-696l-223 -334h-289zM578 553h518l-107 608zM729 1872v4h310l90 -301h-121z" />
<glyph unicode="&#xc1;" horiz-adv-x="1628" d="M-78 0l989 1440h265l272 -1440h-260l-58 334h-696l-223 -334h-289zM578 553h518l-107 608zM973 1575l238 301h352v-4l-443 -297h-147z" />
<glyph unicode="&#xc2;" horiz-adv-x="1628" d="M-78 0l989 1440h265l272 -1440h-260l-58 334h-696l-223 -334h-289zM578 553h518l-107 608zM686 1575v4l336 297h230l188 -301h-131l-199 143l-272 -143h-152z" />
<glyph unicode="&#xc3;" horiz-adv-x="1628" d="M-78 0l989 1440h265l272 -1440h-260l-58 334h-696l-223 -334h-289zM578 553h518l-107 608zM690 1642q88 123 151.5 174.5t125.5 51.5q27 0 60.5 -12.5t103.5 -51.5q57 -33 81.5 -42t41.5 -9q31 0 67.5 25.5t104.5 95.5l90 -76q-88 -123 -151.5 -175t-125.5 -52 q-27 0 -60.5 12t-103.5 51q-57 33 -81.5 42.5t-40.5 9.5q-31 0 -68 -26t-104 -95z" />
<glyph unicode="&#xc4;" horiz-adv-x="1628" d="M-78 0l989 1440h265l272 -1440h-260l-58 334h-696l-223 -334h-289zM578 553h518l-107 608zM727 1716q0 63 44.5 108.5t107.5 45.5t106 -43t43 -107q0 -63 -44 -107t-107 -44t-106.5 43t-43.5 104zM1159 1716q0 63 44.5 108.5t107.5 45.5t106 -43t43 -107q0 -63 -44 -107 t-107 -44t-106.5 43t-43.5 104z" />
<glyph unicode="&#xc5;" horiz-adv-x="1628" d="M-78 0l932 1358q-25 33 -39 72.5t-14 82.5q0 115 81 196t193 81q106 0 177 -69.5t71 -174.5q0 -70 -33 -130t-90 -99l248 -1317h-260l-58 334h-696l-223 -334h-289zM580 553h516l-107 608zM907 1516q0 -63 41 -104.5t105 -41.5q68 0 116 50t48 124q0 63 -41 105.5 t-105 42.5q-68 0 -116 -51t-48 -125z" />
<glyph unicode="&#xc6;" horiz-adv-x="2074" d="M-109 0v4l1239 1430h1041l-57 -228h-629l-92 -370h522l-55 -218h-521l-96 -391h672l-121 -227h-864l84 334h-543l-289 -334h-291zM659 553h408l164 661z" />
<glyph unicode="&#xc7;" horiz-adv-x="1447" d="M150 604q0 174 62 328.5t177 275.5q119 119 273.5 184.5t324.5 65.5q152 0 277 -53t227 -162l-57 -282l-4 -3q-96 129 -210 195t-241 66q-225 0 -395 -177.5t-170 -416.5q0 -180 115.5 -295t295.5 -115q127 0 253 55.5t261 169.5l9 -4l-136 -340q-86 -55 -190 -87 t-221 -34l-53 -81q74 -4 120.5 -44.5t46.5 -99.5q0 -78 -76.5 -126t-207.5 -48q-33 0 -69 5t-77 13l-47 109l6 8q43 -16 83 -23t81 -7q59 0 94 17t35 46q0 25 -25.5 38t-72.5 13q-18 0 -39.5 -2t-52.5 -6l-4 8l123 189q-236 37 -376 203.5t-140 416.5z" />
<glyph unicode="&#xc8;" horiz-adv-x="1202" d="M57 0l357 1434h884l-57 -228h-629l-92 -370h522l-55 -218h-520l-96 -391h671l-120 -227h-865zM549 1872v4h310l90 -301h-121z" />
<glyph unicode="&#xc9;" horiz-adv-x="1202" d="M57 0l357 1434h884l-57 -228h-629l-92 -370h522l-55 -218h-520l-96 -391h671l-120 -227h-865zM793 1575l238 301h352v-4l-443 -297h-147z" />
<glyph unicode="&#xca;" horiz-adv-x="1202" d="M57 0l357 1434h884l-57 -228h-629l-92 -370h522l-55 -218h-520l-96 -391h671l-120 -227h-865zM506 1575v4l336 297h230l188 -301h-131l-199 143l-272 -143h-152z" />
<glyph unicode="&#xcb;" horiz-adv-x="1202" d="M57 0l357 1434h884l-57 -228h-629l-92 -370h522l-55 -218h-520l-96 -391h671l-120 -227h-865zM547 1716q0 63 44.5 108.5t107.5 45.5t106 -43t43 -107q0 -63 -44 -107t-107 -44t-106.5 43t-43.5 104zM979 1716q0 63 44.5 108.5t107.5 45.5t106 -43t43 -107 q0 -63 -44 -107t-107 -44t-106.5 43t-43.5 104z" />
<glyph unicode="&#xcc;" horiz-adv-x="649" d="M68 0l356 1434h258l-356 -1434h-258zM250 1872v4h310l90 -301h-121z" />
<glyph unicode="&#xcd;" horiz-adv-x="649" d="M68 0l356 1434h258l-356 -1434h-258zM494 1575l238 301h352v-4l-443 -297h-147z" />
<glyph unicode="&#xce;" horiz-adv-x="649" d="M68 0l356 1434h258l-356 -1434h-258zM207 1575v4l336 297h230l188 -301h-131l-199 143l-272 -143h-152z" />
<glyph unicode="&#xcf;" horiz-adv-x="649" d="M68 0l356 1434h258l-356 -1434h-258zM248 1716q0 63 44.5 108.5t107.5 45.5t106 -43t43 -107q0 -63 -44 -107t-107 -44t-106.5 43t-43.5 104zM680 1716q0 63 44.5 108.5t107.5 45.5t106 -43t43 -107q0 -63 -44 -107t-107 -44t-106.5 43t-43.5 104z" />
<glyph unicode="&#xd0;" horiz-adv-x="1636" d="M78 639l45 180h182l154 615h403q344 0 536.5 -159t192.5 -444q0 -365 -274 -598t-694 -233h-521l160 639h-184zM412 231h209q301 0 503.5 164t202.5 410q0 190 -130 293.5t-372 103.5h-172l-96 -385h350l-45 -176h-348z" />
<glyph unicode="&#xd1;" horiz-adv-x="1671" d="M57 0l357 1434h243l572 -953l235 953h248l-356 -1442h-127l-656 1093l-266 -1085h-250zM704 1642q88 123 151.5 174.5t125.5 51.5q27 0 60.5 -12.5t103.5 -51.5q57 -33 81.5 -42t41.5 -9q31 0 67.5 25.5t104.5 95.5l90 -76q-88 -123 -151.5 -175t-125.5 -52 q-27 0 -60.5 12t-103.5 51q-57 33 -81.5 42.5t-40.5 9.5q-31 0 -68 -26t-104 -95z" />
<glyph unicode="&#xd2;" horiz-adv-x="1699" d="M150 608q0 174 63 330t182 274q119 121 275.5 185.5t326.5 64.5q287 0 469.5 -177t182.5 -460q0 -174 -63.5 -329.5t-180.5 -274.5q-121 -121 -276.5 -185.5t-325.5 -64.5q-289 0 -471 177.5t-182 459.5zM416 625q0 -188 113.5 -302t295.5 -114q225 0 392 176t167 424 q0 188 -114.5 302t-296.5 114q-225 0 -391 -176t-166 -424zM733 1882v4h310l90 -301h-121z" />
<glyph unicode="&#xd3;" horiz-adv-x="1699" d="M150 608q0 174 63 330t182 274q119 121 275.5 185.5t326.5 64.5q287 0 469.5 -177t182.5 -460q0 -174 -63.5 -329.5t-180.5 -274.5q-121 -121 -276.5 -185.5t-325.5 -64.5q-289 0 -471 177.5t-182 459.5zM416 625q0 -188 113.5 -302t295.5 -114q225 0 392 176t167 424 q0 188 -114.5 302t-296.5 114q-225 0 -391 -176t-166 -424zM977 1585l238 301h352v-4l-443 -297h-147z" />
<glyph unicode="&#xd4;" horiz-adv-x="1699" d="M150 608q0 174 63 330t182 274q119 121 275.5 185.5t326.5 64.5q287 0 469.5 -177t182.5 -460q0 -174 -63.5 -329.5t-180.5 -274.5q-121 -121 -276.5 -185.5t-325.5 -64.5q-289 0 -471 177.5t-182 459.5zM416 625q0 -188 113.5 -302t295.5 -114q225 0 392 176t167 424 q0 188 -114.5 302t-296.5 114q-225 0 -391 -176t-166 -424zM690 1585v4l336 297h230l188 -301h-131l-199 143l-272 -143h-152z" />
<glyph unicode="&#xd5;" horiz-adv-x="1699" d="M150 608q0 174 63 330t182 274q119 121 275.5 185.5t326.5 64.5q287 0 469.5 -177t182.5 -460q0 -174 -63.5 -329.5t-180.5 -274.5q-121 -121 -276.5 -185.5t-325.5 -64.5q-289 0 -471 177.5t-182 459.5zM416 625q0 -188 113.5 -302t295.5 -114q225 0 392 176t167 424 q0 188 -114.5 302t-296.5 114q-225 0 -391 -176t-166 -424zM694 1652q88 123 151.5 174.5t125.5 51.5q27 0 60.5 -12.5t103.5 -51.5q57 -33 81.5 -42t41.5 -9q31 0 67.5 25.5t104.5 95.5l90 -76q-88 -123 -151.5 -175t-125.5 -52q-27 0 -60.5 12t-103.5 51 q-57 33 -81.5 42.5t-40.5 9.5q-31 0 -68 -26t-104 -95z" />
<glyph unicode="&#xd6;" horiz-adv-x="1699" d="M150 608q0 174 63 330t182 274q119 121 275.5 185.5t326.5 64.5q287 0 469.5 -177t182.5 -460q0 -174 -63.5 -329.5t-180.5 -274.5q-121 -121 -276.5 -185.5t-325.5 -64.5q-289 0 -471 177.5t-182 459.5zM416 625q0 -188 113.5 -302t295.5 -114q225 0 392 176t167 424 q0 188 -114.5 302t-296.5 114q-225 0 -391 -176t-166 -424zM731 1726q0 63 44.5 108.5t107.5 45.5t106 -43t43 -107q0 -63 -44 -107t-107 -44t-106.5 43t-43.5 104zM1163 1726q0 63 44.5 108.5t107.5 45.5t106 -43t43 -107q0 -63 -44 -107t-107 -44t-106.5 43t-43.5 104z " />
<glyph unicode="&#xd7;" d="M94 391l432 342l-262 344l170 131l252 -346l422 346l127 -161l-430 -342l260 -345l-170 -131l-250 346l-424 -346z" />
<glyph unicode="&#xd8;" horiz-adv-x="1699" d="M-16 -84l295 299q-63 82 -96 182.5t-33 210.5q0 174 63 330t182 274q119 121 275.5 185.5t326.5 64.5q111 0 212.5 -31.5t185.5 -91.5l176 183h246v-4l-297 -299q63 -82 96 -182.5t33 -211.5q0 -174 -63.5 -329.5t-180.5 -274.5q-121 -121 -276.5 -185.5t-325.5 -64.5 q-113 0 -214.5 32t-182.5 91l-179 -182h-243v4zM406 625q0 -70 14 -128.5t41 -105.5l758 778q-51 33 -112.5 49.5t-133.5 16.5q-227 0 -397 -180.5t-170 -429.5zM580 264q51 -33 112 -49t133 -16q227 0 397.5 180t170.5 430q0 70 -13.5 128t-42.5 105z" />
<glyph unicode="&#xd9;" horiz-adv-x="1601" d="M186 489q0 49 7.5 102.5t21.5 108.5l182 734h258l-188 -760q-10 -45 -16.5 -84t-6.5 -72q0 -145 84 -227t232 -82q160 0 277.5 104.5t164.5 288.5l207 832h252l-217 -871q-72 -291 -252 -439.5t-461 -148.5q-250 0 -397.5 139t-147.5 375zM725 1872v4h310l90 -301h-121z " />
<glyph unicode="&#xda;" horiz-adv-x="1601" d="M186 489q0 49 7.5 102.5t21.5 108.5l182 734h258l-188 -760q-10 -45 -16.5 -84t-6.5 -72q0 -145 84 -227t232 -82q160 0 277.5 104.5t164.5 288.5l207 832h252l-217 -871q-72 -291 -252 -439.5t-461 -148.5q-250 0 -397.5 139t-147.5 375zM969 1575l238 301h352v-4 l-443 -297h-147z" />
<glyph unicode="&#xdb;" horiz-adv-x="1601" d="M186 489q0 49 7.5 102.5t21.5 108.5l182 734h258l-188 -760q-10 -45 -16.5 -84t-6.5 -72q0 -145 84 -227t232 -82q160 0 277.5 104.5t164.5 288.5l207 832h252l-217 -871q-72 -291 -252 -439.5t-461 -148.5q-250 0 -397.5 139t-147.5 375zM682 1575v4l336 297h230 l188 -301h-131l-199 143l-272 -143h-152z" />
<glyph unicode="&#xdc;" horiz-adv-x="1601" d="M186 489q0 49 7.5 102.5t21.5 108.5l182 734h258l-188 -760q-10 -45 -16.5 -84t-6.5 -72q0 -145 84 -227t232 -82q160 0 277.5 104.5t164.5 288.5l207 832h252l-217 -871q-72 -291 -252 -439.5t-461 -148.5q-250 0 -397.5 139t-147.5 375zM723 1716q0 63 44.5 108.5 t107.5 45.5t106 -43t43 -107q0 -63 -44 -107t-107 -44t-106.5 43t-43.5 104zM1155 1716q0 63 44.5 108.5t107.5 45.5t106 -43t43 -107q0 -63 -44 -107t-107 -44t-106.5 43t-43.5 104z" />
<glyph unicode="&#xdd;" horiz-adv-x="1382" d="M244 1434h272l240 -592l524 592h311v-4l-753 -828l-152 -602h-258l156 629zM840 1575l238 301h352v-4l-443 -297h-147z" />
<glyph unicode="&#xde;" horiz-adv-x="1273" d="M57 0l357 1434h258l-62 -250h158q211 0 340 -111t129 -293q0 -231 -175 -371.5t-464 -140.5h-217l-66 -268h-258zM434 487h187q160 0 259 77t99 198q0 96 -66.5 150.5t-185.5 54.5h-174z" />
<glyph unicode="&#xdf;" horiz-adv-x="1398" d="M121 0l209 838h-178l51 198h176l24 101q49 199 183.5 306t333.5 107q182 0 294.5 -103.5t112.5 -270.5q0 -125 -76.5 -233.5t-224.5 -192.5q115 -63 172 -151.5t57 -201.5q0 -172 -136 -292.5t-341 -120.5q-51 0 -102 10t-101 29l-30 219l4 4q51 -27 101 -40t104 -13 q111 0 185.5 65.5t74.5 157.5q0 94 -76 162.5t-240 123.5l2 76q190 76 287.5 169t97.5 204q0 88 -50 139t-136 51q-96 0 -166.5 -67.5t-101.5 -192.5l-269 -1081h-241z" />
<glyph unicode="&#xe0;" horiz-adv-x="1142" d="M25 248q0 170 150.5 263t426.5 93q51 0 102.5 -3t94.5 -9q2 25 3 40t1 27q0 86 -55.5 135.5t-155.5 49.5q-86 0 -177 -28t-198 -87l-4 4l104 252q82 37 161 53.5t167 16.5q184 0 291.5 -99.5t107.5 -267.5q0 -45 -6 -90t-22 -102l-127 -476l-248 -40l45 165 q-102 -82 -198.5 -121.5t-184.5 -39.5q-125 0 -201.5 71.5t-76.5 192.5zM258 283q0 -53 35 -83t96 -30q74 0 154 28.5t178 90.5l45 172q-51 4 -83 6t-56 2q-174 0 -271.5 -50t-97.5 -136zM430 1593h288l84 -360h-106z" />
<glyph unicode="&#xe1;" horiz-adv-x="1142" d="M25 248q0 170 150.5 263t426.5 93q51 0 102.5 -3t94.5 -9q2 25 3 40t1 27q0 86 -55.5 135.5t-155.5 49.5q-86 0 -177 -28t-198 -87l-4 4l104 252q82 37 161 53.5t167 16.5q184 0 291.5 -99.5t107.5 -267.5q0 -45 -6 -90t-22 -102l-127 -476l-248 -40l45 165 q-102 -82 -198.5 -121.5t-184.5 -39.5q-125 0 -201.5 71.5t-76.5 192.5zM258 283q0 -53 35 -83t96 -30q74 0 154 28.5t178 90.5l45 172q-51 4 -83 6t-56 2q-174 0 -271.5 -50t-97.5 -136zM667 1233l258 360h320v-4l-453 -356h-125z" />
<glyph unicode="&#xe2;" horiz-adv-x="1142" d="M25 248q0 170 150.5 263t426.5 93q51 0 102.5 -3t94.5 -9q2 25 3 40t1 27q0 86 -55.5 135.5t-155.5 49.5q-86 0 -177 -28t-198 -87l-4 4l104 252q82 37 161 53.5t167 16.5q184 0 291.5 -99.5t107.5 -267.5q0 -45 -6 -90t-22 -102l-127 -476l-248 -40l45 165 q-102 -82 -198.5 -121.5t-184.5 -39.5q-125 0 -201.5 71.5t-76.5 192.5zM258 283q0 -53 35 -83t96 -30q74 0 154 28.5t178 90.5l45 172q-51 4 -83 6t-56 2q-174 0 -271.5 -50t-97.5 -136zM395 1233v4l338 356h211l161 -360h-110l-189 182l-282 -182h-129z" />
<glyph unicode="&#xe3;" horiz-adv-x="1142" d="M25 248q0 170 150.5 263t426.5 93q51 0 102.5 -3t94.5 -9q2 25 3 40t1 27q0 86 -55.5 135.5t-155.5 49.5q-86 0 -177 -28t-198 -87l-4 4l104 252q82 37 161 53.5t167 16.5q184 0 291.5 -99.5t107.5 -267.5q0 -45 -6 -90t-22 -102l-127 -476l-248 -40l45 165 q-102 -82 -198.5 -121.5t-184.5 -39.5q-125 0 -201.5 71.5t-76.5 192.5zM258 283q0 -53 35 -83t96 -30q74 0 154 28.5t178 90.5l45 172q-51 4 -83 6t-56 2q-174 0 -271.5 -50t-97.5 -136zM360 1296q121 164 177 213.5t116 49.5q27 0 61.5 -14.5t106.5 -61.5 q61 -39 86.5 -50.5t42.5 -11.5q27 0 59.5 26t116.5 116l96 -74q-117 -162 -174 -212t-117 -50q-27 0 -61.5 14t-108.5 62q-59 37 -84.5 48t-42.5 11q-29 0 -61.5 -25.5t-116.5 -115.5z" />
<glyph unicode="&#xe4;" horiz-adv-x="1142" d="M25 248q0 170 150.5 263t426.5 93q51 0 102.5 -3t94.5 -9q2 25 3 40t1 27q0 86 -55.5 135.5t-155.5 49.5q-86 0 -177 -28t-198 -87l-4 4l104 252q82 37 161 53.5t167 16.5q184 0 291.5 -99.5t107.5 -267.5q0 -45 -6 -90t-22 -102l-127 -476l-248 -40l45 165 q-102 -82 -198.5 -121.5t-184.5 -39.5q-125 0 -201.5 71.5t-76.5 192.5zM258 283q0 -53 35 -83t96 -30q74 0 154 28.5t178 90.5l45 172q-51 4 -83 6t-56 2q-174 0 -271.5 -50t-97.5 -136zM413 1374q0 61 44 105.5t108 44.5q61 0 104 -42t43 -104q0 -63 -44 -107t-107 -44 q-61 0 -104.5 43t-43.5 104zM847 1374q0 61 44 105.5t108 44.5q61 0 104 -42t43 -104q0 -63 -44 -107t-107 -44q-61 0 -104.5 43t-43.5 104z" />
<glyph unicode="&#xe5;" horiz-adv-x="1142" d="M25 248q0 170 150.5 263t426.5 93q51 0 102.5 -3t94.5 -9q2 25 3 40t1 27q0 86 -55.5 135.5t-155.5 49.5q-86 0 -177 -28t-198 -87l-4 4l104 252q82 37 161 53.5t167 16.5q184 0 291.5 -99.5t107.5 -267.5q0 -45 -6 -90t-22 -102l-127 -476l-248 -40l45 165 q-102 -82 -198.5 -121.5t-184.5 -39.5q-125 0 -201.5 71.5t-76.5 192.5zM258 283q0 -53 35 -83t96 -30q74 0 154 28.5t178 90.5l45 172q-51 4 -83 6t-56 2q-174 0 -271.5 -50t-97.5 -136zM542 1466q0 113 81 194t192 81q104 0 173.5 -70t69.5 -172q0 -113 -80.5 -194.5 t-191.5 -81.5q-104 0 -174 69.5t-70 173.5zM649 1468q0 -63 40 -105t101 -42q68 0 115 51t47 125q0 63 -40 104t-101 41q-68 0 -115 -51t-47 -123z" />
<glyph unicode="&#xe6;" horiz-adv-x="1847" d="M25 248q0 170 150.5 263t426.5 93q51 0 102.5 -3t94.5 -9q2 25 3 40t1 27q0 86 -55.5 135.5t-155.5 49.5q-86 0 -177 -28t-198 -87l-4 4l104 252q80 37 160 53.5t166 16.5q115 0 202 -41t136 -119q84 82 191.5 126t220.5 44q178 0 283.5 -110.5t105.5 -299.5 q0 -57 -7.5 -112.5t-21.5 -104.5h-745q4 -125 74.5 -190.5t199.5 -65.5q94 0 189.5 25.5t185.5 77.5l4 -2l-51 -217q-88 -45 -183.5 -67t-201.5 -22q-129 0 -228.5 52.5t-158.5 148.5q-139 -102 -259 -148t-251 -46q-139 0 -221 71.5t-82 192.5zM258 283q0 -53 35 -83 t98 -30q84 0 179.5 39t213.5 123q-4 18 -6 41.5t-2 50.5q0 6 1 17.5t1 17.5q-41 4 -78.5 7t-72.5 3q-174 0 -271.5 -50t-97.5 -136zM1038 596h514q2 8 2 16.5v24.5q0 113 -50 173t-142 60q-96 0 -189.5 -78.5t-134.5 -195.5z" />
<glyph unicode="&#xe7;" horiz-adv-x="1075" d="M78 418q0 274 181 457.5t446 183.5q94 0 183 -31t163 -88l-50 -248l-6 -2q-63 74 -139 112t-164 38q-150 0 -260 -118t-110 -280q0 -117 68.5 -181t193.5 -64q92 0 187 37.5t177 107.5l6 -4l-114 -287q-61 -35 -133 -54.5t-148 -21.5l-55 -81q74 -4 121 -44.5t47 -99.5 q0 -78 -77 -126t-208 -48q-33 0 -68.5 5t-76.5 13l-47 109l6 8q43 -16 83 -23t81 -7q59 0 94 17t35 46q0 25 -26 38t-73 13q-18 0 -39.5 -2t-52.5 -6l-4 8l125 191q-160 33 -253 147.5t-93 284.5z" />
<glyph unicode="&#xe8;" horiz-adv-x="1146" d="M78 424q0 266 181 453.5t433 187.5q178 0 283.5 -110.5t105.5 -299.5q0 -57 -7 -112.5t-21 -104.5h-744q4 -125 74 -190.5t199 -65.5q94 0 189 25.5t185 77.5l5 -2l-52 -217q-88 -45 -183 -67t-202 -22q-203 0 -324.5 122t-121.5 325zM338 596h514q2 8 2 16.5v24.5 q0 113 -50 173t-142 60q-96 0 -189.5 -78.5t-134.5 -195.5zM432 1603h288l84 -360h-106z" />
<glyph unicode="&#xe9;" horiz-adv-x="1146" d="M78 424q0 266 181 453.5t433 187.5q178 0 283.5 -110.5t105.5 -299.5q0 -57 -7 -112.5t-21 -104.5h-744q4 -125 74 -190.5t199 -65.5q94 0 189 25.5t185 77.5l5 -2l-52 -217q-88 -45 -183 -67t-202 -22q-203 0 -324.5 122t-121.5 325zM338 596h514q2 8 2 16.5v24.5 q0 113 -50 173t-142 60q-96 0 -189.5 -78.5t-134.5 -195.5zM669 1243l258 360h320v-4l-453 -356h-125z" />
<glyph unicode="&#xea;" horiz-adv-x="1146" d="M78 424q0 266 181 453.5t433 187.5q178 0 283.5 -110.5t105.5 -299.5q0 -57 -7 -112.5t-21 -104.5h-744q4 -125 74 -190.5t199 -65.5q94 0 189 25.5t185 77.5l5 -2l-52 -217q-88 -45 -183 -67t-202 -22q-203 0 -324.5 122t-121.5 325zM338 596h514q2 8 2 16.5v24.5 q0 113 -50 173t-142 60q-96 0 -189.5 -78.5t-134.5 -195.5zM397 1243v4l338 356h211l161 -360h-110l-189 182l-282 -182h-129z" />
<glyph unicode="&#xeb;" horiz-adv-x="1146" d="M78 424q0 266 181 453.5t433 187.5q178 0 283.5 -110.5t105.5 -299.5q0 -57 -7 -112.5t-21 -104.5h-744q4 -125 74 -190.5t199 -65.5q94 0 189 25.5t185 77.5l5 -2l-52 -217q-88 -45 -183 -67t-202 -22q-203 0 -324.5 122t-121.5 325zM338 596h514q2 8 2 16.5v24.5 q0 113 -50 173t-142 60q-96 0 -189.5 -78.5t-134.5 -195.5zM415 1384q0 61 44 105.5t108 44.5q61 0 104 -42t43 -104q0 -63 -44 -107t-107 -44q-61 0 -104.5 43t-43.5 104zM849 1384q0 61 44 105.5t108 44.5q61 0 104 -42t43 -104q0 -63 -44 -107t-107 -44q-61 0 -104.5 43 t-43.5 104z" />
<glyph unicode="&#xec;" horiz-adv-x="567" d="M33 0l258 1036h244l-259 -1036h-243zM138 1593h288l84 -360h-106z" />
<glyph unicode="&#xed;" horiz-adv-x="567" d="M33 0l258 1036h244l-259 -1036h-243zM375 1233l258 360h320v-4l-453 -356h-125z" />
<glyph unicode="&#xee;" horiz-adv-x="567" d="M33 0l258 1036h244l-259 -1036h-243zM103 1233v4l338 356h211l161 -360h-110l-189 182l-282 -182h-129z" />
<glyph unicode="&#xef;" horiz-adv-x="567" d="M33 0l258 1036h244l-259 -1036h-243zM121 1374q0 61 44 105.5t108 44.5q61 0 104 -42t43 -104q0 -63 -44 -107t-107 -44q-61 0 -104.5 43t-43.5 104zM555 1374q0 61 44 105.5t108 44.5q61 0 104 -42t43 -104q0 -63 -44 -107t-107 -44q-61 0 -104.5 43t-43.5 104z" />
<glyph unicode="&#xf0;" horiz-adv-x="1239" d="M74 424q0 217 159.5 374.5t378.5 157.5q86 0 159 -25.5t130 -78.5q-25 92 -73 175t-130 175l-166 -129l-81 105l157 118q-61 57 -92 86t-59 54l159 129q41 -33 79 -68t77 -74l172 138l84 -105l-168 -127q143 -164 211 -338t68 -379q0 -289 -164 -465t-426 -176 q-211 0 -343 127t-132 326zM315 436q0 -113 71 -183.5t181 -70.5q137 0 234.5 95.5t97.5 234.5q0 113 -73.5 180.5t-196.5 67.5q-127 0 -220.5 -97.5t-93.5 -226.5z" />
<glyph unicode="&#xf1;" horiz-adv-x="1239" d="M25 0l251 1010l250 41l-43 -177q90 94 174 138.5t172 44.5q137 0 224.5 -85t87.5 -222q0 -35 -6.5 -77t-26.5 -132l-135 -541h-244l145 580q8 29 12.5 56t4.5 52q0 74 -40 114t-114 40q-68 0 -140.5 -34t-154.5 -103l-176 -705h-241zM391 1296q121 164 177 213.5 t116 49.5q27 0 61.5 -14.5t106.5 -61.5q61 -39 86.5 -50.5t42.5 -11.5q27 0 59.5 26t116.5 116l96 -74q-117 -162 -174 -212t-117 -50q-27 0 -61.5 14t-108.5 62q-59 37 -84.5 48t-42.5 11q-29 0 -61.5 -25.5t-116.5 -115.5z" />
<glyph unicode="&#xf2;" horiz-adv-x="1247" d="M78 434q0 268 178 449.5t436 181.5q211 0 344 -129t133 -334q0 -266 -179 -448.5t-435 -182.5q-211 0 -344 129t-133 334zM319 444q0 -119 69 -190.5t181 -71.5q145 0 252 120t107 290q0 119 -68.5 189.5t-181.5 70.5q-145 0 -252 -120t-107 -288zM453 1603h288l84 -360 h-106z" />
<glyph unicode="&#xf3;" horiz-adv-x="1247" d="M78 434q0 268 178 449.5t436 181.5q211 0 344 -129t133 -334q0 -266 -179 -448.5t-435 -182.5q-211 0 -344 129t-133 334zM319 444q0 -119 69 -190.5t181 -71.5q145 0 252 120t107 290q0 119 -68.5 189.5t-181.5 70.5q-145 0 -252 -120t-107 -288zM690 1243l258 360h320 v-4l-453 -356h-125z" />
<glyph unicode="&#xf4;" horiz-adv-x="1247" d="M78 434q0 268 178 449.5t436 181.5q211 0 344 -129t133 -334q0 -266 -179 -448.5t-435 -182.5q-211 0 -344 129t-133 334zM319 444q0 -119 69 -190.5t181 -71.5q145 0 252 120t107 290q0 119 -68.5 189.5t-181.5 70.5q-145 0 -252 -120t-107 -288zM418 1243v4l338 356 h211l161 -360h-110l-189 182l-282 -182h-129z" />
<glyph unicode="&#xf5;" horiz-adv-x="1247" d="M78 434q0 268 178 449.5t436 181.5q211 0 344 -129t133 -334q0 -266 -179 -448.5t-435 -182.5q-211 0 -344 129t-133 334zM319 444q0 -119 69 -190.5t181 -71.5q145 0 252 120t107 290q0 119 -68.5 189.5t-181.5 70.5q-145 0 -252 -120t-107 -288zM383 1306 q121 164 177 213.5t116 49.5q27 0 61.5 -14.5t106.5 -61.5q61 -39 86.5 -50.5t42.5 -11.5q27 0 59.5 26t116.5 116l96 -74q-117 -162 -174 -212t-117 -50q-27 0 -61.5 14t-108.5 62q-59 37 -84.5 48t-42.5 11q-29 0 -61.5 -25.5t-116.5 -115.5z" />
<glyph unicode="&#xf6;" horiz-adv-x="1247" d="M78 434q0 268 178 449.5t436 181.5q211 0 344 -129t133 -334q0 -266 -179 -448.5t-435 -182.5q-211 0 -344 129t-133 334zM319 444q0 -119 69 -190.5t181 -71.5q145 0 252 120t107 290q0 119 -68.5 189.5t-181.5 70.5q-145 0 -252 -120t-107 -288zM436 1384 q0 61 44 105.5t108 44.5q61 0 104 -42t43 -104q0 -63 -44 -107t-107 -44q-61 0 -104.5 43t-43.5 104zM870 1384q0 61 44 105.5t108 44.5q61 0 104 -42t43 -104q0 -63 -44 -107t-107 -44q-61 0 -104.5 43t-43.5 104z" />
<glyph unicode="&#xf7;" d="M121 616l49 201l518 -2l520 2l-51 -201l-518 2zM399 291q0 66 47.5 113t114.5 47q66 0 112 -45.5t46 -110.5q0 -68 -47 -115t-115 -47q-66 0 -112 46t-46 112zM608 1137q0 68 47 114.5t115 46.5q66 0 112 -46t46 -111q0 -66 -47 -113t-115 -47q-66 0 -112 45t-46 111z " />
<glyph unicode="&#xf8;" horiz-adv-x="1247" d="M-57 -80l223 236q-43 59 -65.5 129.5t-22.5 148.5q0 268 178 449.5t436 181.5q78 0 148.5 -20.5t130.5 -59.5l127 135h207v-4l-224 -235q43 -59 65.5 -130t22.5 -149q0 -266 -179 -448.5t-435 -182.5q-78 0 -148.5 20.5t-130.5 59.5l-126 -135h-207v4zM309 444 q0 -35 6.5 -67.5t18.5 -59.5l481 510q-29 16 -63.5 25.5t-73.5 9.5q-143 0 -256 -125t-113 -293zM432 209q29 -16 63.5 -25.5t73.5 -9.5q145 0 257 125t112 293q0 35 -6 67.5t-19 59.5z" />
<glyph unicode="&#xf9;" horiz-adv-x="1239" d="M100 287q0 39 7.5 86t23.5 121l135 542h244l-145 -579q-10 -43 -13.5 -66.5t-3.5 -42.5q0 -74 40 -113.5t114 -39.5q68 0 139.5 33.5t155.5 103.5l176 704h241l-258 -1036h-239l41 162q-90 -94 -175 -138t-173 -44q-137 0 -223.5 85t-86.5 222zM447 1593h288l84 -360 h-106z" />
<glyph unicode="&#xfa;" horiz-adv-x="1239" d="M100 287q0 39 7.5 86t23.5 121l135 542h244l-145 -579q-10 -43 -13.5 -66.5t-3.5 -42.5q0 -74 40 -113.5t114 -39.5q68 0 139.5 33.5t155.5 103.5l176 704h241l-258 -1036h-239l41 162q-90 -94 -175 -138t-173 -44q-137 0 -223.5 85t-86.5 222zM684 1233l258 360h320v-4 l-453 -356h-125z" />
<glyph unicode="&#xfb;" horiz-adv-x="1239" d="M100 287q0 39 7.5 86t23.5 121l135 542h244l-145 -579q-10 -43 -13.5 -66.5t-3.5 -42.5q0 -74 40 -113.5t114 -39.5q68 0 139.5 33.5t155.5 103.5l176 704h241l-258 -1036h-239l41 162q-90 -94 -175 -138t-173 -44q-137 0 -223.5 85t-86.5 222zM412 1233v4l338 356h211 l161 -360h-110l-189 182l-282 -182h-129z" />
<glyph unicode="&#xfc;" horiz-adv-x="1239" d="M100 287q0 39 7.5 86t23.5 121l135 542h244l-145 -579q-10 -43 -13.5 -66.5t-3.5 -42.5q0 -74 40 -113.5t114 -39.5q68 0 139.5 33.5t155.5 103.5l176 704h241l-258 -1036h-239l41 162q-90 -94 -175 -138t-173 -44q-137 0 -223.5 85t-86.5 222zM430 1374q0 61 44 105.5 t108 44.5q61 0 104 -42t43 -104q0 -63 -44 -107t-107 -44q-61 0 -104.5 43t-43.5 104zM864 1374q0 61 44 105.5t108 44.5q61 0 104 -42t43 -104q0 -63 -44 -107t-107 -44q-61 0 -104.5 43t-43.5 104z" />
<glyph unicode="&#xfd;" horiz-adv-x="1159" d="M-117 -131l6 4q35 -25 75 -36t91 -11q84 0 144.5 36t113.5 118l52 79l-201 977h250l127 -721l438 721h270l-727 -1140q-96 -152 -201.5 -222.5t-240.5 -70.5q-41 0 -77 7t-64 21zM651 1233l258 360h320v-4l-453 -356h-125z" />
<glyph unicode="&#xfe;" horiz-adv-x="1267" d="M-72 -391l465 1868l262 77l-163 -657q86 82 168.5 120t175.5 38q158 0 258 -112t100 -292q0 -141 -51.5 -267t-145.5 -218q-88 -88 -198.5 -135t-231.5 -47q-78 0 -150.5 18t-133.5 55l-111 -448h-244zM334 258q51 -35 105.5 -51.5t115.5 -16.5q162 0 279.5 127 t117.5 306q0 104 -56 163.5t-155 59.5q-70 0 -139.5 -29t-150.5 -88z" />
<glyph unicode="&#xff;" horiz-adv-x="1159" d="M-117 -131l6 4q35 -25 75 -36t91 -11q84 0 144.5 36t113.5 118l52 79l-201 977h250l127 -721l438 721h270l-727 -1140q-96 -152 -201.5 -222.5t-240.5 -70.5q-41 0 -77 7t-64 21zM397 1374q0 61 44 105.5t108 44.5q61 0 104 -42t43 -104q0 -63 -44 -107t-107 -44 q-61 0 -104.5 43t-43.5 104zM831 1374q0 61 44 105.5t108 44.5q61 0 104 -42t43 -104q0 -63 -44 -107t-107 -44q-61 0 -104.5 43t-43.5 104z" />
<glyph unicode="&#x152;" horiz-adv-x="2070" d="M143 602q0 365 274.5 598.5t696.5 233.5h1053l-58 -228h-626l-92 -370h522l-55 -218h-521l-96 -391h672l-123 -227h-918q-344 0 -536.5 158.5t-192.5 443.5zM410 629q0 -193 130 -296.5t369 -103.5h76l242 975h-113q-299 0 -501.5 -164.5t-202.5 -410.5z" />
<glyph unicode="&#x153;" horiz-adv-x="1978" d="M78 434q0 268 178 449.5t436 181.5q129 0 231.5 -57.5t159.5 -159.5q84 102 200 159.5t241 57.5q178 0 284.5 -110.5t106.5 -299.5q0 -55 -8.5 -109t-22.5 -108h-743q4 -125 73.5 -190.5t198.5 -65.5q94 0 189.5 25.5t187.5 77.5l4 -2l-53 -217q-88 -45 -183.5 -67 t-201.5 -22q-121 0 -214 51.5t-149 147.5q-84 -98 -198.5 -151.5t-239.5 -53.5q-211 0 -344 129t-133 334zM319 444q0 -119 69 -190.5t181 -71.5q145 0 252 120t107 290q0 119 -68.5 189.5t-181.5 70.5q-145 0 -252 -120t-107 -288zM1169 596h514q2 8 2.5 16.5t0.5 24.5 q0 113 -50.5 173t-142.5 60q-96 0 -189.5 -78.5t-134.5 -195.5z" />
<glyph unicode="&#x178;" horiz-adv-x="1382" d="M244 1434h272l240 -592l524 592h311v-4l-753 -828l-152 -602h-258l156 629zM594 1716q0 63 44.5 108.5t107.5 45.5t106 -43t43 -107q0 -63 -44 -107t-107 -44t-106.5 43t-43.5 104zM1026 1716q0 63 44.5 108.5t107.5 45.5t106 -43t43 -107q0 -63 -44 -107t-107 -44 t-106.5 43t-43.5 104z" />
<glyph unicode="&#x2c6;" horiz-adv-x="1024" d="M334 1233v4l338 356h211l161 -360h-110l-189 182l-282 -182h-129z" />
<glyph unicode="&#x2dc;" horiz-adv-x="1024" d="M299 1296q121 164 177 213.5t116 49.5q27 0 61.5 -14.5t106.5 -61.5q61 -39 86.5 -50.5t42.5 -11.5q27 0 59.5 26t116.5 116l96 -74q-117 -162 -174 -212t-117 -50q-27 0 -61.5 14t-108.5 62q-59 37 -84.5 48t-42.5 11q-29 0 -61.5 -25.5t-116.5 -115.5z" />
<glyph unicode="&#x2000;" horiz-adv-x="943" />
<glyph unicode="&#x2001;" horiz-adv-x="1886" />
<glyph unicode="&#x2002;" horiz-adv-x="943" />
<glyph unicode="&#x2003;" horiz-adv-x="1886" />
<glyph unicode="&#x2004;" horiz-adv-x="628" />
<glyph unicode="&#x2005;" horiz-adv-x="471" />
<glyph unicode="&#x2006;" horiz-adv-x="314" />
<glyph unicode="&#x2007;" horiz-adv-x="314" />
<glyph unicode="&#x2008;" horiz-adv-x="235" />
<glyph unicode="&#x2009;" horiz-adv-x="377" />
<glyph unicode="&#x200a;" horiz-adv-x="104" />
<glyph unicode="&#x2010;" horiz-adv-x="811" d="M109 455l55 223h563l-55 -223h-563z" />
<glyph unicode="&#x2011;" horiz-adv-x="811" d="M109 455l55 223h563l-55 -223h-563z" />
<glyph unicode="&#x2012;" horiz-adv-x="811" d="M109 455l55 223h563l-55 -223h-563z" />
<glyph unicode="&#x2013;" horiz-adv-x="1138" d="M109 459l53 215h891l-54 -215h-890z" />
<glyph unicode="&#x2014;" horiz-adv-x="1916" d="M109 459l53 215h1669l-53 -215h-1669z" />
<glyph unicode="&#x2018;" horiz-adv-x="483" d="M201 1020q0 96 88 197.5t291 234.5l65 -63q-119 -113 -169 -194t-50 -153q0 -39 16.5 -86t63.5 -127h-250q-29 53 -42 98.5t-13 92.5z" />
<glyph unicode="&#x2019;" horiz-adv-x="483" d="M145 874q119 115 168 195t49 152q0 39 -16 84t-61 129h247q31 -55 44.5 -100.5t13.5 -90.5q0 -96 -88 -197.5t-291 -234.5z" />
<glyph unicode="&#x201a;" horiz-adv-x="442" d="M-164 -322q119 115 168 195t49 152q0 39 -16 84t-61 129h247q31 -55 44.5 -100.5t13.5 -90.5q0 -96 -88 -197.5t-291 -234.5z" />
<glyph unicode="&#x201c;" horiz-adv-x="907" d="M201 1020q0 96 88 197.5t291 234.5l61 -63q-119 -115 -168 -195t-49 -152q0 -39 16.5 -84t61.5 -129h-246q-29 53 -42 98.5t-13 92.5zM627 1020q0 96 89 197.5t292 234.5l61 -63q-121 -117 -170 -196t-49 -151q0 -39 16.5 -86t63.5 -127h-246q-31 55 -44 100.5t-13 90.5z " />
<glyph unicode="&#x201d;" horiz-adv-x="907" d="M145 874q119 115 168 195t49 152q0 39 -16 84t-61 129h245q29 -53 42.5 -98.5t13.5 -92.5q0 -96 -88 -197.5t-291 -234.5zM571 874q119 113 169.5 194t50.5 153q0 39 -16.5 86t-63.5 127h245q31 -55 44.5 -100.5t13.5 -90.5q0 -96 -88 -197.5t-291 -234.5z" />
<glyph unicode="&#x201e;" horiz-adv-x="866" d="M-164 -322q119 115 168 195t49 152q0 39 -16 84t-61 129h245q29 -53 42.5 -98.5t13.5 -92.5q0 -96 -88 -197.5t-291 -234.5zM262 -322q119 113 169.5 194t50.5 153q0 39 -16.5 86t-63.5 127h245q31 -55 44.5 -100.5t13.5 -90.5q0 -96 -88 -197.5t-291 -234.5z" />
<glyph unicode="&#x2022;" horiz-adv-x="1073" d="M260 700q0 143 99.5 246t240.5 103q133 0 222 -90.5t89 -225.5q0 -143 -99.5 -245.5t-240.5 -102.5q-133 0 -222 90t-89 225z" />
<glyph unicode="&#x2026;" horiz-adv-x="1331" d="M-29 135q0 68 46 115t114 47q63 0 108.5 -45t45.5 -111q0 -68 -46 -113.5t-114 -45.5q-63 0 -108.5 45t-45.5 108zM414 135q0 68 47 115t112 47q66 0 111 -45t45 -111t-47 -112.5t-113 -46.5t-110.5 44t-44.5 109zM858 135q0 68 46 115t114 47q63 0 108 -45t45 -111 q0 -68 -45.5 -113.5t-113.5 -45.5q-63 0 -108.5 45t-45.5 108z" />
<glyph unicode="&#x202f;" horiz-adv-x="377" />
<glyph unicode="&#x2039;" horiz-adv-x="792" d="M78 496l8 43l645 514l72 -62l-441 -491l201 -465l-80 -51z" />
<glyph unicode="&#x203a;" horiz-adv-x="792" d="M-8 45l440 490l-203 466l82 52l406 -514l-10 -43l-644 -512z" />
<glyph unicode="&#x205f;" horiz-adv-x="471" />
<glyph unicode="&#x20ac;" horiz-adv-x="1396" d="M55 498l35 143h219q2 41 8.5 80t16.5 78h-205l35 143h215q96 240 287.5 378t425.5 138q109 0 201.5 -28.5t174.5 -86.5l-49 -237h-4q-78 68 -155.5 98.5t-172.5 30.5q-139 0 -255.5 -79t-186.5 -220h537l-35 -137h-553q-10 -35 -18.5 -74t-14.5 -84h547l-35 -137h-518 q6 -143 82 -224t205 -81q100 0 198.5 38.5t200.5 118.5l4 -4l-92 -284q-78 -43 -167 -68t-173 -25q-227 0 -364.5 140.5t-145.5 382.5h-248z" />
<glyph unicode="&#x2122;" horiz-adv-x="2062" d="M248 1284l39 150h731l-37 -150h-281l-163 -657h-166l164 657h-287zM936 627l248 807h225l111 -506l360 506h252l-160 -807h-162l123 626l-471 -641h-22l-150 639l-192 -624h-162z" />
<glyph unicode="&#x25fc;" horiz-adv-x="1034" d="M0 0v1034h1034v-1034h-1034z" />
<glyph unicode="&#xfb03;" horiz-adv-x="2275" d="M121 0l209 838h-178l51 198h176l37 150q43 178 157.5 272t284.5 94q47 0 88 -7t76 -21l39 -221l-6 -3q-47 23 -90 33t-93 10q-88 0 -147 -53t-84 -153l-25 -101h332l-49 -198h-330l-207 -838h-241zM975 0l209 838h-178l51 198h176l37 150q43 178 157.5 272t284.5 94 q47 0 88 -7t76 -21l39 -221l-6 -3q-47 23 -90 33t-93 10q-88 0 -147 -53t-84 -153l-25 -101h332l-49 -198h-330l-207 -838h-241zM1739 0l258 1036h244l-259 -1036h-243zM2048 1393q0 66 45 109.5t113 43.5q66 0 109.5 -43t43.5 -106t-46 -108.5t-111 -45.5q-66 0 -110 43 t-44 107z" />
<glyph unicode="&#xfb04;" horiz-adv-x="2275" d="M121 0l209 838h-178l51 198h176l37 150q43 178 157.5 272t284.5 94q47 0 88 -7t76 -21l39 -221l-6 -3q-47 23 -90 33t-93 10q-88 0 -147 -53t-84 -153l-25 -101h332l-49 -198h-330l-207 -838h-241zM975 0l209 838h-178l51 198h176l37 150q43 178 157.5 272t284.5 94 q47 0 88 -7t76 -21l39 -221l-6 -3q-47 23 -90 33t-93 10q-88 0 -147 -53t-84 -153l-25 -101h332l-49 -198h-330l-207 -838h-241zM1739 0l368 1477l263 77l-388 -1554h-243z" />
</font>
</defs>
</svg>
