<?xml version="1.0" standalone="no"?>
<!DOCTYPE svg PUBLIC "-//W3C//DTD SVG 1.1//EN" "http://www.w3.org/Graphics/SVG/1.1/DTD/svg11.dtd" >
<svg xmlns="http://www.w3.org/2000/svg">
<metadata></metadata>
<defs>
<font id="mallory_bookitalic" horiz-adv-x="1228" >
<font-face units-per-em="2048" ascent="1638" descent="-410" />
<missing-glyph horiz-adv-x="442" />
<glyph unicode="&#xfb01;" horiz-adv-x="1363" d="M135 0l215 866h-180l39 158h182l45 184q41 164 147.5 253t262.5 89q41 0 78 -7t69 -19l45 -189l-6 -4q-45 25 -89 37t-93 12q-92 0 -153.5 -57t-88.5 -168l-33 -131h338l-39 -158h-337l-215 -866h-187zM870 0l256 1024h185l-254 -1024h-187zM1177 1391q0 53 37 90t90 37 t90 -37t37 -90t-36.5 -90t-90.5 -37q-53 0 -90 36.5t-37 90.5z" />
<glyph unicode="&#xfb02;" horiz-adv-x="1363" d="M135 0l215 866h-180l39 158h182l45 184q41 164 147.5 253t262.5 89q41 0 78 -7t69 -19l45 -189l-6 -4q-45 25 -89 37t-93 12q-92 0 -153.5 -57t-88.5 -168l-33 -131h338l-39 -158h-337l-215 -866h-187zM870 0l371 1485l203 69l-387 -1554h-187z" />
<glyph horiz-adv-x="0" />
<glyph horiz-adv-x="0" />
<glyph horiz-adv-x="682" />
<glyph unicode="&#xd;" horiz-adv-x="681" />
<glyph unicode=" "  horiz-adv-x="442" />
<glyph unicode="&#x09;" horiz-adv-x="442" />
<glyph unicode="&#xa0;" horiz-adv-x="442" />
<glyph unicode="!" horiz-adv-x="530" d="M33 121q0 57 41 98t98 41t98 -41t41 -98t-41 -98t-98 -41t-98 40.5t-41 98.5zM211 459l127 747l57 228h201l-57 -228l-248 -747h-80z" />
<glyph unicode="&#x22;" horiz-adv-x="909" d="M174 868l303 566h236l-469 -598zM571 868l301 566h238l-471 -598z" />
<glyph unicode="#" horiz-adv-x="1372" d="M76 362l43 170h243l95 369h-246l43 170h248l94 367h127l-94 -367h420l94 367h127l-94 -367h221l-43 -170h-224l-94 -369h228l-45 -170h-228l-94 -366h-127l94 366h-420l-94 -366h-127l94 366h-241zM489 532h420l95 369h-420z" />
<glyph unicode="$" horiz-adv-x="1206" d="M51 393l4 2q96 -92 204 -148.5t220 -74.5l119 483q-170 70 -250 162t-80 221q0 178 137.5 289t356.5 111h26l64 248h127l-66 -263q82 -16 161 -49t145 -80l2 -192l-4 -2q-88 66 -173.5 105.5t-173.5 54.5l-118 -469q168 -70 245.5 -162t77.5 -221q0 -184 -138 -298 t-364 -114h-14l-82 -330h-127l86 342q-94 18 -183 56t-159 90zM444 1055q0 -74 47.5 -126t151.5 -95l109 436q-139 -2 -223.5 -60.5t-84.5 -154.5zM596 164q137 2 220 65.5t83 163.5q0 72 -45 124t-145 95z" />
<glyph unicode="%" horiz-adv-x="1951" d="M227 975q0 207 117 347t287 140q135 0 218 -92t83 -246q0 -207 -117 -347t-287 -140q-135 0 -218 92t-83 246zM315 -4l660 756l590 686h176l-660 -756l-587 -686h-179zM385 979q0 -96 40 -149.5t112 -53.5q94 0 164.5 101.5t70.5 242.5q0 96 -40 149.5t-109 53.5 q-96 0 -167 -101.5t-71 -242.5zM1126 309q0 209 116 348.5t286 139.5q135 0 218 -92t83 -246q0 -207 -117 -347.5t-287 -140.5q-135 0 -217 92.5t-82 245.5zM1284 313q0 -96 40 -149t110 -53q96 0 166.5 101.5t70.5 242.5q0 96 -40 149t-111 53q-94 0 -165 -101t-71 -243z " />
<glyph unicode="&#x26;" horiz-adv-x="1435" d="M61 332q0 154 109 267.5t322 184.5q-27 63 -40.5 127t-13.5 121q0 195 114 312.5t300 117.5q145 0 238.5 -87t93.5 -220q0 -143 -114 -257t-341 -196q41 -70 88 -141.5t105 -146.5q66 63 138.5 147t151.5 187h207v-7q-111 -143 -210 -254.5t-189 -197.5q41 -53 96 -118 t144 -165l-3 -6h-223q-37 39 -73.5 82t-73.5 88q-123 -94 -233.5 -139t-227.5 -45q-162 0 -263.5 96t-101.5 250zM246 342q0 -86 54 -138t146 -52q80 0 164 35.5t178 107.5q-74 96 -131 183t-98 165q-160 -55 -236.5 -129t-76.5 -172zM621 1049q0 -49 11 -103.5t34 -111.5 q176 68 255.5 141.5t79.5 169.5q0 76 -43.5 121t-115.5 45q-94 0 -157.5 -74t-63.5 -188z" />
<glyph unicode="'" horiz-adv-x="512" d="M174 868l303 566h236l-469 -598z" />
<glyph unicode="(" horiz-adv-x="837" d="M172 453q0 334 199.5 600t615.5 483l41 -63q-352 -242 -515 -487t-163 -535q0 -176 59.5 -338t194.5 -351l-59 -49q-188 182 -280.5 364.5t-92.5 375.5z" />
<glyph unicode=")" horiz-adv-x="837" d="M-133 -223q352 242 515 486.5t163 535.5q0 176 -59.5 337.5t-194.5 350.5l59 49q188 -182 280.5 -364.5t92.5 -374.5q0 -334 -199.5 -600.5t-615.5 -483.5z" />
<glyph unicode="*" horiz-adv-x="1087" d="M252 1159l110 176l250 -258l-20 -30zM272 821l326 160l20 -29l-208 -288zM674 1102v360l200 -49l-167 -319zM682 936l35 16l209 -293l-191 -77zM748 1042l344 113l16 -209l-354 60z" />
<glyph unicode="+" d="M133 635l41 164h428l107 430h170l-107 -430h426l-41 -164h-426l-108 -432h-170l108 432h-428z" />
<glyph unicode="," horiz-adv-x="419" d="M-225 -291q117 102 174 198.5t96 248.5l16 67h191q-27 -113 -63 -195t-85 -143q-43 -57 -104 -105t-184 -122z" />
<glyph unicode="-" horiz-adv-x="796" d="M123 475l43 174h532l-43 -174h-532z" />
<glyph unicode="." horiz-adv-x="419" d="M-27 121q0 57 41 98t99 41q57 0 97 -41t40 -98t-40 -98t-97 -41t-98.5 40.5t-41.5 98.5z" />
<glyph unicode="/" horiz-adv-x="931" d="M-213 -266l1163 1782h176l-1165 -1782h-174z" />
<glyph unicode="0" horiz-adv-x="1380" d="M164 526q0 170 43 327t125 284q98 156 235.5 240.5t286.5 84.5q211 0 337 -149.5t126 -405.5q0 -170 -43 -326.5t-125 -283.5q-98 -156 -234.5 -241t-285.5 -85q-213 0 -339 149.5t-126 405.5zM358 524q0 -182 74 -280.5t209 -98.5q104 0 202.5 76t168.5 211 q53 104 81.5 226t28.5 251q0 182 -73.5 280.5t-206.5 98.5q-104 0 -202.5 -75.5t-170.5 -211.5q-53 -102 -82 -225t-29 -252z" />
<glyph unicode="1" horiz-adv-x="888" d="M188 909l56 219l608 332l35 -10l-361 -1450h-188l283 1143l-428 -236z" />
<glyph unicode="2" horiz-adv-x="1181" d="M-2 37l651 643q158 154 215.5 244t57.5 178q0 82 -52.5 129t-144.5 47q-106 0 -216 -63.5t-249 -206.5h-4l29 245q106 100 218.5 150.5t233.5 50.5q170 0 272.5 -92t102.5 -244q0 -123 -74.5 -246.5t-265.5 -306.5l-407 -395h655l-135 -170h-883z" />
<glyph unicode="3" horiz-adv-x="1124" d="M51 307l4 2q92 -76 195.5 -116.5t204.5 -40.5q145 0 237 70.5t92 185.5q0 111 -97 177t-310 101l12 78q272 70 403.5 157t131.5 197q0 76 -58.5 120t-158.5 44q-104 0 -210 -39t-221 -121l-4 2l56 219q98 57 191 84t196 27q182 0 292.5 -87t110.5 -234q0 -135 -97 -236.5 t-288 -165.5q119 -41 184.5 -128t65.5 -202q0 -186 -146.5 -305t-371.5 -119q-117 0 -212 26t-185 83z" />
<glyph unicode="4" horiz-adv-x="1275" d="M14 379l1002 1065h184l-237 -955h235l-43 -155h-231l-82 -334h-180l83 334h-722zM326 489h458l166 666z" />
<glyph unicode="5" horiz-adv-x="1181" d="M66 287l4 2q98 -74 196.5 -109t202.5 -35q162 0 272.5 97.5t110.5 236.5q0 111 -78 174.5t-215 63.5q-78 0 -147.5 -11.5t-161.5 -37.5l-27 16l240 750h778l-45 -174h-612l-125 -388q43 8 81 12.5t72 4.5q197 2 316 -108t119 -294q0 -221 -165 -366.5t-417 -145.5 q-109 0 -205 27t-180 78z" />
<glyph unicode="6" horiz-adv-x="1226" d="M113 418q0 156 89 313.5t322 403.5l289 299h256l-369 -373q-61 -63 -99 -103t-50 -55q23 4 48.5 6t59.5 2q199 0 325 -118.5t126 -311.5q0 -205 -153.5 -357.5t-368.5 -152.5q-213 0 -344 122t-131 325zM305 422q0 -129 80 -206t211 -77q133 0 228.5 100.5t95.5 235.5 q0 137 -90.5 211t-260.5 74q-25 0 -53.5 -2t-89.5 -6q-66 -94 -93.5 -170t-27.5 -160z" />
<glyph unicode="7" horiz-adv-x="1179" d="M164 0l878 1264h-774l111 170h952l10 -37l-960 -1397h-217z" />
<glyph unicode="8" horiz-adv-x="1253" d="M100 358q0 139 89.5 246t244.5 154q-66 47 -101.5 117.5t-35.5 152.5q0 186 140.5 308t353.5 122q186 0 303.5 -106.5t117.5 -268.5q0 -125 -75.5 -225t-206.5 -151q82 -51 126 -130.5t44 -173.5q0 -190 -146.5 -309t-382.5 -119q-213 0 -342 105.5t-129 277.5zM287 377 q0 -106 82 -170t217 -64q143 0 234 76t91 195q0 109 -76.5 171t-211.5 62q-141 0 -238.5 -77.5t-97.5 -192.5zM483 1036q0 -102 70 -165.5t180 -63.5q123 0 207 75.5t84 188.5q0 98 -68.5 159.5t-181.5 61.5q-125 0 -208 -73.5t-83 -182.5z" />
<glyph unicode="9" horiz-adv-x="1226" d="M219 944q0 211 153.5 363.5t368.5 152.5t344 -123t129 -325q0 -154 -90 -311.5t-321 -401.5l-287 -299h-258l371 373q31 33 63.5 66.5t69.5 72.5q-23 -4 -45.5 -5t-48.5 -1q-199 0 -324 122t-125 316zM408 952q0 -141 91 -218t259 -77q35 0 67.5 2.5t63.5 6.5 q74 96 104.5 176t30.5 168q0 127 -80 205.5t-209 78.5q-133 0 -230 -101.5t-97 -240.5z" />
<glyph unicode=":" horiz-adv-x="477" d="M6 121q0 57 41 98t98 41t97.5 -41t40.5 -98t-40.5 -98t-97.5 -41t-98 40.5t-41 98.5zM195 903q0 57 39.5 98t97.5 41q57 0 98 -40.5t41 -98.5q0 -57 -41 -98t-98 -41t-97 41t-40 98z" />
<glyph unicode=";" horiz-adv-x="477" d="M-205 -291q117 102 174.5 198.5t93.5 248.5l19 67h190q-29 -113 -64.5 -195t-82.5 -143q-45 -57 -105.5 -106t-185.5 -121zM201 903q0 57 40 98t97 41t98 -40.5t41 -98.5q0 -57 -41 -98t-98 -41t-97 41t-40 98z" />
<glyph unicode="&#x3c;" d="M156 692l10 51l1114 492l-47 -193l-789 -337l621 -340l-43 -166z" />
<glyph unicode="=" d="M102 430l41 164h983l-41 -164h-983zM205 840l41 164h983l-41 -164h-983z" />
<glyph unicode="&#x3e;" d="M51 199l47 192l787 340l-619 340l43 164l867 -492l-13 -51z" />
<glyph unicode="?" horiz-adv-x="989" d="M201 121q0 57 41 98t98 41t98 -41t41 -98t-41 -98t-98 -41t-98 40.5t-41 98.5zM233 1081l58 230q80 68 185.5 105.5t215.5 37.5q154 0 250 -81t96 -212q0 -121 -73.5 -206t-251.5 -167q-137 -63 -189.5 -108t-52.5 -102q0 -25 7 -51.5t28 -65.5h-98q-39 49 -58.5 94 t-19.5 84q0 84 65.5 148.5t235.5 144.5q123 55 174 104t51 113q0 59 -48 96t-126 37q-104 0 -212 -49t-232 -154z" />
<glyph unicode="@" horiz-adv-x="2091" d="M111 416q0 213 86 416.5t241 361.5q156 160 356.5 246t419.5 86q365 0 587 -210t222 -552q0 -283 -139 -465t-364 -182q-104 0 -178 48t-89 126q-106 -90 -197 -131t-182 -41q-131 0 -207.5 83t-76.5 226q0 115 50 228.5t140 201.5q88 86 201 133t233 47q55 0 110.5 -14 t111.5 -43l86 39h47l-150 -617q-6 -31 -8 -45t-2 -28q0 -63 42 -100t114 -37q164 0 276.5 165.5t112.5 403.5q0 319 -202 509.5t-542 190.5q-203 0 -389 -82t-334 -231q-145 -150 -225 -340.5t-80 -388.5q0 -346 212 -540.5t591 -194.5q166 0 309.5 26.5t282.5 81.5v-69 q-147 -53 -289.5 -78t-304.5 -25q-406 0 -639 212t-233 583zM754 449q0 -88 47 -134.5t135 -46.5q66 0 144.5 35t179.5 109l110 444q-39 18 -79 26.5t-85 8.5q-184 0 -318 -134t-134 -308z" />
<glyph unicode="A" horiz-adv-x="1603" d="M-63 0l1001 1442h190l285 -1442h-199l-67 369h-737l-252 -369h-221zM528 543h588l-125 678z" />
<glyph unicode="B" horiz-adv-x="1259" d="M78 0l356 1434h389q190 0 304 -92.5t114 -243.5q0 -125 -81 -225.5t-224 -151.5q88 -43 136 -119t48 -172q0 -190 -164 -310t-428 -120h-450zM309 170h240q168 0 271.5 74.5t103.5 195.5q0 96 -69 151.5t-189 55.5h-238zM469 815h217q160 0 259 72.5t99 185.5 q0 90 -65.5 140.5t-181.5 50.5h-217z" />
<glyph unicode="C" horiz-adv-x="1466" d="M160 600q0 172 62.5 327.5t176.5 276.5q119 121 273.5 187.5t322.5 66.5q152 0 279 -57.5t227 -171.5l-45 -230h-4q-98 137 -216 206t-251 69q-121 0 -235.5 -53.5t-204.5 -149.5q-88 -94 -135.5 -212t-47.5 -243q0 -201 126 -328.5t323 -127.5q133 0 264 58t268 181 l7 -4l-115 -282q-90 -68 -205 -103t-246 -35q-274 0 -449 174.5t-175 450.5z" />
<glyph unicode="D" horiz-adv-x="1593" d="M78 0l356 1434h379q342 0 534.5 -160t192.5 -443q0 -360 -275.5 -595.5t-689.5 -235.5h-497zM319 180h244q330 0 552 180.5t222 450.5q0 211 -144 326.5t-407 115.5h-200z" />
<glyph unicode="E" horiz-adv-x="1183" d="M78 0l356 1434h842l-47 -179h-643l-109 -438h537l-45 -176h-535l-115 -463h689l-109 -178h-821z" />
<glyph unicode="F" horiz-adv-x="1110" d="M78 0l356 1434h762l47 -179h-657l-115 -462h504l-45 -179h-502l-154 -614h-196z" />
<glyph unicode="G" horiz-adv-x="1619" d="M160 596q0 182 67.5 341t194.5 277q125 115 287.5 177.5t343.5 62.5q152 0 289 -38t247 -111l-49 -195q-115 78 -240.5 118t-257.5 40q-285 0 -483.5 -189.5t-198.5 -466.5q0 -207 124 -327.5t337 -120.5q94 0 179 19.5t163 56.5l88 325h-426l45 180h621l-162 -624 q-119 -70 -252 -105.5t-274 -35.5q-291 0 -467 168.5t-176 447.5z" />
<glyph unicode="H" horiz-adv-x="1648" d="M78 0l356 1434h197l-152 -611h844l152 611h196l-356 -1434h-197l160 641h-844l-160 -641h-196z" />
<glyph unicode="I" horiz-adv-x="626" d="M88 0l356 1434h197l-356 -1434h-197z" />
<glyph unicode="J" horiz-adv-x="937" d="M10 295l8 2q61 -68 124 -100.5t137 -32.5q88 0 147 53t86 154l264 1063h197l-277 -1108q-43 -176 -143 -261t-264 -85q-72 0 -133.5 20t-110.5 59z" />
<glyph unicode="K" horiz-adv-x="1411" d="M78 0l356 1434h197l-154 -617h49l791 617h268v-7l-923 -710l581 -711v-6h-242l-518 647h-47l-162 -647h-196z" />
<glyph unicode="L" horiz-adv-x="1091" d="M78 0l356 1434h197l-312 -1256h613l-45 -178h-809z" />
<glyph unicode="M" horiz-adv-x="2105" d="M20 0l472 1434h274l238 -1078l782 1078h289l-244 -1434h-193l209 1212l-913 -1235h-33l-289 1246l-397 -1223h-195z" />
<glyph unicode="N" horiz-adv-x="1673" d="M78 0l356 1434h182l631 -1051l262 1051h187l-359 -1444h-67l-713 1186l-293 -1176h-186z" />
<glyph unicode="O" horiz-adv-x="1708" d="M164 608q0 172 62.5 328t181.5 274q117 121 272.5 186.5t323.5 65.5q283 0 462 -177t179 -460q0 -172 -62.5 -327.5t-179.5 -274.5q-119 -121 -274.5 -186.5t-323.5 -65.5q-283 0 -462 177.5t-179 459.5zM365 618q0 -209 128 -335.5t332 -126.5q123 0 239 53t204 149 q84 92 130 210t46 247q0 209 -128 336t-331 127q-252 0 -436 -194t-184 -466z" />
<glyph unicode="P" horiz-adv-x="1212" d="M78 0l356 1434h363q207 0 329.5 -106t122.5 -284q0 -238 -169 -383t-445 -145h-232l-129 -516h-196zM444 694h228q160 0 269.5 96.5t109.5 235.5q0 113 -74 172t-213 59h-178z" />
<glyph unicode="Q" horiz-adv-x="1708" d="M164 608q0 172 62.5 328t181.5 274q117 121 272.5 186.5t323.5 65.5q283 0 462 -177t179 -460q0 -297 -175.5 -525t-453.5 -302q61 -74 108 -101.5t115 -27.5q47 0 95 9t100 28l4 -4l-97 -187q-37 -12 -74.5 -17t-76.5 -5q-143 0 -231.5 60.5t-200.5 219.5 q-266 16 -430 191.5t-164 443.5zM365 618q0 -209 128 -335.5t332 -126.5q123 0 239 53t204 149q84 92 130 210t46 247q0 209 -128 336t-331 127q-252 0 -436 -194t-184 -466z" />
<glyph unicode="R" horiz-adv-x="1294" d="M78 0l356 1434h367q201 0 316.5 -99.5t115.5 -271.5q0 -182 -126 -310t-331 -161l414 -592h-227l-398 573h-149l-142 -573h-196zM455 748h219q154 0 256 85t102 214q0 100 -66.5 155t-187.5 55h-194z" />
<glyph unicode="S" horiz-adv-x="1126" d="M41 412l4 2q117 -125 236.5 -189.5t234.5 -64.5q125 0 204 59.5t79 155.5q0 74 -44 129t-177 141q-168 106 -233.5 195.5t-65.5 208.5q0 178 132 293.5t341 115.5q98 0 193 -26.5t177 -77.5v-221l-4 -3q-86 70 -180 107t-193 37q-121 0 -197.5 -57.5t-76.5 -145.5 q0 -70 46 -126t177 -138q168 -106 233.5 -196.5t65.5 -213.5q0 -188 -133 -305t-346 -117q-117 0 -229.5 44t-192.5 118z" />
<glyph unicode="T" horiz-adv-x="1433" d="M254 1255l47 179h1292l-45 -179h-544l-312 -1255h-196l311 1255h-553z" />
<glyph unicode="U" horiz-adv-x="1599" d="M203 481q0 45 7 97.5t19 107.5l187 748h196l-190 -766q-10 -47 -16.5 -90t-6.5 -78q0 -160 93.5 -251t259.5 -91q178 0 309 113.5t180 316.5l211 846h190l-217 -875q-72 -287 -249 -435.5t-445 -148.5q-240 0 -384 138.5t-144 367.5z" />
<glyph unicode="V" horiz-adv-x="1564" d="M293 1434h207l219 -1100l784 1100h230l-1069 -1467h-48z" />
<glyph unicode="W" horiz-adv-x="2394" d="M305 1434h205l94 -1190l776 1206h37l223 -1204l687 1188h227l-858 -1442h-195l-190 1036l-666 -1036h-203z" />
<glyph unicode="X" horiz-adv-x="1495" d="M-53 0v4l735 739l-363 691h218l292 -568l560 568h249v-4l-718 -717l372 -713h-215l-303 590l-575 -590h-252z" />
<glyph unicode="Y" horiz-adv-x="1347" d="M254 1434h207l270 -625l578 625h239v-4l-751 -803l-156 -627h-199l162 649z" />
<glyph unicode="Z" horiz-adv-x="1415" d="M-25 33l1166 1222h-842l47 179h1161l17 -33l-1166 -1223h910l-125 -178h-1153z" />
<glyph unicode="[" horiz-adv-x="839" d="M25 -266l442 1782h516l6 -115h-379l-387 -1553h381l-57 -114h-522z" />
<glyph unicode="\" horiz-adv-x="931" d="M317 1516h152l274 -1782h-149z" />
<glyph unicode="]" horiz-adv-x="839" d="M-92 -152h377l387 1553h-381l57 115h522l-442 -1782h-514z" />
<glyph unicode="^" d="M133 686l694 799h45l295 -799h-168l-196 543l-469 -543h-201z" />
<glyph unicode="_" d="M-205 -287l33 127h1239l-33 -127h-1239z" />
<glyph unicode="`" horiz-adv-x="1024" d="M406 1581h237l90 -346h-82z" />
<glyph unicode="a" horiz-adv-x="1130" d="M37 248q0 168 148.5 260t422.5 92q51 0 107.5 -4t109.5 -10q4 35 6.5 52t2.5 32q0 94 -61.5 148t-168.5 54q-86 0 -177 -27.5t-194 -86.5l-2 4l93 213q76 35 152.5 51t160.5 16q176 0 277.5 -96t101.5 -258q0 -47 -6 -91t-19 -91l-131 -486l-196 -40l47 176 q-111 -88 -209.5 -130t-188.5 -42q-125 0 -200.5 71.5t-75.5 192.5zM223 268q0 -59 38 -93t106 -34q82 0 174 36t207 112l49 180q-47 6 -89 8t-79 2q-193 0 -299.5 -56.5t-106.5 -154.5z" />
<glyph unicode="b" horiz-adv-x="1243" d="M41 2l371 1483l202 69l-170 -677q90 88 176.5 127.5t180.5 39.5q158 0 259 -111.5t101 -289.5q0 -137 -48 -258t-140 -213t-213 -140t-254 -48q-76 0 -148.5 16t-142.5 47l-152 -49zM276 199q55 -27 114.5 -39.5t127.5 -12.5q182 0 317.5 141.5t135.5 340.5 q0 117 -60.5 183.5t-165.5 66.5q-80 0 -162.5 -36t-174.5 -112z" />
<glyph unicode="c" horiz-adv-x="1083" d="M86 414q0 268 180 451.5t439 183.5q94 0 183 -34t159 -95l-39 -203h-4q-66 80 -145 121t-169 41q-166 0 -290 -134.5t-124 -318.5q0 -131 77 -206t212 -75q94 0 192.5 42t184.5 118l6 -4l-98 -242q-68 -41 -151 -62.5t-167 -21.5q-199 0 -322.5 121t-123.5 318z" />
<glyph unicode="d" horiz-adv-x="1251" d="M82 381q0 137 51 261t146 218q86 86 195.5 133t225.5 47q86 0 164 -22.5t142 -67.5l133 535l204 69l-387 -1554h-186l37 147q-92 -88 -178 -127.5t-180 -39.5q-162 0 -264.5 111.5t-102.5 289.5zM272 395q0 -117 61.5 -183.5t170.5 -66.5q80 0 162 36t176 112l125 498 q-55 43 -119 64.5t-135 21.5q-178 0 -309.5 -141.5t-131.5 -340.5z" />
<glyph unicode="e" horiz-adv-x="1136" d="M86 416q0 260 178 448.5t420 188.5q172 0 275.5 -109.5t103.5 -294.5q0 -49 -7 -102t-22 -107h-764v-2q0 -141 75 -217t214 -76q94 0 189.5 28t187.5 83l4 -2l-45 -184q-86 -45 -179 -69t-196 -24q-195 0 -314.5 120t-119.5 319zM293 578h584q2 8 2 18.5v30.5 q0 127 -57.5 195.5t-162.5 68.5q-113 0 -218 -90t-148 -223z" />
<glyph unicode="f" horiz-adv-x="819" d="M135 0l215 866h-180l39 158h182l45 184q41 164 147.5 253t262.5 89q41 0 78 -7t69 -19l45 -189l-6 -4q-45 25 -89 37t-93 12q-92 0 -153.5 -57t-88.5 -168l-33 -131h338l-39 -158h-337l-215 -866h-187z" />
<glyph unicode="g" horiz-adv-x="1251" d="M-23 -88l7 4q100 -74 207.5 -110.5t218.5 -36.5q147 0 242.5 72.5t135.5 219.5l39 138q-96 -92 -187 -135.5t-191 -43.5q-160 0 -260.5 106.5t-100.5 281.5q0 268 189.5 450t463.5 182q82 0 154 -15t145 -48l150 49l20 -4l-247 -993q-53 -217 -191.5 -323.5 t-363.5 -106.5q-113 0 -214.5 26.5t-181.5 77.5zM279 418q0 -113 59 -174.5t168 -61.5q82 0 167 39t181 119l123 489q-59 27 -116.5 40.5t-117.5 13.5q-186 0 -325 -137.5t-139 -327.5z" />
<glyph unicode="h" horiz-adv-x="1220" d="M41 0l371 1485l202 69l-174 -696q94 96 180.5 141t174.5 45q137 0 224 -83.5t87 -221.5q0 -41 -7 -88t-22 -104l-137 -547h-184l145 584q10 39 14.5 67t4.5 51q0 84 -46.5 130.5t-128.5 46.5q-78 0 -161.5 -43t-180.5 -131l-176 -705h-186z" />
<glyph unicode="i" horiz-adv-x="544" d="M51 0l256 1024h185l-254 -1024h-187zM358 1391q0 53 37 90t90 37t90 -37t37 -90t-36.5 -90t-90.5 -37q-53 0 -90 36.5t-37 90.5z" />
<glyph unicode="j" horiz-adv-x="544" d="M-260 -221l4 4q18 -10 43 -15.5t51 -5.5q82 0 128 39t67 125l274 1098h187l-283 -1128q-37 -150 -119 -221.5t-221 -71.5q-31 0 -57.5 4t-46.5 10zM358 1391q0 53 37 90t90 37t90 -37t37 -90t-36.5 -90t-90.5 -37q-53 0 -90 36.5t-37 90.5z" />
<glyph unicode="k" horiz-adv-x="1112" d="M41 0l371 1485l202 69l-239 -964h55l512 434h246v-6l-621 -516l394 -498v-4h-218l-346 451h-57l-113 -451h-186z" />
<glyph unicode="l" horiz-adv-x="544" d="M51 0l371 1485l203 69l-387 -1554h-187z" />
<glyph unicode="m" horiz-adv-x="1855" d="M41 0l250 999l194 41l-43 -176q86 92 165 136t159 44q100 0 177 -52t108 -142q106 100 199 147t190 47q131 0 215 -85t84 -220q0 -41 -7.5 -88t-21.5 -104l-135 -547h-186l145 584q10 39 14 67.5t4 50.5q0 82 -44 129.5t-119 47.5q-76 0 -155 -37t-167 -113 q-2 -35 -8 -75t-23 -107l-135 -547h-186l145 584q10 39 14.5 67t4.5 51q0 82 -44 129.5t-120 47.5q-72 0 -149 -41t-163 -127l-176 -711h-186z" />
<glyph unicode="n" horiz-adv-x="1220" d="M41 0l250 999l194 41l-45 -184q94 96 180.5 142t174.5 46q137 0 224 -83.5t87 -221.5q0 -41 -7 -88t-22 -104l-137 -547h-184l145 584q10 39 14.5 67t4.5 51q0 84 -46.5 130.5t-128.5 46.5q-78 0 -161.5 -42t-182.5 -132l-174 -705h-186z" />
<glyph unicode="o" horiz-adv-x="1241" d="M88 426q0 266 176 446.5t428 180.5q205 0 334 -127t129 -328q0 -266 -176 -446.5t-428 -180.5q-205 0 -334 127t-129 328zM276 432q0 -133 79 -214t206 -81q164 0 284 133.5t120 321.5q0 135 -78 215t-207 80q-164 0 -284 -133t-120 -322z" />
<glyph unicode="p" horiz-adv-x="1251" d="M-55 -391l346 1390l194 41l-39 -163q90 88 176.5 127.5t182.5 39.5q160 0 262 -111.5t102 -289.5q0 -135 -50 -260t-144 -219q-88 -86 -197.5 -133t-226.5 -47q-86 0 -163 23.5t-140 68.5l-117 -467h-186zM287 233q55 -43 118.5 -64.5t135.5 -21.5q178 0 309 141.5 t131 340.5q0 117 -62.5 183.5t-168.5 66.5q-82 0 -164 -36t-176 -112z" />
<glyph unicode="q" horiz-adv-x="1243" d="M82 381q0 137 48 258t140 213t213 140t254 48q76 0 148.5 -16t142.5 -47l152 49l22 -4l-352 -1413h-184l135 541q-92 -88 -178 -129t-181 -41q-158 0 -259 111.5t-101 289.5zM272 395q0 -117 60.5 -183.5t165.5 -66.5q80 0 162.5 37t175.5 113l131 528 q-55 27 -113.5 40.5t-128.5 13.5q-182 0 -317.5 -141.5t-135.5 -340.5z" />
<glyph unicode="r" horiz-adv-x="831" d="M41 0l250 999l194 41l-61 -247q137 150 215 198.5t166 48.5q18 0 38.5 -3t41.5 -7l-31 -196q-18 6 -35.5 8t-40.5 2q-84 0 -174 -44.5t-215 -148.5l-162 -651h-186z" />
<glyph unicode="s" horiz-adv-x="1009" d="M33 303l4 4q88 -80 194.5 -123t214.5 -43q96 0 159 36t63 91q0 49 -43 86t-152 82q-160 61 -225.5 131t-65.5 176q0 133 112 218.5t288 85.5q94 0 182 -26t164 -75v-198l-6 -3q-88 70 -175.5 104t-177.5 34q-92 0 -149.5 -35t-57.5 -90q0 -51 42 -87t155 -79 q156 -61 222.5 -132t66.5 -175q0 -137 -115 -222.5t-301 -85.5q-102 0 -200.5 30t-165.5 83z" />
<glyph unicode="t" horiz-adv-x="911" d="M160 866l39 158h176l61 227l201 70l-80 -297h393l-39 -158h-397l-131 -485q-6 -25 -9 -46.5t-3 -41.5q0 -68 44 -109t115 -41q61 0 123 26t123 79l4 -4l-61 -207q-51 -31 -107.5 -45.5t-117.5 -14.5q-139 0 -221.5 80t-82.5 217q0 35 4.5 68t14.5 68l123 456h-172z" />
<glyph unicode="u" horiz-adv-x="1220" d="M115 285q0 35 6 78t22 114l138 547h186l-145 -584q-10 -39 -14.5 -67.5t-4.5 -50.5q0 -84 45 -130.5t127 -46.5q78 0 162 42t182 130l176 707h185l-254 -1024h-187l41 166q-94 -96 -180 -141t-174 -45q-137 0 -224 85t-87 220z" />
<glyph unicode="v" horiz-adv-x="1155" d="M168 1024h190l160 -711l506 711h215l-774 -1053h-39z" />
<glyph unicode="w" horiz-adv-x="1794" d="M174 1024h186l82 -801l555 813h35l158 -813l477 801h205l-643 -1038h-164l-133 682l-467 -682h-160z" />
<glyph unicode="x" horiz-adv-x="1136" d="M-70 0v4l533 535l-258 485h205l188 -369l356 369h230v-4l-504 -502l274 -518h-202l-205 401l-387 -401h-230z" />
<glyph unicode="y" horiz-adv-x="1118" d="M-133 -174l6 4q35 -27 75 -40t91 -13q80 0 140.5 39t115.5 125l80 122l-203 961h190l148 -768l481 768h209l-758 -1169q-86 -131 -177 -191.5t-206 -60.5q-45 0 -80.5 8t-64.5 24z" />
<glyph unicode="z" horiz-adv-x="1079" d="M-61 31l815 833h-568l39 160h877l10 -31l-815 -833h645l-119 -160h-874z" />
<glyph unicode="{" horiz-adv-x="1007" d="M94 584l19 82l157 22q131 18 188.5 61.5t57.5 124.5q0 18 -3 47t-15 97q-12 72 -16.5 105.5t-4.5 58.5q0 158 119 246t334 88h219l10 -115h-233q-125 0 -194.5 -60.5t-69.5 -166.5q0 -23 3 -51.5t13 -92.5q10 -66 13 -98.5t3 -57.5q0 -100 -61.5 -166.5t-186.5 -99.5 q68 -29 105 -77t37 -107q0 -37 -21.5 -84t-91.5 -145q-63 -88 -82.5 -128t-19.5 -71q0 -74 52 -111t157 -37h192l-55 -114h-187q-172 0 -265 66.5t-93 187.5q0 51 24.5 107.5t102.5 154.5q57 78 74.5 112.5t17.5 63.5q0 53 -43 89t-121 48z" />
<glyph unicode="|" horiz-adv-x="759" d="M106 -266l443 1782h160l-443 -1782h-160z" />
<glyph unicode="}" horiz-adv-x="1007" d="M-94 -152h233q125 0 193.5 60.5t68.5 167.5q0 23 -3 51.5t-11 91.5q-10 66 -13 98.5t-3 57.5q0 100 61.5 166.5t183.5 99.5q-68 29 -104.5 77t-36.5 107q0 37 22.5 84t92.5 146q63 88 82.5 128t19.5 70q0 74 -52 111t-159 37h-190l55 115h186q172 0 265.5 -67t93.5 -187 q0 -51 -24.5 -107.5t-102.5 -155.5q-59 -78 -76.5 -112.5t-17.5 -63.5q0 -53 43 -89t123 -48l135 -20l-21 -82l-155 -23q-131 -18 -188.5 -61t-57.5 -125q0 -18 3 -47t15 -97q12 -72 16.5 -105t4.5 -58q0 -158 -119 -246t-334 -88h-221z" />
<glyph unicode="~" d="M131 586q119 190 188.5 261t139.5 71q33 0 84 -23.5t162 -97.5q86 -59 120.5 -77t55.5 -18q37 0 83 42t142 167l94 -63q-121 -193 -189.5 -262.5t-138.5 -69.5q-33 0 -84 23.5t-161 99.5q-86 59 -121 76.5t-55 17.5q-39 0 -84 -42t-142 -169z" />
<glyph unicode="&#xa1;" horiz-adv-x="530" d="M37 0l57 227l248 748h80l-127 -748l-57 -227h-201zM322 1313q0 57 41 98t98 41t98 -41t41 -98t-41 -98t-98 -41t-98 40.5t-41 98.5z" />
<glyph unicode="&#xa2;" horiz-adv-x="1116" d="M147 631q0 248 172.5 422t419.5 180l54 211h127l-58 -221q74 -16 140.5 -52t117.5 -86l-35 -182h-4q-61 68 -127.5 108t-134.5 54l-182 -705q98 6 192.5 48.5t178.5 115.5l6 -4l-96 -235q-72 -39 -155 -61.5t-165 -24.5l-53 -209h-127l57 221q-150 33 -239 146.5 t-89 273.5zM324 641q0 -102 52 -174t144 -96l178 698q-160 -18 -267 -140t-107 -288z" />
<glyph unicode="&#xa3;" horiz-adv-x="1185" d="M-2 37q287 225 370 319.5t83 180.5q0 14 -2.5 31.5t-6.5 52.5h-317l33 137h248q-27 92 -37.5 147.5t-10.5 100.5q0 201 140.5 326.5t365.5 125.5q100 0 192.5 -33.5t168.5 -99.5l8 -207l-6 -2q-88 84 -181.5 128t-187.5 44q-139 0 -226 -79t-87 -205q0 -39 9 -87.5 t40 -158.5h465l-33 -137h-401q4 -20 6 -42t2 -44q0 -98 -57.5 -182.5t-186.5 -182.5h608l-82 -170h-913z" />
<glyph unicode="&#xa5;" horiz-adv-x="1280" d="M102 330l29 116h399l41 170h-397l29 117h344l-266 701h194l223 -625l539 625h225l-618 -701h342l-29 -117h-403l-41 -170h401l-29 -116h-401l-82 -330h-182l82 330h-400z" />
<glyph unicode="&#xa7;" horiz-adv-x="1288" d="M-4 -35l4 2q117 -100 227.5 -147t231.5 -47q117 0 187.5 44t70.5 115q0 68 -56.5 118t-197.5 114q-203 94 -283 177t-80 204q0 133 100.5 217t307.5 123q-55 47 -82 101t-27 126q0 156 124 251t327 95q102 0 195.5 -24.5t181.5 -75.5l2 -197l-4 -2q-96 68 -189.5 99.5 t-191.5 31.5q-119 0 -189.5 -45t-70.5 -117q0 -66 56 -115.5t198 -115.5q201 -92 281.5 -176t80.5 -203q0 -133 -100.5 -217t-308.5 -123q57 -49 83.5 -104t26.5 -125q0 -154 -123 -249t-327 -95q-113 0 -217.5 30.5t-194.5 90.5zM287 559q0 -70 63.5 -124t222.5 -128 q25 -10 47.5 -21.5t43.5 -23.5q174 43 262 103.5t88 136.5q0 70 -63.5 124t-223.5 128q-18 8 -37.5 18t-52.5 27q-174 -43 -262 -103.5t-88 -136.5z" />
<glyph unicode="&#xa8;" horiz-adv-x="1024" d="M381 1360q0 53 37 90t90 37t90 -37t37 -90t-37 -90t-90 -37t-90 38t-37 89zM799 1360q0 53 37.5 90t91.5 37q53 0 90 -37t37 -90q0 -51 -37 -89t-90 -38t-91 37t-38 90z" />
<glyph unicode="&#xa9;" horiz-adv-x="1869" d="M160 715q0 164 63.5 313.5t179.5 263.5q117 113 268.5 174.5t315.5 61.5q166 0 315.5 -60.5t266.5 -173.5t179 -262t62 -313t-63.5 -313.5t-179.5 -264.5q-117 -113 -268.5 -174t-315.5 -61q-166 0 -315.5 60t-266.5 173t-179 262.5t-62 313.5zM227 719 q0 -313 222.5 -531.5t537.5 -218.5q317 0 537.5 217t220.5 529q0 313 -222.5 531t-537.5 218q-317 0 -537.5 -217t-220.5 -528zM508 717q0 205 147.5 342t364.5 137q94 0 177 -29.5t159 -91.5v-151h-4q-86 76 -168 112.5t-166 36.5q-156 0 -264.5 -102.5t-108.5 -251.5 q0 -154 106.5 -255.5t258.5 -101.5q92 0 180 34t172 102l4 -2l-25 -146q-78 -57 -158.5 -83.5t-176.5 -26.5q-213 0 -355.5 134t-142.5 343z" />
<glyph unicode="&#xaa;" horiz-adv-x="1015" d="M115 399l28 115h717l-29 -115h-716zM252 885q0 125 122 190.5t353 65.5q29 0 57.5 -1t59.5 -5q2 20 3 29.5t1 15.5q0 66 -43 103.5t-117 37.5q-68 0 -138.5 -22.5t-154.5 -71.5l-4 2l70 157q55 29 120.5 44.5t131.5 15.5q121 0 198.5 -71.5t77.5 -182.5q0 -29 -5 -60.5 t-15 -66.5l-99 -352l-139 -2l35 123q-84 -68 -162 -101t-151 -33q-90 0 -145.5 51.5t-55.5 133.5zM395 905q0 -41 28 -64.5t75 -23.5q57 0 127.5 28.5t162.5 88.5l33 113q-33 2 -56.5 3t-41.5 1q-158 0 -243 -39t-85 -107z" />
<glyph unicode="&#xab;" horiz-adv-x="1280" d="M92 496l8 32l598 510l56 -49l-439 -493l199 -471l-65 -39zM610 496l6 32l601 510l55 -49l-441 -493l201 -471l-65 -39z" />
<glyph unicode="&#xad;" horiz-adv-x="796" d="M123 475l43 174h532l-43 -174h-532z" />
<glyph unicode="&#xae;" horiz-adv-x="1146" d="M248 1028q0 186 133 316.5t321 130.5q190 0 322.5 -129.5t132.5 -315.5t-133 -316t-322 -130q-190 0 -322 129t-132 315zM299 1028q0 -170 116.5 -283.5t289.5 -113.5q168 0 283.5 115.5t115.5 281.5q0 170 -116 283.5t-288 113.5q-170 0 -285.5 -114.5t-115.5 -282.5z M535 784v512h163q84 0 135.5 -43t51.5 -114q0 -55 -33 -95t-90 -57l190 -203h-106l-176 189h-52v-189h-83zM618 1044h68q53 0 82 24t29 67q0 41 -29 65.5t-78 24.5h-72v-181z" />
<glyph unicode="&#xaf;" horiz-adv-x="1024" d="M356 1286l35 139h686l-35 -139h-686z" />
<glyph unicode="&#xb0;" horiz-adv-x="1077" d="M238 969q0 207 139 350t338 143q168 0 274.5 -107.5t106.5 -275.5q0 -207 -139.5 -350t-338.5 -143q-168 0 -274 107.5t-106 275.5zM393 975q0 -115 63.5 -183.5t170.5 -68.5q127 0 220 103.5t93 246.5q0 115 -63.5 183.5t-169.5 68.5q-127 0 -220.5 -103.5t-93.5 -246.5 z" />
<glyph unicode="&#xb1;" d="M-23 0l39 158h1018l-39 -158h-1018zM188 840l39 164h424l107 430h172l-107 -430h422l-41 -164h-422l-108 -432h-172l108 432h-422z" />
<glyph unicode="&#xb4;" horiz-adv-x="1024" d="M618 1235l256 346h263v-4l-420 -342h-99z" />
<glyph unicode="&#xb5;" horiz-adv-x="1236" d="M-57 -391l354 1415h184l-145 -584q-10 -39 -14.5 -67.5t-4.5 -50.5q0 -84 46.5 -130.5t128.5 -46.5q78 0 162.5 43t181.5 131l174 705h186l-256 -1024h-145l22 186q-94 -98 -183 -146t-181 -48q-82 0 -141.5 39.5t-84.5 109.5l-88 -450l-20 -82h-176z" />
<glyph unicode="&#xb6;" horiz-adv-x="1372" d="M201 893q0 231 199.5 386t500.5 155h510l-356 -1434h-125l315 1266h-196l-316 -1266h-123l121 483h-55q-213 0 -344 113t-131 297zM391 883q0 -131 85 -208t229 -77h55l166 668h-56q-207 0 -343 -109.5t-136 -273.5z" />
<glyph unicode="&#xb7;" horiz-adv-x="450" d="M98 561q0 57 41 98t99 41q57 0 97 -41t40 -98t-40 -97t-97 -40t-98.5 40t-41.5 97z" />
<glyph unicode="&#xb8;" horiz-adv-x="1024" d="M127 -285l4 4q41 -14 78 -21t78 -7q61 0 96 17.5t35 47.5q0 27 -25.5 41.5t-73.5 14.5q-10 0 -33.5 -3.5t-62.5 -7.5l-4 9l135 200h117l-76 -112q72 -2 118 -40.5t46 -95.5q0 -74 -68.5 -117.5t-189.5 -43.5q-35 0 -67.5 5t-63.5 13z" />
<glyph unicode="&#xba;" horiz-adv-x="1021" d="M123 399l29 115h722l-28 -115h-723zM260 1034q0 180 124 301t308 121q154 0 252 -95t98 -245q0 -180 -123.5 -301t-308.5 -121q-154 0 -252 95.5t-98 244.5zM410 1038q0 -96 57 -154.5t151 -58.5q115 0 195 84t80 203q0 96 -57.5 154.5t-149.5 58.5q-115 0 -195.5 -84 t-80.5 -203z" />
<glyph unicode="&#xbb;" horiz-adv-x="1280" d="M8 37l438 491l-198 471l65 39l357 -510l-8 -32l-599 -510zM526 37l439 491l-199 471l65 39l357 -510l-8 -32l-598 -510z" />
<glyph unicode="&#xbc;" horiz-adv-x="1689" d="M123 -4l682 754l606 688h158l-682 -754l-607 -688h-157zM206 1086l39 155l416 209l21 -6l-213 -856h-146l158 633l-271 -137zM840 221l557 631h189l-138 -553h140l-29 -113h-137l-47 -186h-138l48 186h-441zM1057 299h254l107 426z" />
<glyph unicode="&#xbd;" horiz-adv-x="1736" d="M123 -4l682 754l606 688h158l-682 -754l-607 -688h-157zM206 1086l39 155l416 209l21 -6l-213 -856h-146l158 633l-271 -137zM960 49l375 350q106 100 138 146.5t32 87.5q0 45 -29 69.5t-80 24.5q-70 0 -142.5 -41t-143.5 -119l-5 2l25 174q55 55 130 85t155 30 q106 0 171.5 -55t65.5 -148q0 -74 -42 -139t-175 -190l-217 -199h381l-92 -127h-543z" />
<glyph unicode="&#xbe;" horiz-adv-x="1804" d="M137 793l4 2q55 -47 116.5 -70.5t129.5 -23.5q80 0 131 34.5t51 88.5q0 57 -57.5 93t-184.5 62l13 49q166 49 240.5 99.5t74.5 111.5q0 37 -31 59.5t-80 22.5q-61 0 -126.5 -23.5t-145.5 -72.5l-4 2l37 145q59 37 126.5 55.5t137.5 18.5q104 0 169.5 -53t65.5 -137 t-59 -148.5t-176 -103.5q74 -27 110.5 -73t36.5 -114q0 -104 -92 -172.5t-235 -68.5q-70 0 -132.5 17.5t-109.5 49.5zM238 -4l682 754l606 688h158l-682 -754l-607 -688h-157zM954 221l557 631h189l-138 -553h140l-29 -113h-137l-47 -186h-138l48 186h-441zM1171 299h254 l107 426z" />
<glyph unicode="&#xbf;" horiz-adv-x="989" d="M53 272q0 121 74 206t252 167q137 63 189.5 108.5t52.5 102.5q0 25 -7.5 51.5t-27.5 65.5h98q39 -49 58.5 -94t19.5 -84q0 -84 -65.5 -148.5t-235.5 -144.5q-125 -57 -175 -105.5t-50 -111.5q0 -59 49 -96t127 -37q104 0 210.5 49t231.5 153l4 -2l-57 -229 q-80 -68 -185.5 -105.5t-216.5 -37.5q-154 0 -250 80.5t-96 211.5zM612 1313q0 57 41.5 98t98.5 41t98 -41t41 -98t-41 -98t-98 -41t-98.5 40.5t-41.5 98.5z" />
<glyph unicode="&#xc0;" horiz-adv-x="1603" d="M-63 0l1001 1442h190l285 -1442h-199l-67 369h-737l-252 -369h-221zM528 543h588l-125 678zM760 1866v4h252l96 -289h-92z" />
<glyph unicode="&#xc1;" horiz-adv-x="1603" d="M-63 0l1001 1442h190l285 -1442h-199l-67 369h-737l-252 -369h-221zM528 543h588l-125 678zM981 1581l236 289h289v-4l-410 -285h-115z" />
<glyph unicode="&#xc2;" horiz-adv-x="1603" d="M-63 0l1001 1442h190l285 -1442h-199l-67 369h-737l-252 -369h-221zM528 543h588l-125 678zM707 1581v2l330 287h180l190 -289h-102l-201 154l-280 -154h-117z" />
<glyph unicode="&#xc3;" horiz-adv-x="1603" d="M-63 0l1001 1442h190l285 -1442h-199l-67 369h-737l-252 -369h-221zM528 543h588l-125 678zM697 1634q86 121 145.5 170t116.5 49q27 0 59.5 -13t100.5 -58q53 -35 76.5 -45.5t39.5 -10.5q31 0 69 29t110 105l71 -62q-86 -121 -144 -170t-116 -49q-27 0 -59.5 13.5 t-98.5 56.5q-55 37 -79.5 47t-40.5 10q-29 0 -66 -27.5t-110 -105.5z" />
<glyph unicode="&#xc4;" horiz-adv-x="1603" d="M-63 0l1001 1442h190l285 -1442h-199l-67 369h-737l-252 -369h-221zM528 543h588l-125 678zM744 1706q0 55 37 92t92 37q53 0 90 -38t37 -91t-37 -91t-90 -38q-55 0 -92 37t-37 92zM1164 1706q0 53 38 91t91 38q55 0 92 -37t37 -92t-37 -92t-92 -37q-53 0 -91 38t-38 91z " />
<glyph unicode="&#xc5;" horiz-adv-x="1603" d="M-63 0l940 1354q-35 31 -54.5 76t-19.5 98q0 111 79 189.5t187 78.5q102 0 169 -67.5t67 -167.5q0 -76 -41 -141.5t-109 -100.5l258 -1319h-199l-67 369h-739l-250 -369h-221zM526 543h590l-125 678zM893 1530q0 -68 42 -111t107 -43q72 0 122 53.5t50 129.5 q0 66 -42 108.5t-107 42.5q-70 0 -121 -53t-51 -127z" />
<glyph unicode="&#xc6;" horiz-adv-x="2031" d="M-100 0v4l1265 1430h959l-47 -179h-643l-109 -438h537l-45 -176h-535l-115 -463h688l-108 -178h-821l92 369h-565l-326 -369h-227zM606 543h455l178 714z" />
<glyph unicode="&#xc7;" horiz-adv-x="1466" d="M160 600q0 172 62.5 327.5t176.5 276.5q119 121 273.5 187.5t322.5 66.5q152 0 279 -57.5t227 -171.5l-45 -230h-4q-98 137 -216 206t-251 69q-121 0 -235.5 -53.5t-204.5 -149.5q-88 -94 -135.5 -212t-47.5 -243q0 -201 126 -328.5t323 -127.5q133 0 264 58t268 181 l7 -4l-115 -282q-88 -66 -197.5 -101t-236.5 -37l-60 -88q72 -2 118 -40t46 -95q0 -74 -68.5 -118t-189.5 -44q-35 0 -67.5 5.5t-63.5 13.5l-43 96l4 4q41 -14 78 -21t78 -7q61 0 96 17t35 48q0 27 -25.5 41t-72.5 14q-10 0 -34 -3t-63 -7l-4 8l123 183q-238 31 -383 199.5 t-145 418.5z" />
<glyph unicode="&#xc8;" horiz-adv-x="1183" d="M78 0l356 1434h842l-47 -179h-643l-109 -438h537l-45 -176h-535l-115 -463h689l-109 -178h-821zM590 1866v4h252l96 -289h-92z" />
<glyph unicode="&#xc9;" horiz-adv-x="1183" d="M78 0l356 1434h842l-47 -179h-643l-109 -438h537l-45 -176h-535l-115 -463h689l-109 -178h-821zM811 1581l236 289h289v-4l-410 -285h-115z" />
<glyph unicode="&#xca;" horiz-adv-x="1183" d="M78 0l356 1434h842l-47 -179h-643l-109 -438h537l-45 -176h-535l-115 -463h689l-109 -178h-821zM537 1581v2l330 287h180l190 -289h-102l-201 154l-280 -154h-117z" />
<glyph unicode="&#xcb;" horiz-adv-x="1183" d="M78 0l356 1434h842l-47 -179h-643l-109 -438h537l-45 -176h-535l-115 -463h689l-109 -178h-821zM574 1706q0 55 37 92t92 37q53 0 90 -38t37 -91t-37 -91t-90 -38q-55 0 -92 37t-37 92zM994 1706q0 53 38 91t91 38q55 0 92 -37t37 -92t-37 -92t-92 -37q-53 0 -91 38 t-38 91z" />
<glyph unicode="&#xcc;" horiz-adv-x="626" d="M88 0l356 1434h197l-356 -1434h-197zM280 1866v4h252l96 -289h-92z" />
<glyph unicode="&#xcd;" horiz-adv-x="626" d="M88 0l356 1434h197l-356 -1434h-197zM501 1581l236 289h289v-4l-410 -285h-115z" />
<glyph unicode="&#xce;" horiz-adv-x="626" d="M88 0l356 1434h197l-356 -1434h-197zM227 1581v2l330 287h180l190 -289h-102l-201 154l-280 -154h-117z" />
<glyph unicode="&#xcf;" horiz-adv-x="626" d="M88 0l356 1434h197l-356 -1434h-197zM264 1706q0 55 37 92t92 37q53 0 90 -38t37 -91t-37 -91t-90 -38q-55 0 -92 37t-37 92zM684 1706q0 53 38 91t91 38q55 0 92 -37t37 -92t-37 -92t-92 -37q-53 0 -91 38t-38 91z" />
<glyph unicode="&#xd0;" horiz-adv-x="1634" d="M86 662l35 141h196l158 631h381q340 0 532.5 -160t192.5 -443q0 -360 -275.5 -595.5t-689.5 -235.5h-497l164 662h-197zM356 180h248q330 0 552 180.5t222 450.5q0 211 -144 326.5t-405 115.5h-206l-113 -450h391l-35 -141h-391z" />
<glyph unicode="&#xd1;" horiz-adv-x="1673" d="M78 0l356 1434h182l631 -1051l262 1051h187l-359 -1444h-67l-713 1186l-293 -1176h-186zM721 1634q86 121 145.5 170t116.5 49q27 0 59.5 -13t100.5 -58q53 -35 76.5 -45.5t39.5 -10.5q31 0 69 29t110 105l71 -62q-86 -121 -144 -170t-116 -49q-27 0 -59.5 13.5 t-98.5 56.5q-55 37 -79.5 47t-40.5 10q-29 0 -66 -27.5t-110 -105.5z" />
<glyph unicode="&#xd2;" horiz-adv-x="1708" d="M164 608q0 172 62.5 328t181.5 274q117 121 272.5 186.5t323.5 65.5q283 0 462 -177t179 -460q0 -172 -62.5 -327.5t-179.5 -274.5q-119 -121 -274.5 -186.5t-323.5 -65.5q-283 0 -462 177.5t-179 459.5zM365 618q0 -209 128 -335.5t332 -126.5q123 0 239 53t204 149 q84 92 130 210t46 247q0 209 -128 336t-331 127q-252 0 -436 -194t-184 -466zM776 1876v4h252l96 -289h-92z" />
<glyph unicode="&#xd3;" horiz-adv-x="1708" d="M164 608q0 172 62.5 328t181.5 274q117 121 272.5 186.5t323.5 65.5q283 0 462 -177t179 -460q0 -172 -62.5 -327.5t-179.5 -274.5q-119 -121 -274.5 -186.5t-323.5 -65.5q-283 0 -462 177.5t-179 459.5zM365 618q0 -209 128 -335.5t332 -126.5q123 0 239 53t204 149 q84 92 130 210t46 247q0 209 -128 336t-331 127q-252 0 -436 -194t-184 -466zM997 1591l236 289h289v-4l-410 -285h-115z" />
<glyph unicode="&#xd4;" horiz-adv-x="1708" d="M164 608q0 172 62.5 328t181.5 274q117 121 272.5 186.5t323.5 65.5q283 0 462 -177t179 -460q0 -172 -62.5 -327.5t-179.5 -274.5q-119 -121 -274.5 -186.5t-323.5 -65.5q-283 0 -462 177.5t-179 459.5zM365 618q0 -209 128 -335.5t332 -126.5q123 0 239 53t204 149 q84 92 130 210t46 247q0 209 -128 336t-331 127q-252 0 -436 -194t-184 -466zM723 1591v2l330 287h180l190 -289h-102l-201 154l-280 -154h-117z" />
<glyph unicode="&#xd5;" horiz-adv-x="1708" d="M164 608q0 172 62.5 328t181.5 274q117 121 272.5 186.5t323.5 65.5q283 0 462 -177t179 -460q0 -172 -62.5 -327.5t-179.5 -274.5q-119 -121 -274.5 -186.5t-323.5 -65.5q-283 0 -462 177.5t-179 459.5zM365 618q0 -209 128 -335.5t332 -126.5q123 0 239 53t204 149 q84 92 130 210t46 247q0 209 -128 336t-331 127q-252 0 -436 -194t-184 -466zM713 1644q86 121 145.5 170t116.5 49q27 0 59.5 -13t100.5 -58q53 -35 76.5 -45.5t39.5 -10.5q31 0 69 29t110 105l71 -62q-86 -121 -144 -170t-116 -49q-27 0 -59.5 13.5t-98.5 56.5 q-55 37 -79.5 47t-40.5 10q-29 0 -66 -27.5t-110 -105.5z" />
<glyph unicode="&#xd6;" horiz-adv-x="1708" d="M164 608q0 172 62.5 328t181.5 274q117 121 272.5 186.5t323.5 65.5q283 0 462 -177t179 -460q0 -172 -62.5 -327.5t-179.5 -274.5q-119 -121 -274.5 -186.5t-323.5 -65.5q-283 0 -462 177.5t-179 459.5zM365 618q0 -209 128 -335.5t332 -126.5q123 0 239 53t204 149 q84 92 130 210t46 247q0 209 -128 336t-331 127q-252 0 -436 -194t-184 -466zM760 1716q0 55 37 92t92 37q53 0 90 -38t37 -91t-37 -91t-90 -38q-55 0 -92 37t-37 92zM1180 1716q0 53 38 91t91 38q55 0 92 -37t37 -92t-37 -92t-92 -37q-53 0 -91 38t-38 91z" />
<glyph unicode="&#xd7;" d="M111 379l446 352l-272 354l133 105l264 -359l436 359l105 -131l-447 -352l273 -353l-136 -106l-262 358l-438 -358z" />
<glyph unicode="&#xd8;" horiz-adv-x="1708" d="M4 -84l289 293q-63 82 -96 184.5t-33 214.5q0 172 62.5 328t181.5 274q117 121 272.5 186.5t323.5 65.5q115 0 218 -33.5t189 -99.5l188 193h205v-4l-288 -293q63 -82 96 -184.5t33 -215.5q0 -172 -62.5 -327.5t-179.5 -274.5q-119 -121 -274.5 -186.5t-323.5 -65.5 q-115 0 -218.5 34t-189.5 99l-188 -192h-205v4zM358 618q0 -80 18.5 -150.5t55.5 -127.5l844 860q-57 43 -132 64.5t-159 21.5q-123 0 -240.5 -53.5t-205.5 -151.5q-88 -94 -134.5 -213.5t-46.5 -249.5zM532 233q59 -43 134 -64.5t159 -21.5q123 0 240 54.5t207 150.5 q86 94 132 214t46 249q0 80 -18.5 150.5t-55.5 128.5z" />
<glyph unicode="&#xd9;" horiz-adv-x="1599" d="M203 481q0 45 7 97.5t19 107.5l187 748h196l-190 -766q-10 -47 -16.5 -90t-6.5 -78q0 -160 93.5 -251t259.5 -91q178 0 309 113.5t180 316.5l211 846h190l-217 -875q-72 -287 -249 -435.5t-445 -148.5q-240 0 -384 138.5t-144 367.5zM764 1866v4h252l96 -289h-92z" />
<glyph unicode="&#xda;" horiz-adv-x="1599" d="M203 481q0 45 7 97.5t19 107.5l187 748h196l-190 -766q-10 -47 -16.5 -90t-6.5 -78q0 -160 93.5 -251t259.5 -91q178 0 309 113.5t180 316.5l211 846h190l-217 -875q-72 -287 -249 -435.5t-445 -148.5q-240 0 -384 138.5t-144 367.5zM985 1581l236 289h289v-4l-410 -285 h-115z" />
<glyph unicode="&#xdb;" horiz-adv-x="1599" d="M203 481q0 45 7 97.5t19 107.5l187 748h196l-190 -766q-10 -47 -16.5 -90t-6.5 -78q0 -160 93.5 -251t259.5 -91q178 0 309 113.5t180 316.5l211 846h190l-217 -875q-72 -287 -249 -435.5t-445 -148.5q-240 0 -384 138.5t-144 367.5zM711 1581v2l330 287h180l190 -289 h-102l-201 154l-280 -154h-117z" />
<glyph unicode="&#xdc;" horiz-adv-x="1599" d="M203 481q0 45 7 97.5t19 107.5l187 748h196l-190 -766q-10 -47 -16.5 -90t-6.5 -78q0 -160 93.5 -251t259.5 -91q178 0 309 113.5t180 316.5l211 846h190l-217 -875q-72 -287 -249 -435.5t-445 -148.5q-240 0 -384 138.5t-144 367.5zM748 1706q0 55 37 92t92 37 q53 0 90 -38t37 -91t-37 -91t-90 -38q-55 0 -92 37t-37 92zM1168 1706q0 53 38 91t91 38q55 0 92 -37t37 -92t-37 -92t-92 -37q-53 0 -91 38t-38 91z" />
<glyph unicode="&#xdd;" horiz-adv-x="1347" d="M254 1434h207l270 -625l578 625h239v-4l-751 -803l-156 -627h-199l162 649zM839 1581l236 289h289v-4l-410 -285h-115z" />
<glyph unicode="&#xde;" horiz-adv-x="1245" d="M78 0l356 1434h197l-66 -263h187q203 0 326.5 -106.5t123.5 -284.5q0 -221 -169 -358t-445 -137h-242l-72 -285h-196zM387 461h219q174 0 284.5 86t110.5 221q0 106 -73.5 166.5t-204.5 60.5h-205z" />
<glyph unicode="&#xdf;" horiz-adv-x="1361" d="M135 0l217 866h-182l39 158h182l31 125q47 190 175 295.5t312 105.5q168 0 272.5 -100t104.5 -262q0 -129 -83 -240.5t-240 -197.5q123 -59 185 -149.5t62 -205.5q0 -168 -133 -288.5t-329 -120.5q-51 -2 -104.5 9t-100.5 32l-33 182l4 4q51 -31 107.5 -46t117.5 -15 q119 2 202 74.5t83 172.5q0 104 -85 180t-261 126v69q209 78 313.5 177.5t104.5 219.5q0 96 -55.5 152.5t-149.5 56.5q-106 0 -185 -74.5t-112 -207.5l-272 -1098h-187z" />
<glyph unicode="&#xe0;" horiz-adv-x="1130" d="M37 248q0 168 148.5 260t422.5 92q51 0 107.5 -4t109.5 -10q4 35 6.5 52t2.5 32q0 94 -61.5 148t-168.5 54q-86 0 -177 -27.5t-194 -86.5l-2 4l93 213q76 35 152.5 51t160.5 16q176 0 277.5 -96t101.5 -258q0 -47 -6 -91t-19 -91l-131 -486l-196 -40l47 176 q-111 -88 -209.5 -130t-188.5 -42q-125 0 -200.5 71.5t-75.5 192.5zM223 268q0 -59 38 -93t106 -34q82 0 174 36t207 112l49 180q-47 6 -89 8t-79 2q-193 0 -299.5 -56.5t-106.5 -154.5zM455 1581h237l90 -346h-82z" />
<glyph unicode="&#xe1;" horiz-adv-x="1130" d="M37 248q0 168 148.5 260t422.5 92q51 0 107.5 -4t109.5 -10q4 35 6.5 52t2.5 32q0 94 -61.5 148t-168.5 54q-86 0 -177 -27.5t-194 -86.5l-2 4l93 213q76 35 152.5 51t160.5 16q176 0 277.5 -96t101.5 -258q0 -47 -6 -91t-19 -91l-131 -486l-196 -40l47 176 q-111 -88 -209.5 -130t-188.5 -42q-125 0 -200.5 71.5t-75.5 192.5zM223 268q0 -59 38 -93t106 -34q82 0 174 36t207 112l49 180q-47 6 -89 8t-79 2q-193 0 -299.5 -56.5t-106.5 -154.5zM667 1235l256 346h263v-4l-420 -342h-99z" />
<glyph unicode="&#xe2;" horiz-adv-x="1130" d="M37 248q0 168 148.5 260t422.5 92q51 0 107.5 -4t109.5 -10q4 35 6.5 52t2.5 32q0 94 -61.5 148t-168.5 54q-86 0 -177 -27.5t-194 -86.5l-2 4l93 213q76 35 152.5 51t160.5 16q176 0 277.5 -96t101.5 -258q0 -47 -6 -91t-19 -91l-131 -486l-196 -40l47 176 q-111 -88 -209.5 -130t-188.5 -42q-125 0 -200.5 71.5t-75.5 192.5zM223 268q0 -59 38 -93t106 -34q82 0 174 36t207 112l49 180q-47 6 -89 8t-79 2q-193 0 -299.5 -56.5t-106.5 -154.5zM409 1235v4l332 342h166l162 -346h-84l-186 195l-291 -195h-99z" />
<glyph unicode="&#xe3;" horiz-adv-x="1130" d="M37 248q0 168 148.5 260t422.5 92q51 0 107.5 -4t109.5 -10q4 35 6.5 52t2.5 32q0 94 -61.5 148t-168.5 54q-86 0 -177 -27.5t-194 -86.5l-2 4l93 213q76 35 152.5 51t160.5 16q176 0 277.5 -96t101.5 -258q0 -47 -6 -91t-19 -91l-131 -486l-196 -40l47 176 q-111 -88 -209.5 -130t-188.5 -42q-125 0 -200.5 71.5t-75.5 192.5zM223 268q0 -59 38 -93t106 -34q82 0 174 36t207 112l49 180q-47 6 -89 8t-79 2q-193 0 -299.5 -56.5t-106.5 -154.5zM364 1288q113 156 167.5 204t109.5 48q27 0 62.5 -16.5t109.5 -67.5q59 -39 82.5 -51 t40.5 -12q27 0 59.5 26.5t122.5 126.5l78 -61q-113 -156 -167 -204t-110 -48q-27 0 -62.5 16.5t-107.5 65.5q-59 41 -83.5 53t-41.5 12q-27 0 -59.5 -26.5t-122.5 -126.5z" />
<glyph unicode="&#xe4;" horiz-adv-x="1130" d="M37 248q0 168 148.5 260t422.5 92q51 0 107.5 -4t109.5 -10q4 35 6.5 52t2.5 32q0 94 -61.5 148t-168.5 54q-86 0 -177 -27.5t-194 -86.5l-2 4l93 213q76 35 152.5 51t160.5 16q176 0 277.5 -96t101.5 -258q0 -47 -6 -91t-19 -91l-131 -486l-196 -40l47 176 q-111 -88 -209.5 -130t-188.5 -42q-125 0 -200.5 71.5t-75.5 192.5zM223 268q0 -59 38 -93t106 -34q82 0 174 36t207 112l49 180q-47 6 -89 8t-79 2q-193 0 -299.5 -56.5t-106.5 -154.5zM430 1360q0 53 37 90t90 37t90 -37t37 -90t-37 -90t-90 -37t-90 38t-37 89zM848 1360 q0 53 37.5 90t91.5 37q53 0 90 -37t37 -90q0 -51 -37 -89t-90 -38t-91 37t-38 90z" />
<glyph unicode="&#xe5;" horiz-adv-x="1130" d="M37 248q0 168 148.5 260t422.5 92q51 0 107.5 -4t109.5 -10q4 35 6.5 52t2.5 32q0 94 -61.5 148t-168.5 54q-86 0 -177 -27.5t-194 -86.5l-2 4l93 213q76 35 152.5 51t160.5 16q176 0 277.5 -96t101.5 -258q0 -47 -6 -91t-19 -91l-131 -486l-196 -40l47 176 q-111 -88 -209.5 -130t-188.5 -42q-125 0 -200.5 71.5t-75.5 192.5zM223 268q0 -59 38 -93t106 -34q82 0 174 36t207 112l49 180q-47 6 -89 8t-79 2q-193 0 -299.5 -56.5t-106.5 -154.5zM543 1466q0 111 77.5 191t186.5 80q102 0 169.5 -68t67.5 -170q0 -111 -78.5 -190.5 t-187.5 -79.5q-100 0 -167.5 68.5t-67.5 168.5zM633 1468q0 -68 42 -110.5t107 -42.5q70 0 121 54t51 128q0 68 -43 111t-108 43q-70 0 -120 -53.5t-50 -129.5z" />
<glyph unicode="&#xe6;" horiz-adv-x="1849" d="M37 248q0 168 147.5 260t421.5 92q51 0 107.5 -4t109.5 -10q4 35 6 52t2 32q0 94 -61 148t-168 54q-84 0 -175 -28.5t-194 -85.5l-2 4l93 213q76 35 152.5 51t158.5 16q121 0 209 -47t131 -133q86 90 195.5 140.5t226.5 50.5q170 0 273.5 -109.5t103.5 -294.5 q0 -53 -7.5 -106.5t-19.5 -102.5h-762v-2q0 -141 75 -217t212 -76q94 0 189 28t186 83l4 -2l-43 -184q-86 -47 -180.5 -70t-196.5 -23q-129 0 -227.5 55.5t-151.5 157.5q-141 -109 -263 -157.5t-253 -48.5q-137 0 -218 71.5t-81 192.5zM223 268q0 -59 39 -93t109 -34 q92 0 196.5 45t239.5 144q-2 20 -4 41.5t-2 44.5v31.5t2 19.5q-43 6 -87 9t-87 3q-193 0 -299.5 -56.5t-106.5 -154.5zM1008 578h579q2 8 2 18.5v30.5q0 127 -56 195.5t-161 68.5q-113 0 -217 -90t-147 -223z" />
<glyph unicode="&#xe7;" horiz-adv-x="1083" d="M86 414q0 268 180 451.5t439 183.5q94 0 183 -34t159 -95l-39 -203h-4q-66 80 -145 121t-169 41q-166 0 -290 -134.5t-124 -318.5q0 -131 77 -206t212 -75q94 0 192.5 42t184.5 118l6 -4l-98 -242q-66 -39 -144.5 -60.5t-160.5 -23.5l-58 -86q72 -2 118 -40t46 -95 q0 -74 -68.5 -118t-189.5 -44q-35 0 -67.5 5.5t-63.5 13.5l-43 96l4 4q41 -14 78 -21t78 -7q61 0 96 17t35 48q0 27 -25.5 41t-72.5 14q-10 0 -34 -3t-63 -7l-4 8l123 183q-160 29 -254 143.5t-94 286.5z" />
<glyph unicode="&#xe8;" horiz-adv-x="1136" d="M86 416q0 260 178 448.5t420 188.5q172 0 275.5 -109.5t103.5 -294.5q0 -49 -7 -102t-22 -107h-764v-2q0 -141 75 -217t214 -76q94 0 189.5 28t187.5 83l4 -2l-45 -184q-86 -45 -179 -69t-196 -24q-195 0 -314.5 120t-119.5 319zM293 578h584q2 8 2 18.5v30.5 q0 127 -57.5 195.5t-162.5 68.5q-113 0 -218 -90t-148 -223zM463 1589h237l90 -346h-82z" />
<glyph unicode="&#xe9;" horiz-adv-x="1136" d="M86 416q0 260 178 448.5t420 188.5q172 0 275.5 -109.5t103.5 -294.5q0 -49 -7 -102t-22 -107h-764v-2q0 -141 75 -217t214 -76q94 0 189.5 28t187.5 83l4 -2l-45 -184q-86 -45 -179 -69t-196 -24q-195 0 -314.5 120t-119.5 319zM293 578h584q2 8 2 18.5v30.5 q0 127 -57.5 195.5t-162.5 68.5q-113 0 -218 -90t-148 -223zM675 1243l256 346h263v-4l-420 -342h-99z" />
<glyph unicode="&#xea;" horiz-adv-x="1136" d="M86 416q0 260 178 448.5t420 188.5q172 0 275.5 -109.5t103.5 -294.5q0 -49 -7 -102t-22 -107h-764v-2q0 -141 75 -217t214 -76q94 0 189.5 28t187.5 83l4 -2l-45 -184q-86 -45 -179 -69t-196 -24q-195 0 -314.5 120t-119.5 319zM293 578h584q2 8 2 18.5v30.5 q0 127 -57.5 195.5t-162.5 68.5q-113 0 -218 -90t-148 -223zM417 1243v4l332 342h166l162 -346h-84l-186 195l-291 -195h-99z" />
<glyph unicode="&#xeb;" horiz-adv-x="1136" d="M86 416q0 260 178 448.5t420 188.5q172 0 275.5 -109.5t103.5 -294.5q0 -49 -7 -102t-22 -107h-764v-2q0 -141 75 -217t214 -76q94 0 189.5 28t187.5 83l4 -2l-45 -184q-86 -45 -179 -69t-196 -24q-195 0 -314.5 120t-119.5 319zM293 578h584q2 8 2 18.5v30.5 q0 127 -57.5 195.5t-162.5 68.5q-113 0 -218 -90t-148 -223zM438 1368q0 53 37 90t90 37t90 -37t37 -90t-37 -90t-90 -37t-90 38t-37 89zM856 1368q0 53 37.5 90t91.5 37q53 0 90 -37t37 -90q0 -51 -37 -89t-90 -38t-91 37t-38 90z" />
<glyph unicode="&#xec;" horiz-adv-x="544" d="M51 0l256 1024h185l-254 -1024h-187zM164 1581h237l90 -346h-82z" />
<glyph unicode="&#xed;" horiz-adv-x="544" d="M51 0l256 1024h185l-254 -1024h-187zM376 1235l256 346h263v-4l-420 -342h-99z" />
<glyph unicode="&#xee;" horiz-adv-x="544" d="M51 0l256 1024h185l-254 -1024h-187zM118 1235v4l332 342h166l162 -346h-84l-186 195l-291 -195h-99z" />
<glyph unicode="&#xef;" horiz-adv-x="544" d="M51 0l256 1024h185l-254 -1024h-187zM139 1360q0 53 37 90t90 37t90 -37t37 -90t-37 -90t-90 -37t-90 38t-37 89zM557 1360q0 53 37.5 90t91.5 37q53 0 90 -37t37 -90q0 -51 -37 -89t-90 -38t-91 37t-38 90z" />
<glyph unicode="&#xf0;" horiz-adv-x="1230" d="M82 416q0 215 159.5 373.5t374.5 158.5q98 0 177 -31.5t139 -97.5q-27 109 -80 204t-147 198l-164 -138l-78 91l160 131q-39 37 -76 70.5t-76 66.5l119 110q45 -35 85 -70.5t75 -70.5l172 143l77 -90l-168 -139q147 -166 217 -343t70 -390q0 -279 -159.5 -450 t-413.5 -171q-205 0 -334 125t-129 320zM270 422q0 -125 80 -205t207 -80q156 0 265.5 107.5t109.5 265.5q0 127 -83 202.5t-222 75.5q-145 0 -251 -109.5t-106 -256.5z" />
<glyph unicode="&#xf1;" horiz-adv-x="1220" d="M41 0l250 999l194 41l-45 -184q94 96 180.5 142t174.5 46q137 0 224 -83.5t87 -221.5q0 -41 -7 -88t-22 -104l-137 -547h-184l145 584q10 39 14.5 67t4.5 51q0 84 -46.5 130.5t-128.5 46.5q-78 0 -161.5 -42t-182.5 -132l-174 -705h-186zM397 1288q113 156 167.5 204 t109.5 48q27 0 62.5 -16.5t109.5 -67.5q59 -39 82.5 -51t40.5 -12q27 0 59.5 26.5t122.5 126.5l78 -61q-113 -156 -167 -204t-110 -48q-27 0 -62.5 16.5t-107.5 65.5q-59 41 -83.5 53t-41.5 12q-27 0 -59.5 -26.5t-122.5 -126.5z" />
<glyph unicode="&#xf2;" horiz-adv-x="1241" d="M88 426q0 266 176 446.5t428 180.5q205 0 334 -127t129 -328q0 -266 -176 -446.5t-428 -180.5q-205 0 -334 127t-129 328zM276 432q0 -133 79 -214t206 -81q164 0 284 133.5t120 321.5q0 135 -78 215t-207 80q-164 0 -284 -133t-120 -322zM486 1589h237l90 -346h-82z" />
<glyph unicode="&#xf3;" horiz-adv-x="1241" d="M88 426q0 266 176 446.5t428 180.5q205 0 334 -127t129 -328q0 -266 -176 -446.5t-428 -180.5q-205 0 -334 127t-129 328zM276 432q0 -133 79 -214t206 -81q164 0 284 133.5t120 321.5q0 135 -78 215t-207 80q-164 0 -284 -133t-120 -322zM698 1243l256 346h263v-4 l-420 -342h-99z" />
<glyph unicode="&#xf4;" horiz-adv-x="1241" d="M88 426q0 266 176 446.5t428 180.5q205 0 334 -127t129 -328q0 -266 -176 -446.5t-428 -180.5q-205 0 -334 127t-129 328zM276 432q0 -133 79 -214t206 -81q164 0 284 133.5t120 321.5q0 135 -78 215t-207 80q-164 0 -284 -133t-120 -322zM440 1243v4l332 342h166 l162 -346h-84l-186 195l-291 -195h-99z" />
<glyph unicode="&#xf5;" horiz-adv-x="1241" d="M88 426q0 266 176 446.5t428 180.5q205 0 334 -127t129 -328q0 -266 -176 -446.5t-428 -180.5q-205 0 -334 127t-129 328zM276 432q0 -133 79 -214t206 -81q164 0 284 133.5t120 321.5q0 135 -78 215t-207 80q-164 0 -284 -133t-120 -322zM395 1296q113 156 167.5 204 t109.5 48q27 0 62.5 -16.5t109.5 -67.5q59 -39 82.5 -51t40.5 -12q27 0 59.5 26.5t122.5 126.5l78 -61q-113 -156 -167 -204t-110 -48q-27 0 -62.5 16.5t-107.5 65.5q-59 41 -83.5 53t-41.5 12q-27 0 -59.5 -26.5t-122.5 -126.5z" />
<glyph unicode="&#xf6;" horiz-adv-x="1241" d="M88 426q0 266 176 446.5t428 180.5q205 0 334 -127t129 -328q0 -266 -176 -446.5t-428 -180.5q-205 0 -334 127t-129 328zM276 432q0 -133 79 -214t206 -81q164 0 284 133.5t120 321.5q0 135 -78 215t-207 80q-164 0 -284 -133t-120 -322zM461 1368q0 53 37 90t90 37 t90 -37t37 -90t-37 -90t-90 -37t-90 38t-37 89zM879 1368q0 53 37.5 90t91.5 37q53 0 90 -37t37 -90q0 -51 -37 -89t-90 -38t-91 37t-38 90z" />
<glyph unicode="&#xf7;" d="M133 635l41 164h1024l-41 -164h-1024zM424 299q0 55 41 96t96 41q57 0 98 -41t41 -96q0 -57 -41 -98t-98 -41t-97 41t-40 98zM631 1135q0 57 40 98t97 41t98 -41t41 -98t-41 -98.5t-98 -41.5t-97 41t-40 99z" />
<glyph unicode="&#xf8;" horiz-adv-x="1241" d="M-47 -86l223 233q-43 59 -65.5 130t-22.5 149q0 266 176 446.5t428 180.5q78 0 148.5 -21.5t130.5 -62.5l139 145h180v-4l-223 -233q43 -59 65.5 -130t22.5 -149q0 -266 -176 -446.5t-428 -180.5q-80 0 -150.5 21.5t-130.5 62.5l-139 -145h-178v4zM270 432q0 -43 9.5 -83 t25.5 -73l545 572q-35 23 -78 35t-92 12q-162 0 -286 -138.5t-124 -324.5zM391 176q35 -23 78 -35t92 -12q162 0 287 138.5t125 324.5q0 43 -9.5 83t-25.5 73z" />
<glyph unicode="&#xf9;" horiz-adv-x="1220" d="M115 285q0 35 6 78t22 114l138 547h186l-145 -584q-10 -39 -14.5 -67.5t-4.5 -50.5q0 -84 45 -130.5t127 -46.5q78 0 162 42t182 130l176 707h185l-254 -1024h-187l41 166q-94 -96 -180 -141t-174 -45q-137 0 -224 85t-87 220zM474 1581h237l90 -346h-82z" />
<glyph unicode="&#xfa;" horiz-adv-x="1220" d="M115 285q0 35 6 78t22 114l138 547h186l-145 -584q-10 -39 -14.5 -67.5t-4.5 -50.5q0 -84 45 -130.5t127 -46.5q78 0 162 42t182 130l176 707h185l-254 -1024h-187l41 166q-94 -96 -180 -141t-174 -45q-137 0 -224 85t-87 220zM686 1235l256 346h263v-4l-420 -342h-99z " />
<glyph unicode="&#xfb;" horiz-adv-x="1220" d="M115 285q0 35 6 78t22 114l138 547h186l-145 -584q-10 -39 -14.5 -67.5t-4.5 -50.5q0 -84 45 -130.5t127 -46.5q78 0 162 42t182 130l176 707h185l-254 -1024h-187l41 166q-94 -96 -180 -141t-174 -45q-137 0 -224 85t-87 220zM428 1235v4l332 342h166l162 -346h-84 l-186 195l-291 -195h-99z" />
<glyph unicode="&#xfc;" horiz-adv-x="1220" d="M115 285q0 35 6 78t22 114l138 547h186l-145 -584q-10 -39 -14.5 -67.5t-4.5 -50.5q0 -84 45 -130.5t127 -46.5q78 0 162 42t182 130l176 707h185l-254 -1024h-187l41 166q-94 -96 -180 -141t-174 -45q-137 0 -224 85t-87 220zM449 1360q0 53 37 90t90 37t90 -37t37 -90 t-37 -90t-90 -37t-90 38t-37 89zM867 1360q0 53 37.5 90t91.5 37q53 0 90 -37t37 -90q0 -51 -37 -89t-90 -38t-91 37t-38 90z" />
<glyph unicode="&#xfd;" horiz-adv-x="1118" d="M-133 -174l6 4q35 -27 75 -40t91 -13q80 0 140.5 39t115.5 125l80 122l-203 961h190l148 -768l481 768h209l-758 -1169q-86 -131 -177 -191.5t-206 -60.5q-45 0 -80.5 8t-64.5 24zM645 1235l256 346h263v-4l-420 -342h-99z" />
<glyph unicode="&#xfe;" horiz-adv-x="1251" d="M-55 -391l467 1876l204 69l-167 -675q92 86 177 125.5t179 39.5q160 0 262 -111.5t102 -289.5q0 -135 -50 -260t-144 -219q-88 -86 -197.5 -133t-226.5 -47q-86 0 -163 23.5t-140 68.5l-117 -467h-186zM287 233q55 -43 118.5 -64.5t135.5 -21.5q178 0 309 141.5 t131 340.5q0 117 -62.5 183.5t-168.5 66.5q-82 0 -164 -36t-174 -112z" />
<glyph unicode="&#xff;" horiz-adv-x="1118" d="M-133 -174l6 4q35 -27 75 -40t91 -13q80 0 140.5 39t115.5 125l80 122l-203 961h190l148 -768l481 768h209l-758 -1169q-86 -131 -177 -191.5t-206 -60.5q-45 0 -80.5 8t-64.5 24zM408 1360q0 53 37 90t90 37t90 -37t37 -90t-37 -90t-90 -37t-90 38t-37 89zM826 1360 q0 53 37.5 90t91.5 37q53 0 90 -37t37 -90q0 -51 -37 -89t-90 -38t-91 37t-38 90z" />
<glyph unicode="&#x152;" horiz-adv-x="2050" d="M156 602q0 360 275.5 596t688.5 236h1020l-45 -179h-625v-2h-18l-109 -436h537l-45 -176h-535l-114 -461h22v-2h664l-107 -178h-882q-342 0 -534.5 159.5t-192.5 442.5zM358 623q0 -211 144.5 -327t406.5 -116h80l266 1073h-122q-330 0 -552.5 -180t-222.5 -450z" />
<glyph unicode="&#x153;" horiz-adv-x="1988" d="M88 426q0 266 175 446.5t427 180.5q133 0 237.5 -63.5t159.5 -176.5q84 113 202 176.5t247 63.5q170 0 273.5 -109.5t103.5 -294.5q0 -53 -7.5 -106.5t-19.5 -102.5h-764v-2q0 -141 75 -217t212 -76q94 0 190.5 28t188.5 83l4 -2l-45 -184q-86 -47 -180.5 -70t-196.5 -23 q-125 0 -221 57.5t-148 164.5q-82 -109 -201.5 -168.5t-252.5 -59.5q-203 0 -331 127t-128 328zM276 432q0 -133 78 -214t205 -81q162 0 282 134.5t120 320.5q0 133 -78 214t-205 81q-162 0 -282 -133t-120 -322zM1145 578h584q2 8 2 18.5v30.5q0 127 -57.5 195.5 t-164.5 68.5q-111 0 -216 -90t-148 -223z" />
<glyph unicode="&#x178;" horiz-adv-x="1347" d="M254 1434h207l270 -625l578 625h239v-4l-751 -803l-156 -627h-199l162 649zM602 1706q0 55 37 92t92 37q53 0 90 -38t37 -91t-37 -91t-90 -38q-55 0 -92 37t-37 92zM1022 1706q0 53 38 91t91 38q55 0 92 -37t37 -92t-37 -92t-92 -37q-53 0 -91 38t-38 91z" />
<glyph unicode="&#x2c6;" horiz-adv-x="1024" d="M360 1235v4l332 342h166l162 -346h-84l-186 195l-291 -195h-99z" />
<glyph unicode="&#x2dc;" horiz-adv-x="1024" d="M315 1288q113 156 167.5 204t109.5 48q27 0 62.5 -16.5t109.5 -67.5q59 -39 82.5 -51t40.5 -12q27 0 59.5 26.5t122.5 126.5l78 -61q-113 -156 -167 -204t-110 -48q-27 0 -62.5 16.5t-107.5 65.5q-59 41 -83.5 53t-41.5 12q-27 0 -59.5 -26.5t-122.5 -126.5z" />
<glyph unicode="&#x2000;" horiz-adv-x="940" />
<glyph unicode="&#x2001;" horiz-adv-x="1880" />
<glyph unicode="&#x2002;" horiz-adv-x="940" />
<glyph unicode="&#x2003;" horiz-adv-x="1880" />
<glyph unicode="&#x2004;" horiz-adv-x="626" />
<glyph unicode="&#x2005;" horiz-adv-x="470" />
<glyph unicode="&#x2006;" horiz-adv-x="313" />
<glyph unicode="&#x2007;" horiz-adv-x="313" />
<glyph unicode="&#x2008;" horiz-adv-x="235" />
<glyph unicode="&#x2009;" horiz-adv-x="376" />
<glyph unicode="&#x200a;" horiz-adv-x="104" />
<glyph unicode="&#x2010;" horiz-adv-x="796" d="M123 475l43 174h532l-43 -174h-532z" />
<glyph unicode="&#x2011;" horiz-adv-x="796" d="M123 475l43 174h532l-43 -174h-532z" />
<glyph unicode="&#x2012;" horiz-adv-x="796" d="M123 475l43 174h532l-43 -174h-532z" />
<glyph unicode="&#x2013;" horiz-adv-x="1128" d="M123 477l41 168h866l-41 -168h-866z" />
<glyph unicode="&#x2014;" horiz-adv-x="1906" d="M123 477l41 168h1644l-41 -168h-1644z" />
<glyph unicode="&#x2018;" horiz-adv-x="446" d="M217 1055q0 84 79 176t259 219l51 -53q-123 -119 -171 -194t-48 -138q0 -41 17.5 -87t66.5 -124h-190q-35 59 -49.5 106.5t-14.5 94.5z" />
<glyph unicode="&#x2019;" horiz-adv-x="446" d="M156 891q121 117 169 191.5t48 140.5q0 41 -16.5 85t-65.5 126h190q35 -66 49.5 -111t14.5 -90q0 -84 -79 -176t-261 -221z" />
<glyph unicode="&#x201a;" horiz-adv-x="403" d="M-155 -307q121 117 169 191.5t48 140.5q0 41 -16.5 85t-65.5 126h190q35 -66 49.5 -111t14.5 -90q0 -84 -79 -176t-261 -221z" />
<glyph unicode="&#x201c;" horiz-adv-x="839" d="M217 1055q0 84 79 176t259 219l51 -53q-123 -119 -171 -194t-48 -138q0 -41 17.5 -87t66.5 -124h-190q-35 59 -49.5 106.5t-14.5 94.5zM610 1055q0 84 79 176t261 219l49 -53q-121 -117 -169 -191.5t-48 -140.5q0 -41 16.5 -85t65.5 -126h-190q-35 66 -49.5 111t-14.5 90 z" />
<glyph unicode="&#x201d;" horiz-adv-x="839" d="M156 891q121 117 169 191.5t48 140.5q0 41 -16.5 85t-65.5 126h190q35 -66 49.5 -111t14.5 -90q0 -84 -79 -176t-261 -221zM549 891q123 119 171 194t48 138q0 41 -17.5 87t-66.5 124h190q35 -59 49.5 -106.5t14.5 -94.5q0 -84 -79 -176t-259 -221z" />
<glyph unicode="&#x201e;" horiz-adv-x="798" d="M-155 -307q121 117 169 191.5t48 140.5q0 41 -16.5 85t-65.5 126h190q35 -66 49.5 -111t14.5 -90q0 -84 -79 -176t-261 -221zM238 -307q123 119 171 194t48 138q0 41 -17.5 87t-66.5 124h190q35 -59 49.5 -106.5t14.5 -94.5q0 -84 -79 -176t-259 -221z" />
<glyph unicode="&#x2022;" horiz-adv-x="1019" d="M272 707q0 127 88.5 217t210.5 90q119 0 199 -81t80 -202q0 -127 -88 -217t-211 -90q-119 0 -199 81t-80 202z" />
<glyph unicode="&#x2026;" horiz-adv-x="1226" d="M-29 113q0 53 39 93t92 40q55 0 94.5 -39t39.5 -94q0 -53 -39.5 -92t-94.5 -39q-53 0 -92 38.5t-39 92.5zM383 113q0 55 38 94t93 39t93 -39t38 -94q0 -53 -39 -92t-92 -39t-92 38.5t-39 92.5zM793 113q0 55 37.5 94t93.5 39q55 0 93 -39t38 -94q0 -53 -39 -92t-92 -39 t-92 38.5t-39 92.5z" />
<glyph unicode="&#x202f;" horiz-adv-x="376" />
<glyph unicode="&#x2039;" horiz-adv-x="782" d="M92 496l8 32l619 510l55 -49l-457 -491l218 -473l-66 -39z" />
<glyph unicode="&#x203a;" horiz-adv-x="782" d="M8 37l457 489l-217 473l65 39l377 -510l-8 -32l-619 -510z" />
<glyph unicode="&#x205f;" horiz-adv-x="470" />
<glyph unicode="&#x20ac;" horiz-adv-x="1386" d="M66 508l28 119h230q4 49 12 95t18 91h-213l29 117h223q94 242 283.5 385t417.5 143q104 0 193 -28.5t167 -88.5l-35 -184h-4q-78 68 -155.5 98.5t-169.5 30.5q-154 0 -286 -95t-210 -261h584l-29 -117h-598q-14 -43 -23.5 -90t-13.5 -96h590l-29 -119h-565 q4 -168 88 -264.5t225 -96.5q100 0 194.5 39t196.5 121l5 -2l-72 -233q-74 -45 -163 -71t-171 -26q-221 0 -355 143.5t-139 389.5h-253z" />
<glyph unicode="&#x2122;" horiz-adv-x="2060" d="M258 1311l31 123h731l-31 -123h-295l-170 -684h-137l170 684h-299zM950 627l248 807h184l125 -566l410 566h205l-158 -807h-129l127 667l-498 -680h-22l-158 676l-203 -663h-131z" />
<glyph unicode="&#x25fc;" horiz-adv-x="1024" d="M0 0v1024h1024v-1024h-1024z" />
<glyph unicode="&#xfb03;" horiz-adv-x="2183" d="M135 0l215 866h-180l39 158h182l45 184q41 164 147.5 253t262.5 89q41 0 78 -7t69 -19l45 -189l-6 -4q-45 25 -89 37t-93 12q-92 0 -153.5 -57t-88.5 -168l-33 -131h338l-39 -158h-337l-215 -866h-187zM954 0l215 866h-180l39 158h182l45 184q41 164 147.5 253t262.5 89 q41 0 78 -7t69 -19l45 -189l-6 -4q-45 25 -89 37t-93 12q-92 0 -153.5 -57t-88.5 -168l-33 -131h338l-39 -158h-337l-215 -866h-187zM1691 0l256 1024h185l-254 -1024h-187zM1998 1391q0 53 37 90t90 37t90 -37t37 -90t-36.5 -90t-90.5 -37q-53 0 -90 36.5t-37 90.5z" />
<glyph unicode="&#xfb04;" horiz-adv-x="2183" d="M135 0l215 866h-180l39 158h182l45 184q41 164 147.5 253t262.5 89q41 0 78 -7t69 -19l45 -189l-6 -4q-45 25 -89 37t-93 12q-92 0 -153.5 -57t-88.5 -168l-33 -131h338l-39 -158h-337l-215 -866h-187zM954 0l215 866h-180l39 158h182l45 184q41 164 147.5 253t262.5 89 q41 0 78 -7t69 -19l45 -189l-6 -4q-45 25 -89 37t-93 12q-92 0 -153.5 -57t-88.5 -168l-33 -131h338l-39 -158h-337l-215 -866h-187zM1691 0l371 1485l203 69l-387 -1554h-187z" />
</font>
</defs>
</svg>
